  0
SECTION
  2
HEADER
  9
$ACADVER
  1
AC1027
  9
$ACADMAINTVER
 70
   105
  9
$DWGCODEPAGE
  3
ANSI_1252
  9
$REQUIREDVERSIONS
160
                 0
  9
$LASTSAVEDBY
  1
matthias.ochs
  9
$INSBASE
 10
0.0
 20
0.0
 30
0.0
  9
$EXTMIN
 10
-100.8703842991255
 20
-73.02748160543865
 30
0.0
  9
$EXTMAX
 10
166.3491278959963
 20
83.52129888236612
 30
0.0
  9
$LIMMIN
 10
0.0
 20
0.0
  9
$LIMMAX
 10
420.0
 20
297.0
  9
$ORTHOMODE
 70
     0
  9
$REGENMODE
 70
     1
  9
$FILLMODE
 70
     1
  9
$QTEXTMODE
 70
     0
  9
$MIRRTEXT
 70
     1
  9
$LTSCALE
 40
1.0
  9
$ATTMODE
 70
     1
  9
$TEXTSIZE
 40
3.5
  9
$TRACEWID
 40
1.0
  9
$TEXTSTYLE
  7
STANDARD
  9
$CLAYER
  8
SK6
  9
$CELTYPE
  6
BYLAYER
  9
$CECOLOR
 62
   256
  9
$CELTSCALE
 40
1.0
  9
$DISPSILH
 70
     0
  9
$DIMSCALE
 40
1.0
  9
$DIMASZ
 40
3.5
  9
$DIMEXO
 40
0.0
  9
$DIMDLI
 40
3.75
  9
$DIMRND
 40
0.0
  9
$DIMDLE
 40
0.0
  9
$DIMEXE
 40
1.0
  9
$DIMTP
 40
0.0
  9
$DIMTM
 40
0.0
  9
$DIMTXT
 40
3.5
  9
$DIMCEN
 40
2.5
  9
$DIMTSZ
 40
0.0
  9
$DIMTOL
 70
     0
  9
$DIMLIM
 70
     0
  9
$DIMTIH
 70
     1
  9
$DIMTOH
 70
     1
  9
$DIMSE1
 70
     0
  9
$DIMSE2
 70
     0
  9
$DIMTAD
 70
     1
  9
$DIMZIN
 70
     0
  9
$DIMBLK
  1

  9
$DIMASO
 70
     1
  9
$DIMSHO
 70
     1
  9
$DIMPOST
  1

  9
$DIMAPOST
  1

  9
$DIMALT
 70
     0
  9
$DIMALTD
 70
     3
  9
$DIMALTF
 40
0.0393700787
  9
$DIMLFAC
 40
1.0
  9
$DIMTOFL
 70
     1
  9
$DIMTVP
 40
0.0
  9
$DIMTIX
 70
     0
  9
$DIMSOXD
 70
     0
  9
$DIMSAH
 70
     0
  9
$DIMBLK1
  1

  9
$DIMBLK2
  1

  9
$DIMSTYLE
  2
ISO-25
  9
$DIMCLRD
 70
     0
  9
$DIMCLRE
 70
     0
  9
$DIMCLRT
 70
     0
  9
$DIMTFAC
 40
1.0
  9
$DIMGAP
 40
1.5
  9
$DIMJUST
 70
     0
  9
$DIMSD1
 70
     0
  9
$DIMSD2
 70
     0
  9
$DIMTOLJ
 70
     0
  9
$DIMTZIN
 70
     0
  9
$DIMALTZ
 70
     0
  9
$DIMALTTZ
 70
     0
  9
$DIMUPT
 70
     0
  9
$DIMDEC
 70
     2
  9
$DIMTDEC
 70
     3
  9
$DIMALTU
 70
     2
  9
$DIMALTTD
 70
     3
  9
$DIMTXSTY
  7
STANDARD
  9
$DIMAUNIT
 70
     0
  9
$DIMADEC
 70
     0
  9
$DIMALTRND
 40
0.0
  9
$DIMAZIN
 70
     0
  9
$DIMDSEP
 70
    46
  9
$DIMATFIT
 70
     3
  9
$DIMFRAC
 70
     0
  9
$DIMLDRBLK
  1

  9
$DIMLUNIT
 70
     2
  9
$DIMLWD
 70
    -2
  9
$DIMLWE
 70
    -2
  9
$DIMTMOVE
 70
     2
  9
$DIMFXL
 40
1.0
  9
$DIMFXLON
 70
     0
  9
$DIMJOGANG
 40
0.7853981633974483
  9
$DIMTFILL
 70
     0
  9
$DIMTFILLCLR
 70
     0
  9
$DIMARCSYM
 70
     0
  9
$DIMLTYPE
  6

  9
$DIMLTEX1
  6

  9
$DIMLTEX2
  6

  9
$DIMTXTDIRECTION
 70
     0
  9
$LUNITS
 70
     2
  9
$LUPREC
 70
     2
  9
$SKETCHINC
 40
1.0
  9
$FILLETRAD
 40
10.0
  9
$AUNITS
 70
     0
  9
$AUPREC
 70
     2
  9
$MENU
  1
.
  9
$ELEVATION
 40
0.0
  9
$PELEVATION
 40
0.0
  9
$THICKNESS
 40
0.0
  9
$LIMCHECK
 70
     0
  9
$CHAMFERA
 40
0.0
  9
$CHAMFERB
 40
0.0
  9
$CHAMFERC
 40
0.0
  9
$CHAMFERD
 40
0.0
  9
$SKPOLY
 70
     0
  9
$TDCREATE
 40
2456814.679127604
  9
$TDUCREATE
 40
2456814.595794271
  9
$TDUPDATE
 40
2458677.674579016
  9
$TDUUPDATE
 40
2458677.591245683
  9
$TDINDWG
 40
0.0078120023
  9
$TDUSRTIMER
 40
0.0059159954
  9
$USRTIMER
 70
     1
  9
$ANGBASE
 50
0.0
  9
$ANGDIR
 70
     0
  9
$PDMODE
 70
     0
  9
$PDSIZE
 40
-1.0
  9
$PLINEWID
 40
0.0
  9
$SPLFRAME
 70
     0
  9
$SPLINETYPE
 70
     6
  9
$SPLINESEGS
 70
     8
  9
$HANDSEED
  5
45D
  9
$SURFTAB1
 70
     6
  9
$SURFTAB2
 70
     6
  9
$SURFTYPE
 70
     6
  9
$SURFU
 70
     6
  9
$SURFV
 70
     6
  9
$UCSBASE
  2

  9
$UCSNAME
  2

  9
$UCSORG
 10
0.0
 20
0.0
 30
0.0
  9
$UCSXDIR
 10
1.0
 20
0.0
 30
0.0
  9
$UCSYDIR
 10
0.0
 20
1.0
 30
0.0
  9
$UCSORTHOREF
  2

  9
$UCSORTHOVIEW
 70
     0
  9
$UCSORGTOP
 10
0.0
 20
0.0
 30
0.0
  9
$UCSORGBOTTOM
 10
0.0
 20
0.0
 30
0.0
  9
$UCSORGLEFT
 10
0.0
 20
0.0
 30
0.0
  9
$UCSORGRIGHT
 10
0.0
 20
0.0
 30
0.0
  9
$UCSORGFRONT
 10
0.0
 20
0.0
 30
0.0
  9
$UCSORGBACK
 10
0.0
 20
0.0
 30
0.0
  9
$PUCSBASE
  2

  9
$PUCSNAME
  2

  9
$PUCSORG
 10
0.0
 20
0.0
 30
0.0
  9
$PUCSXDIR
 10
1.0
 20
0.0
 30
0.0
  9
$PUCSYDIR
 10
0.0
 20
1.0
 30
0.0
  9
$PUCSORTHOREF
  2

  9
$PUCSORTHOVIEW
 70
     0
  9
$PUCSORGTOP
 10
0.0
 20
0.0
 30
0.0
  9
$PUCSORGBOTTOM
 10
0.0
 20
0.0
 30
0.0
  9
$PUCSORGLEFT
 10
0.0
 20
0.0
 30
0.0
  9
$PUCSORGRIGHT
 10
0.0
 20
0.0
 30
0.0
  9
$PUCSORGFRONT
 10
0.0
 20
0.0
 30
0.0
  9
$PUCSORGBACK
 10
0.0
 20
0.0
 30
0.0
  9
$USERI1
 70
     0
  9
$USERI2
 70
     0
  9
$USERI3
 70
     0
  9
$USERI4
 70
     0
  9
$USERI5
 70
     0
  9
$USERR1
 40
0.0
  9
$USERR2
 40
0.0
  9
$USERR3
 40
0.0
  9
$USERR4
 40
0.0
  9
$USERR5
 40
0.0
  9
$WORLDVIEW
 70
     1
  9
$SHADEDGE
 70
     3
  9
$SHADEDIF
 70
    70
  9
$TILEMODE
 70
     1
  9
$MAXACTVP
 70
    64
  9
$PINSBASE
 10
0.0
 20
0.0
 30
0.0
  9
$PLIMCHECK
 70
     0
  9
$PEXTMIN
 10
1.000000000000000E+20
 20
1.000000000000000E+20
 30
1.000000000000000E+20
  9
$PEXTMAX
 10
-1.000000000000000E+20
 20
-1.000000000000000E+20
 30
-1.000000000000000E+20
  9
$PLIMMIN
 10
0.0
 20
0.0
  9
$PLIMMAX
 10
0.0
 20
0.0
  9
$UNITMODE
 70
     0
  9
$VISRETAIN
 70
     1
  9
$PLINEGEN
 70
     0
  9
$PSLTSCALE
 70
     1
  9
$TREEDEPTH
 70
  3020
  9
$CMLSTYLE
  2
STANDARD
  9
$CMLJUST
 70
     0
  9
$CMLSCALE
 40
20.0
  9
$PROXYGRAPHICS
 70
     1
  9
$MEASUREMENT
 70
     1
  9
$CELWEIGHT
370
    -1
  9
$ENDCAPS
280
     0
  9
$JOINSTYLE
280
     0
  9
$LWDISPLAY
290
     0
  9
$INSUNITS
 70
     0
  9
$HYPERLINKBASE
  1

  9
$STYLESHEET
  1

  9
$XEDIT
290
     1
  9
$CEPSNTYPE
380
     0
  9
$PSTYLEMODE
290
     1
  9
$FINGERPRINTGUID
  2
{EB321CC7-BFA3-4322-8572-0D4DAD802AAB}
  9
$VERSIONGUID
  2
{FAEB1C32-E019-11D5-929B-00C0DF256EC4}
  9
$EXTNAMES
290
     1
  9
$PSVPSCALE
 40
0.0
  9
$OLESTARTUP
290
     0
  9
$SORTENTS
280
   127
  9
$INDEXCTL
280
     0
  9
$HIDETEXT
280
     1
  9
$XCLIPFRAME
280
     2
  9
$HALOGAP
280
     0
  9
$OBSCOLOR
 70
   257
  9
$OBSLTYPE
280
     0
  9
$INTERSECTIONDISPLAY
280
     0
  9
$INTERSECTIONCOLOR
 70
   257
  9
$DIMASSOC
280
     2
  9
$PROJECTNAME
  1

  9
$CAMERADISPLAY
290
     0
  9
$LENSLENGTH
 40
50.0
  9
$CAMERAHEIGHT
 40
0.0
  9
$STEPSPERSEC
 40
2.0
  9
$STEPSIZE
 40
6.0
  9
$3DDWFPREC
 40
2.0
  9
$PSOLWIDTH
 40
0.25
  9
$PSOLHEIGHT
 40
4.0
  9
$LOFTANG1
 40
1.570796326794897
  9
$LOFTANG2
 40
1.570796326794897
  9
$LOFTMAG1
 40
0.0
  9
$LOFTMAG2
 40
0.0
  9
$LOFTPARAM
 70
     7
  9
$LOFTNORMALS
280
     1
  9
$LATITUDE
 40
37.795
  9
$LONGITUDE
 40
-122.394
  9
$NORTHDIRECTION
 40
0.0
  9
$TIMEZONE
 70
 -8000
  9
$LIGHTGLYPHDISPLAY
280
     1
  9
$TILEMODELIGHTSYNCH
280
     1
  9
$SOLIDHIST
280
     0
  9
$SHOWHIST
280
     1
  9
$DWFFRAME
280
     2
  9
$DGNFRAME
280
     2
  9
$REALWORLDSCALE
290
     1
  9
$INTERFERECOLOR
 62
   256
  9
$CSHADOW
280
     0
  9
$SHADOWPLANELOCATION
 40
0.0
  0
ENDSEC
  0
SECTION
  2
CLASSES
  0
CLASS
  1
ACDBDICTIONARYWDFLT
  2
AcDbDictionaryWithDefault
  3
ObjectDBX Classes
 90
        0
 91
       26
280
     0
281
     0
  0
CLASS
  1
VISUALSTYLE
  2
AcDbVisualStyle
  3
ObjectDBX Classes
 90
     4095
 91
       26
280
     0
281
     0
  0
CLASS
  1
MATERIAL
  2
AcDbMaterial
  3
ObjectDBX Classes
 90
     1153
 91
       26
280
     0
281
     0
  0
CLASS
  1
SCALE
  2
AcDbScale
  3
ObjectDBX Classes
 90
     1153
 91
       26
280
     0
281
     0
  0
CLASS
  1
SUN
  2
AcDbSun
  3
SCENEOE
 90
     1153
 91
       26
280
     0
281
     0
  0
CLASS
  1
XRECORD
  2
AcDbXrecord
  3
ObjectDBX Classes
 90
        0
 91
        1
280
     0
281
     0
  0
CLASS
  1
LWPOLYLINE
  2
AcDbPolyline
  3
ObjectDBX Classes
 90
        0
 91
        1
280
     0
281
     1
  0
CLASS
  1
HATCH
  2
AcDbHatch
  3
ObjectDBX Classes
 90
        0
 91
        1
280
     0
281
     1
  0
CLASS
  1
DICTIONARYVAR
  2
AcDbDictionaryVar
  3
ObjectDBX Classes
 90
        0
 91
        9
280
     0
281
     0
  0
CLASS
  1
ACDBPLACEHOLDER
  2
AcDbPlaceHolder
  3
ObjectDBX Classes
 90
        0
 91
        1
280
     0
281
     0
  0
CLASS
  1
LAYOUT
  2
AcDbLayout
  3
ObjectDBX Classes
 90
        0
 91
        1
280
     0
281
     0
  0
CLASS
  1
TABLESTYLE
  2
AcDbTableStyle
  3
ObjectDBX Classes
 90
     4095
 91
       26
280
     0
281
     0
  0
CLASS
  1
MLEADERSTYLE
  2
AcDbMLeaderStyle
  3
ACDB_MLEADERSTYLE_CLASS
 90
     4095
 91
       26
280
     0
281
     0
  0
CLASS
  1
SORTENTSTABLE
  2
AcDbSortentsTable
  3
ObjectDBX Classes
 90
        0
 91
        8
280
     0
281
     0
  0
CLASS
  1
CELLSTYLEMAP
  2
AcDbCellStyleMap
  3
ObjectDBX Classes
 90
     1152
 91
        7
280
     0
281
     0
  0
ENDSEC
  0
SECTION
  2
TABLES
  0
TABLE
  2
VPORT
  5
8
330
0
100
AcDbSymbolTable
 70
     1
  0
VPORT
  5
29
330
8
100
AcDbSymbolTableRecord
100
AcDbViewportTableRecord
  2
*ACTIVE
 70
     0
 10
0.0
 20
0.0
 11
1.0
 21
1.0
 12
35.82985021638984
 22
-1.770258460534286
 13
0.0
 23
0.0
 14
10.0
 24
10.0
 15
10.0
 25
10.0
 16
0.0
 26
0.0
 36
1.0
 17
0.0
 27
0.0
 37
0.0
 40
307.9712999601024
 41
1.831002331002331
 42
50.0
 43
0.0
 44
0.0
 50
0.0
 51
0.0
 71
    16
 72
  2000
 73
     1
 74
     3
 75
     0
 76
     0
 77
     0
 78
     0
281
     0
 65
     1
110
0.0
120
0.0
130
0.0
111
1.0
121
0.0
131
0.0
112
0.0
122
1.0
132
0.0
 79
     0
146
0.0
348
284
 60
     3
 61
     5
292
     1
282
     1
141
0.0
142
0.0
 63
   256
361
34E
  0
ENDTAB
  0
TABLE
  2
LTYPE
  5
5
330
0
100
AcDbSymbolTable
 70
     9
  0
LTYPE
  5
14
330
5
100
AcDbSymbolTableRecord
100
AcDbLinetypeTableRecord
  2
BYBLOCK
 70
     0
  3

 72
    65
 73
     0
 40
0.0
  0
LTYPE
  5
15
330
5
100
AcDbSymbolTableRecord
100
AcDbLinetypeTableRecord
  2
BYLAYER
 70
     0
  3

 72
    65
 73
     0
 40
0.0
  0
LTYPE
  5
16
330
5
100
AcDbSymbolTableRecord
100
AcDbLinetypeTableRecord
  2
CONTINUOUS
 70
     0
  3
Solid line
 72
    65
 73
     0
 40
0.0
  0
LTYPE
  5
6A
330
5
100
AcDbSymbolTableRecord
100
AcDbLinetypeTableRecord
  2
HIDDEN
 70
     0
  3
Hidden __ __ __ __ __ __ __ __ __ __ __ __ __ __
 72
    65
 73
     2
 40
1.905
 49
1.27
 74
     0
 49
-0.635
 74
     0
  0
LTYPE
  5
6B
330
5
100
AcDbSymbolTableRecord
100
AcDbLinetypeTableRecord
  2
PHANTOM
 70
     0
  3
Phantom ______  __  __  ______  __  __  ______
 72
    65
 73
     6
 40
12.7
 49
6.35
 74
     0
 49
-1.27
 74
     0
 49
1.27
 74
     0
 49
-1.27
 74
     0
 49
1.27
 74
     0
 49
-1.27
 74
     0
  0
LTYPE
  5
6C
330
5
100
AcDbSymbolTableRecord
100
AcDbLinetypeTableRecord
  2
CENTER
 70
     0
  3
Center ____ _ ____ _ ____ _ ____ _ ____ _ ____
 72
    65
 73
     4
 40
10.16
 49
6.35
 74
     0
 49
-1.27
 74
     0
 49
1.27
 74
     0
 49
-1.27
 74
     0
  0
LTYPE
  5
6D
330
5
100
AcDbSymbolTableRecord
100
AcDbLinetypeTableRecord
  2
CENTERX2
 70
     0
  3
Center (2x) ________  __  ________  __  _____
 72
    65
 73
     4
 40
20.32
 49
12.7
 74
     0
 49
-2.54
 74
     0
 49
2.54
 74
     0
 49
-2.54
 74
     0
  0
LTYPE
  5
6E
330
5
100
AcDbSymbolTableRecord
100
AcDbLinetypeTableRecord
  2
DOT2
 70
     0
  3
Dot (.5x) ........................................
 72
    65
 73
     2
 40
0.635
 49
0.0
 74
     0
 49
-0.635
 74
     0
  0
LTYPE
  5
2DB
330
5
100
AcDbSymbolTableRecord
100
AcDbLinetypeTableRecord
  2
DASH
 70
     0
  3
DASH _ _ _ _ _
 72
    65
 73
     2
 40
0.75
 49
0.4
 74
     0
 49
-0.35
 74
     0
  0
LTYPE
  5
2DC
330
5
100
AcDbSymbolTableRecord
100
AcDbLinetypeTableRecord
  2
LONGDASH_DASH
 70
     0
  3
LONGDASH_DASH __ . __ . __
 72
    65
 73
     4
 40
0.85
 49
0.4
 74
     0
 49
-0.2
 74
     0
 49
0.05
 74
     0
 49
-0.2
 74
     0
  0
LTYPE
  5
2DD
330
5
100
AcDbSymbolTableRecord
100
AcDbLinetypeTableRecord
  2
LONGDASH_DASH_DASH
 70
     0
  3
LONGDASH_DASH_DASH __ . . __ . . __
 72
    65
 73
     6
 40
1.1
 49
0.4
 74
     0
 49
-0.2
 74
     0
 49
0.05
 74
     0
 49
-0.2
 74
     0
 49
0.05
 74
     0
 49
-0.2
 74
     0
  0
ENDTAB
  0
TABLE
  2
LAYER
  5
2
102
{ACAD_XDICTIONARY
360
2FD
102
}
330
0
100
AcDbSymbolTable
 70
    18
  0
LAYER
  5
295
330
2
100
AcDbSymbolTableRecord
100
AcDbLayerTableRecord
  2
200
 70
     0
 62
     2
  6
CONTINUOUS
370
    50
390
2EE
347
293
348
0
  0
LAYER
  5
298
330
2
100
AcDbSymbolTableRecord
100
AcDbLayerTableRecord
  2
Defpoints
 70
     0
 62
     7
  6
CONTINUOUS
290
     0
370
    -3
390
2EE
347
293
348
0
  0
LAYER
  5
2DE
330
2
100
AcDbSymbolTableRecord
100
AcDbLayerTableRecord
  2
0
 70
     0
 62
     1
  6
CONTINUOUS
370
    -3
390
2EE
347
293
348
0
  0
LAYER
  5
2DF
330
2
100
AcDbSymbolTableRecord
100
AcDbLayerTableRecord
  2
1
 70
     0
 62
     4
  6
CONTINUOUS
370
    50
390
2EE
347
293
348
0
  0
LAYER
  5
2E0
330
2
100
AcDbSymbolTableRecord
100
AcDbLayerTableRecord
  2
2
 70
     0
 62
     7
  6
CONTINUOUS
370
    25
390
2EE
347
293
348
0
  0
LAYER
  5
2E1
330
2
100
AcDbSymbolTableRecord
100
AcDbLayerTableRecord
  2
3
 70
     0
 62
     1
  6
DASH
370
    35
390
2EE
347
293
348
0
  0
LAYER
  5
2E2
330
2
100
AcDbSymbolTableRecord
100
AcDbLayerTableRecord
  2
4
 70
     0
 62
     2
  6
LONGDASH_DASH
370
    25
390
2EE
347
293
348
0
  0
LAYER
  5
2E3
330
2
100
AcDbSymbolTableRecord
100
AcDbLayerTableRecord
  2
6
 70
     0
 62
     5
  6
CONTINUOUS
370
    -3
390
2EE
347
293
348
0
  0
LAYER
  5
2E4
330
2
100
AcDbSymbolTableRecord
100
AcDbLayerTableRecord
  2
CUT
 70
     0
 62
     1
  6
CONTINUOUS
370
    25
390
2EE
347
293
348
0
  0
LAYER
  5
2E5
330
2
100
AcDbSymbolTableRecord
100
AcDbLayerTableRecord
  2
NOCUT
 70
     0
 62
     7
  6
CONTINUOUS
370
    25
390
2EE
347
293
348
0
  0
LAYER
  5
2E6
330
2
100
AcDbSymbolTableRecord
100
AcDbLayerTableRecord
  2
SK1
 70
     0
 62
     4
  6
CONTINUOUS
370
    50
390
2EE
347
293
348
0
  0
LAYER
  5
2E7
330
2
100
AcDbSymbolTableRecord
100
AcDbLayerTableRecord
  2
SK2
 70
     0
 62
     7
  6
CONTINUOUS
370
    25
390
2EE
347
293
348
0
  0
LAYER
  5
2E8
330
2
100
AcDbSymbolTableRecord
100
AcDbLayerTableRecord
  2
SK3
 70
     0
 62
     1
  6
DASH
370
    35
390
2EE
347
293
348
0
  0
LAYER
  5
2E9
330
2
100
AcDbSymbolTableRecord
100
AcDbLayerTableRecord
  2
SK4
 70
     0
 62
     2
  6
LONGDASH_DASH
370
    25
390
2EE
347
293
348
0
  0
LAYER
  5
2EA
330
2
100
AcDbSymbolTableRecord
100
AcDbLayerTableRecord
  2
SK6
 70
     0
 62
     5
  6
CONTINUOUS
370
    -3
390
2EE
347
293
348
0
  0
LAYER
  5
2EB
330
2
100
AcDbSymbolTableRecord
100
AcDbLayerTableRecord
  2
INFTOTAL
 70
     0
 62
     9
  6
CONTINUOUS
370
    18
390
2EE
347
293
348
0
  0
LAYER
  5
3FF
330
2
100
AcDbSymbolTableRecord
100
AcDbLayerTableRecord
  2
7
 70
     0
 62
     5
  6
CONTINUOUS
370
    18
390
2EE
347
293
348
0
1001
AcAecLayerStandard
1000

1000

  0
LAYER
  5
401
330
2
100
AcDbSymbolTableRecord
100
AcDbLayerTableRecord
  2
11
 70
     0
 62
     4
  6
CONTINUOUS
370
    50
390
2EE
347
293
348
0
1001
AcAecLayerStandard
1000

1000

  0
ENDTAB
  0
TABLE
  2
STYLE
  5
3
330
0
100
AcDbSymbolTable
 70
     3
  0
STYLE
  5
11
330
3
100
AcDbSymbolTableRecord
100
AcDbTextStyleTableRecord
  2
STANDARD
 70
     0
 40
0.0
 41
1.0
 50
0.0
 71
     0
 42
3.5
  3
txt
  4

  0
STYLE
  5
75
330
3
100
AcDbSymbolTableRecord
100
AcDbTextStyleTableRecord
  2
SLDTEXTSTYLE0
 70
     0
 40
0.0
 41
0.605
 50
0.0
 71
     0
 42
3.5
  3
TXT
  4

  0
STYLE
  5
294
330
3
100
AcDbSymbolTableRecord
100
AcDbTextStyleTableRecord
  2
BMG_Text
 70
     0
 40
3.5
 41
1.0
 50
0.0
 71
     0
 42
3.5
  3
monos.ttf
  4

1001
ACAD
1000
Monospac821 BT
1071
       49
  0
ENDTAB
  0
TABLE
  2
VIEW
  5
6
330
0
100
AcDbSymbolTable
 70
     0
  0
ENDTAB
  0
TABLE
  2
UCS
  5
7
330
0
100
AcDbSymbolTable
 70
     0
  0
ENDTAB
  0
TABLE
  2
APPID
  5
9
330
0
100
AcDbSymbolTable
 70
     6
  0
APPID
  5
12
330
9
100
AcDbSymbolTableRecord
100
AcDbRegAppTableRecord
  2
ACAD
 70
     0
  0
APPID
  5
2AE
330
9
100
AcDbSymbolTableRecord
100
AcDbRegAppTableRecord
  2
ACAD_DSTYLE_DIM_LINETYPE
 70
     0
  0
APPID
  5
2AF
330
9
100
AcDbSymbolTableRecord
100
AcDbRegAppTableRecord
  2
ACAD_DSTYLE_DIM_EXT1_LINETYPE
 70
     0
  0
APPID
  5
2B0
330
9
100
AcDbSymbolTableRecord
100
AcDbRegAppTableRecord
  2
ACAD_DSTYLE_DIM_EXT2_LINETYPE
 70
     0
  0
APPID
  5
400
330
9
100
AcDbSymbolTableRecord
100
AcDbRegAppTableRecord
  2
AcAecLayerStandard
 70
     0
  0
APPID
  5
409
330
9
100
AcDbSymbolTableRecord
100
AcDbRegAppTableRecord
  2
PE_URL
 70
     0
  0
ENDTAB
  0
TABLE
  2
DIMSTYLE
  5
A
330
0
100
AcDbSymbolTable
 70
     5
100
AcDbDimStyleTable
  0
DIMSTYLE
105
27
330
A
100
AcDbSymbolTableRecord
100
AcDbDimStyleTableRecord
  2
ISO-25
 70
     0
 41
2.5
 42
0.625
 43
3.75
 44
1.25
 73
     0
 74
     0
 77
     1
 78
     8
140
2.5
141
2.5
143
0.0393700787
147
0.625
171
     3
172
     1
178
     0
271
     2
272
     2
274
     3
283
     0
284
     8
340
11
  0
DIMSTYLE
105
223
102
{ACAD_REACTORS
330
222
102
}
330
A
100
AcDbSymbolTableRecord
100
AcDbDimStyleTableRecord
  2
SLDDIMSTYLE0
 70
     0
 41
3.5
 44
0.0
 45
0.000000001
 73
     0
 74
     0
 77
     1
 78
    12
140
3.5
147
0.875
173
     1
178
     0
271
     0
272
     3
284
    12
340
75
  0
DIMSTYLE
105
230
102
{ACAD_REACTORS
330
22F
330
23A
330
244
330
24F
102
}
330
A
100
AcDbSymbolTableRecord
100
AcDbDimStyleTableRecord
  2
SLDDIMSTYLE1
 70
     0
 41
3.5
 44
0.0
 45
0.000000001
 73
     0
 74
     0
 77
     1
 78
    12
140
3.5
147
0.875
173
     1
178
     0
271
     2
272
     3
284
    12
340
75
  0
DIMSTYLE
105
402
330
A
100
AcDbSymbolTableRecord
100
AcDbDimStyleTableRecord
  2
Matthias
 70
     0
 41
3.0
 44
2.0
 73
     0
 77
     1
140
3.0
147
2.0
178
     0
340
11
  0
DIMSTYLE
105
408
330
A
100
AcDbSymbolTableRecord
100
AcDbDimStyleTableRecord
  2
SLDDIMSTYLE2
 70
     0
 41
3.5
 44
0.0
 45
0.000000001
 73
     0
 74
     0
 77
     1
 78
    12
 79
     3
140
3.5
147
0.875
173
     1
178
     0
271
     2
272
     0
276
     2
284
    12
340
75
  0
ENDTAB
  0
TABLE
  2
BLOCK_RECORD
  5
1
330
0
100
AcDbSymbolTable
 70
     6
  0
BLOCK_RECORD
  5
1F
102
{ACAD_XDICTIONARY
360
444
102
}
330
1
100
AcDbSymbolTableRecord
100
AcDbBlockTableRecord
  2
*MODEL_SPACE
340
27D
 70
     0
280
     1
281
     0
  0
BLOCK_RECORD
  5
1B
330
1
100
AcDbSymbolTableRecord
100
AcDbBlockTableRecord
  2
*PAPER_SPACE
340
27E
 70
     0
280
     1
281
     0
  0
BLOCK_RECORD
  5
224
330
1
100
AcDbSymbolTableRecord
100
AcDbBlockTableRecord
  2
_D
340
0
 70
     0
280
     1
281
     0
  0
BLOCK_RECORD
  5
231
330
1
100
AcDbSymbolTableRecord
100
AcDbBlockTableRecord
  2
_D_1
340
0
 70
     0
280
     1
281
     0
  0
BLOCK_RECORD
  5
23B
330
1
100
AcDbSymbolTableRecord
100
AcDbBlockTableRecord
  2
_D_2
340
0
 70
     0
280
     1
281
     0
  0
BLOCK_RECORD
  5
245
330
1
100
AcDbSymbolTableRecord
100
AcDbBlockTableRecord
  2
_D_3
340
0
 70
     0
280
     1
281
     0
  0
BLOCK_RECORD
  5
250
330
1
100
AcDbSymbolTableRecord
100
AcDbBlockTableRecord
  2
_D_4
340
0
 70
     0
280
     1
281
     0
  0
ENDTAB
  0
ENDSEC
  0
SECTION
  2
BLOCKS
  0
BLOCK
  5
20
330
1F
100
AcDbEntity
  8
0
100
AcDbBlockBegin
  2
*MODEL_SPACE
 70
     0
 10
0.0
 20
0.0
 30
0.0
  3
*MODEL_SPACE
  1

  0
ENDBLK
  5
21
330
1F
100
AcDbEntity
  8
0
100
AcDbBlockEnd
  0
BLOCK
  5
1C
330
1B
100
AcDbEntity
 67
     1
  8
0
100
AcDbBlockBegin
  2
*PAPER_SPACE
 70
     0
 10
0.0
 20
0.0
 30
0.0
  3
*PAPER_SPACE
  1

  0
ENDBLK
  5
1D
330
1B
100
AcDbEntity
 67
     1
  8
0
100
AcDbBlockEnd
  0
BLOCK
  5
225
330
224
100
AcDbEntity
  8
0
100
AcDbBlockBegin
  2
_D
 70
     0
 10
0.0
 20
0.0
 30
0.0
  3
_D
  1
_D
  0
LINE
  5
227
330
224
100
AcDbEntity
  8
SK2
  6
ByBlock
370
    -2
100
AcDbLine
 10
116.1235819479
 20
48.98829455388737
 30
0.0
 11
133.3107557900428
 21
48.98829446791517
 31
0.0
  0
LINE
  5
228
330
224
100
AcDbEntity
  8
SK2
  6
ByBlock
370
    -2
100
AcDbLine
 10
116.1235814579
 20
-48.98739916671263
 30
0.0
 11
133.3107552999572
 21
-48.98739925268484
 31
0.0
  0
LINE
  5
229
330
224
100
AcDbEntity
  8
SK2
  6
ByBlock
370
    -2
100
AcDbLine
 10
133.3107557725354
 20
45.48829446791517
 30
0.0
 11
133.3107553174646
 21
-45.48739925268484
 31
0.0
  0
SOLID
  5
22A
330
224
100
AcDbEntity
  8
SK2
100
AcDbTrace
 10
133.8940891058687
 20
45.48829446499727
 30
0.0
 11
132.7274224392021
 21
45.48829447083307
 31
0.0
 12
133.3107557900428
 22
48.98829446791517
 32
0.0
 13
133.3107557900428
 23
48.98829446791517
 33
0.0
  0
SOLID
  5
22B
330
224
100
AcDbEntity
  8
SK2
100
AcDbTrace
 10
132.7274219841313
 20
-45.48739924976694
 30
0.0
 11
133.894088650798
 21
-45.48739925560274
 31
0.0
 12
133.3107552999572
 22
-48.98739925268484
 32
0.0
 13
133.3107552999572
 23
-48.98739925268484
 33
0.0
  0
MTEXT
  5
22C
330
224
100
AcDbEntity
  8
SK2
100
AcDbMText
 10
130.573755545
 20
0.0004476212907854
 30
0.0
 40
3.5
 41
0.0
 46
0.0
 71
     5
 72
     1
  1
\A1;%%c98 - 153
  7
BMG_Text
 11
5.002113789257525E-9
 21
1.0
 31
0.0
 73
     1
 44
1.0
  0
POINT
  5
22D
330
224
100
AcDbEntity
  8
Defpoints
 62
     0
100
AcDbPoint
 10
116.0610819479
 20
48.9882945542
 30
0.0
  0
POINT
  5
22E
330
224
100
AcDbEntity
  8
Defpoints
 62
     0
100
AcDbPoint
 10
116.0610814579
 20
-48.9873991664
 30
0.0
  0
POINT
  5
299
330
224
100
AcDbEntity
  8
Defpoints
 62
     0
100
AcDbPoint
 10
133.3107552999572
 20
-48.98739925268484
 30
0.0
  0
ENDBLK
  5
226
330
224
100
AcDbEntity
  8
0
100
AcDbBlockEnd
  0
BLOCK
  5
232
330
231
100
AcDbEntity
  8
0
100
AcDbBlockBegin
  2
_D_1
 70
     0
 10
0.0
 20
0.0
 30
0.0
  3
_D_1
  1
_D_1
  0
LINE
  5
234
330
231
100
AcDbEntity
  8
2
  6
ByBlock
370
    -2
100
AcDbLine
 10
117.000001227
 20
48.2629455133
 30
0.0
 11
117.000001227
 21
60.5028137231
 31
0.0
  0
LINE
  5
235
330
231
100
AcDbEntity
  8
2
  6
ByBlock
370
    -2
100
AcDbLine
 10
0.0
 20
44.562500775
 30
0.0
 11
0.0
 21
60.5028137231
 31
0.0
  0
LINE
  5
236
330
231
100
AcDbEntity
  8
2
  6
ByBlock
370
    -2
100
AcDbLine
 10
113.500001227
 20
60.5028137231
 30
0.0
 11
3.5
 21
60.5028137231
 31
0.0
  0
SOLID
  5
237
330
231
100
AcDbEntity
  8
2
100
AcDbTrace
 10
113.500001227
 20
59.91948038976666
 30
0.0
 11
113.500001227
 21
61.08614705643333
 31
0.0
 12
117.000001227
 22
60.5028137231
 32
0.0
 13
117.000001227
 23
60.5028137231
 33
0.0
  0
SOLID
  5
238
330
231
100
AcDbEntity
  8
2
100
AcDbTrace
 10
3.5
 20
61.08614705643333
 30
0.0
 11
3.5
 21
59.91948038976666
 31
0.0
 12
0.0
 22
60.5028137231
 32
0.0
 13
0.0
 23
60.5028137231
 33
0.0
  0
MTEXT
  5
239
330
231
100
AcDbEntity
  8
2
100
AcDbMText
 10
58.5000006135
 20
63.1383137231
 30
0.0
 40
3.5
 41
0.0
 46
0.0
 71
     5
 72
     1
  1
\A1;117
  7
BMG_Text
 73
     1
 44
1.0
  0
POINT
  5
29A
330
231
100
AcDbEntity
  8
Defpoints
 62
     0
100
AcDbPoint
 10
117.000001227
 20
48.2004455133
 30
0.0
  0
POINT
  5
29B
330
231
100
AcDbEntity
  8
Defpoints
 62
     0
100
AcDbPoint
 10
0.0
 20
44.500000775
 30
0.0
  0
POINT
  5
29C
330
231
100
AcDbEntity
  8
Defpoints
 62
     0
100
AcDbPoint
 10
0.0
 20
60.5028137231
 30
0.0
  0
ENDBLK
  5
233
330
231
100
AcDbEntity
  8
0
100
AcDbBlockEnd
  0
BLOCK
  5
23C
330
23B
100
AcDbEntity
  8
0
100
AcDbBlockBegin
  2
_D_2
 70
     0
 10
0.0
 20
0.0
 30
0.0
  3
_D_2
  1
_D_2
  0
LINE
  5
23E
330
23B
100
AcDbEntity
  8
2
  6
ByBlock
370
    -2
100
AcDbLine
 10
0.0
 20
-44.562500775
 30
0.0
 11
0.0
 21
-56.4489677376
 31
0.0
  0
LINE
  5
23F
330
23B
100
AcDbEntity
  8
2
  6
ByBlock
370
    -2
100
AcDbLine
 10
82.999999374
 20
-44.560843828
 30
0.0
 11
82.999999374
 21
-56.4489677376
 31
0.0
  0
LINE
  5
240
330
23B
100
AcDbEntity
  8
2
  6
ByBlock
370
    -2
100
AcDbLine
 10
3.5
 20
-56.4489677376
 30
0.0
 11
79.499999374
 21
-56.4489677376
 31
0.0
  0
SOLID
  5
241
330
23B
100
AcDbEntity
  8
2
100
AcDbTrace
 10
3.5
 20
-55.86563440426666
 30
0.0
 11
3.5
 21
-57.03230107093334
 31
0.0
 12
0.0
 22
-56.4489677376
 32
0.0
 13
0.0
 23
-56.4489677376
 33
0.0
  0
SOLID
  5
242
330
23B
100
AcDbEntity
  8
2
100
AcDbTrace
 10
79.499999374
 20
-57.03230107093334
 30
0.0
 11
79.499999374
 21
-55.86563440426666
 31
0.0
 12
82.999999374
 22
-56.4489677376
 32
0.0
 13
82.999999374
 23
-56.4489677376
 33
0.0
  0
MTEXT
  5
243
330
23B
100
AcDbEntity
  8
2
100
AcDbMText
 10
41.499999687
 20
-53.7627177376
 30
0.0
 40
3.5
 41
0.0
 46
0.0
 71
     5
 72
     1
  1
\A1;83
  7
BMG_Text
 73
     1
 44
1.0
  0
POINT
  5
29D
330
23B
100
AcDbEntity
  8
Defpoints
 62
     0
100
AcDbPoint
 10
0.0
 20
-44.500000775
 30
0.0
  0
POINT
  5
29E
330
23B
100
AcDbEntity
  8
Defpoints
 62
     0
100
AcDbPoint
 10
82.999999374
 20
-44.498343828
 30
0.0
  0
POINT
  5
29F
330
23B
100
AcDbEntity
  8
Defpoints
 62
     0
100
AcDbPoint
 10
82.999999374
 20
-56.4489677376
 30
0.0
  0
ENDBLK
  5
23D
330
23B
100
AcDbEntity
  8
0
100
AcDbBlockEnd
  0
BLOCK
  5
246
330
245
100
AcDbEntity
  8
0
100
AcDbBlockBegin
  2
_D_3
 70
     0
 10
0.0
 20
0.0
 30
0.0
  3
_D_3
  1
_D_3
  0
LINE
  5
248
330
245
100
AcDbEntity
  8
SK2
  6
ByBlock
370
    -2
100
AcDbLine
 10
-44.0625
 20
23.0000000002
 30
0.0
 11
-58.7966634156
 21
23.0000000002
 31
0.0
  0
LINE
  5
249
330
245
100
AcDbEntity
  8
SK2
  6
ByBlock
370
    -2
100
AcDbLine
 10
-44.0625
 20
-22.9999999998
 30
0.0
 11
-58.7966634156
 21
-22.9999999998
 31
0.0
  0
LINE
  5
24A
330
245
100
AcDbEntity
  8
SK2
  6
ByBlock
370
    -2
100
AcDbLine
 10
-58.7966634156
 20
19.5000000002
 30
0.0
 11
-58.7966634156
 21
-19.4999999998
 31
0.0
  0
SOLID
  5
24B
330
245
100
AcDbEntity
  8
SK2
100
AcDbTrace
 10
-58.21333008226667
 20
19.5000000002
 30
0.0
 11
-59.37999674893334
 21
19.5000000002
 31
0.0
 12
-58.7966634156
 22
23.0000000002
 32
0.0
 13
-58.7966634156
 23
23.0000000002
 33
0.0
  0
SOLID
  5
24C
330
245
100
AcDbEntity
  8
SK2
100
AcDbTrace
 10
-59.37999674893334
 20
-19.4999999998
 30
0.0
 11
-58.21333008226667
 21
-19.4999999998
 31
0.0
 12
-58.7966634156
 22
-22.9999999998
 32
0.0
 13
-58.7966634156
 23
-22.9999999998
 33
0.0
  0
MTEXT
  5
24D
330
245
100
AcDbEntity
  8
SK2
100
AcDbMText
 10
-61.5336634156
 20
0.0000000002
 30
0.0
 40
3.5
 41
0.0
 46
0.0
 71
     5
 72
     1
  1
\A1;%%c46
  7
BMG_Text
 11
0.0
 21
1.0
 31
0.0
 73
     1
 44
1.0
  0
POINT
  5
24E
330
245
100
AcDbEntity
  8
Defpoints
 62
     0
100
AcDbPoint
 10
-44.0
 20
23.0000000002
 30
0.0
  0
POINT
  5
2A0
330
245
100
AcDbEntity
  8
Defpoints
 62
     0
100
AcDbPoint
 10
-44.0
 20
-22.9999999998
 30
0.0
  0
POINT
  5
2A1
330
245
100
AcDbEntity
  8
Defpoints
 62
     0
100
AcDbPoint
 10
-58.7966634156
 20
-22.9999999998
 30
0.0
  0
ENDBLK
  5
247
330
245
100
AcDbEntity
  8
0
100
AcDbBlockEnd
  0
BLOCK
  5
251
330
250
100
AcDbEntity
  8
0
100
AcDbBlockBegin
  2
_D_4
 70
     0
 10
0.0
 20
0.0
 30
0.0
  3
_D_4
  1
_D_4
  0
LINE
  5
253
330
250
100
AcDbEntity
  8
SK2
  6
ByBlock
370
    -2
100
AcDbLine
 10
0.437500024
 20
45.000001788
 30
0.0
 11
-68.034815167
 21
45.00000178799999
 31
0.0
  0
LINE
  5
254
330
250
100
AcDbEntity
  8
SK2
  6
ByBlock
370
    -2
100
AcDbLine
 10
0.437500024
 20
-45.000001788
 30
0.0
 11
-68.034815167
 21
-45.00000178800001
 31
0.0
  0
LINE
  5
255
330
250
100
AcDbEntity
  8
SK2
  6
ByBlock
370
    -2
100
AcDbLine
 10
-68.034815167
 20
41.50000178799999
 30
0.0
 11
-68.034815167
 21
-41.50000178800001
 31
0.0
  0
SOLID
  5
256
330
250
100
AcDbEntity
  8
SK2
100
AcDbTrace
 10
-67.45148183366668
 20
41.50000178799999
 30
0.0
 11
-68.61814850033333
 21
41.50000178799999
 31
0.0
 12
-68.034815167
 22
45.00000178799999
 32
0.0
 13
-68.034815167
 23
45.00000178799999
 33
0.0
  0
SOLID
  5
257
330
250
100
AcDbEntity
  8
SK2
100
AcDbTrace
 10
-68.61814850033333
 20
-41.50000178800001
 30
0.0
 11
-67.45148183366668
 21
-41.50000178800001
 31
0.0
 12
-68.034815167
 22
-45.00000178800001
 32
0.0
 13
-68.034815167
 23
-45.00000178800001
 33
0.0
  0
MTEXT
  5
258
330
250
100
AcDbEntity
  8
SK2
100
AcDbMText
 10
-70.771815167
 20
0.0
 30
0.0
 40
3.5
 41
0.0
 46
0.0
 71
     5
 72
     1
  1
\A1;%%c90
  7
BMG_Text
 11
0.0
 21
1.0
 31
0.0
 73
     1
 44
1.0
  0
POINT
  5
259
330
250
100
AcDbEntity
  8
Defpoints
 62
     0
100
AcDbPoint
 10
0.500000024
 20
45.000001788
 30
0.0
  0
POINT
  5
2A2
330
250
100
AcDbEntity
  8
Defpoints
 62
     0
100
AcDbPoint
 10
0.500000024
 20
-45.000001788
 30
0.0
  0
POINT
  5
2A3
330
250
100
AcDbEntity
  8
Defpoints
 62
     0
100
AcDbPoint
 10
-68.034815167
 20
-45.00000178799999
 30
0.0
  0
ENDBLK
  5
252
330
250
100
AcDbEntity
  8
0
100
AcDbBlockEnd
  0
ENDSEC
  0
SECTION
  2
ENTITIES
  0
MTEXT
  5
76
330
1F
100
AcDbEntity
  8
SK6
100
AcDbMText
 10
7.8795605187
 20
-27.8348745743
 30
0.0
 40
3.5
 41
0.0
 46
0.0
 71
     1
 72
     1
  1
319.706N
  7
BMG_Text
 73
     1
 44
1.0
  0
LINE
  5
77
330
1F
100
AcDbEntity
  8
3
100
AcDbLine
 10
82.999999374
 20
-37.000000477
 30
0.0
 11
70.051478893
 21
-37.000000477
 31
0.0
  0
LINE
  5
78
330
1F
100
AcDbEntity
  8
3
100
AcDbLine
 10
59.10643753
 20
-41.739868397
 30
0.0
 11
51.207181737
 21
-38.025025278
 31
0.0
  0
LINE
  5
79
330
1F
100
AcDbEntity
  8
3
100
AcDbLine
 10
51.207181737
 20
-38.025025278
 30
0.0
 11
51.664635299
 21
-32.98538049
 31
0.0
  0
LINE
  5
7A
330
1F
100
AcDbEntity
  8
4
100
AcDbLine
 10
51.787319956
 20
-31.667479696
 30
0.0
 11
66.67950421
 21
-38.670946118
 31
0.0
  0
LINE
  5
7B
330
1F
100
AcDbEntity
  8
3
100
AcDbLine
 10
51.664635299
 20
-32.98538049
 30
0.0
 11
54.636281654
 21
-28.860170394
 31
0.0
  0
LINE
  5
7C
330
1F
100
AcDbEntity
  8
3
100
AcDbLine
 10
56.313988492
 20
-27.165900916
 30
0.0
 11
51.207181737
 21
-38.025025278
 31
0.0
  0
LINE
  5
7D
330
1F
100
AcDbEntity
  8
3
100
AcDbLine
 10
56.313988492
 20
-27.165900916
 30
0.0
 11
77.22523641
 21
-37.000000477
 31
0.0
  0
LINE
  5
7E
330
1F
100
AcDbEntity
  8
3
100
AcDbLine
 10
54.636281654
 20
-28.860170394
 30
0.0
 11
56.313988492
 21
-27.165900916
 31
0.0
  0
LINE
  5
7F
330
1F
100
AcDbEntity
  8
3
100
AcDbLine
 10
51.664635299
 20
-32.98538049
 30
0.0
 11
30.583856977
 21
-11.000015259
 31
0.0
  0
LINE
  5
80
330
1F
100
AcDbEntity
  8
4
100
AcDbLine
 10
31.701416627
 20
-8.553343574
 30
0.0
 11
54.821760888
 21
-32.665794858
 31
0.0
  0
LINE
  5
81
330
1F
100
AcDbEntity
  8
3
100
AcDbLine
 10
34.241181182
 20
-7.589904648
 30
0.0
 11
54.636281654
 21
-28.860170394
 31
0.0
  0
LINE
  5
82
330
1F
100
AcDbEntity
  8
SK1
100
AcDbLine
 10
-4.6000000011
 20
-0.3000000003
 30
0.0
 11
-10.4380024031
 21
-0.3000000003
 31
0.0
  0
LINE
  5
83
330
1F
100
AcDbEntity
  8
SK1
100
AcDbLine
 10
-22.8820084625
 20
-5.6344845565
 30
0.0
 11
-23.7616505639
 21
-6.8139807597
 31
0.0
  0
LINE
  5
84
330
1F
100
AcDbEntity
  8
SK1
100
AcDbLine
 10
-23.7616505639
 20
-6.8139807597
 30
0.0
 11
-24.1486823159
 21
-7.3324447077
 31
0.0
  0
LINE
  5
85
330
1F
100
AcDbEntity
  8
SK1
100
AcDbLine
 10
-17.8500000007
 20
-9.5271687091
 30
0.0
 11
-19.3500000002
 21
-9.5271687091
 31
0.0
  0
LINE
  5
87
330
1F
100
AcDbEntity
  8
SK1
100
AcDbLine
 10
-31.347726626
 20
-0.3
 30
0.0
 11
-31.332330742
 21
-0.753926827
 31
0.0
  0
LINE
  5
88
330
1F
100
AcDbEntity
  8
SK1
100
AcDbLine
 10
-31.332330742
 20
-0.753926827
 30
0.0
 11
-31.13784007
 21
-2.072478339
 31
0.0
  0
LINE
  5
89
330
1F
100
AcDbEntity
  8
SK1
100
AcDbLine
 10
-31.13784007
 20
-2.072478339
 30
0.0
 11
-30.730028376
 21
-3.335559644
 31
0.0
  0
LINE
  5
8A
330
1F
100
AcDbEntity
  8
SK1
100
AcDbLine
 10
-30.730028376
 20
-3.335559644
 30
0.0
 11
-30.147655117
 21
-4.468933496
 31
0.0
  0
LINE
  5
8B
330
1F
100
AcDbEntity
  8
SK1
100
AcDbLine
 10
-30.147655117
 20
-4.468933496
 30
0.0
 11
-29.406770894
 21
-5.499831142
 31
0.0
  0
LINE
  5
8C
330
1F
100
AcDbEntity
  8
SK1
100
AcDbLine
 10
-29.406770894
 20
-5.499831142
 30
0.0
 11
-28.612444865
 21
-6.34103301
 31
0.0
  0
LINE
  5
8D
330
1F
100
AcDbEntity
  8
SK1
100
AcDbLine
 10
-28.612444865
 20
-6.34103301
 30
0.0
 11
-27.723202322
 21
-7.086941342
 31
0.0
  0
LINE
  5
8E
330
1F
100
AcDbEntity
  8
SK1
100
AcDbLine
 10
-27.723202322
 20
-7.086941342
 30
0.0
 11
-26.760887341
 21
-7.733137676
 31
0.0
  0
LINE
  5
8F
330
1F
100
AcDbEntity
  8
SK1
100
AcDbLine
 10
-26.760887341
 20
-7.733137676
 30
0.0
 11
-25.477445379
 21
-8.402570432
 31
0.0
  0
LINE
  5
90
330
1F
100
AcDbEntity
  8
SK1
100
AcDbLine
 10
-25.477445379
 20
-8.402570432
 30
0.0
 11
-24.117096347
 21
-8.928680635
 31
0.0
  0
LINE
  5
91
330
1F
100
AcDbEntity
  8
SK1
100
AcDbLine
 10
-24.117096347
 20
-8.928680635
 30
0.0
 11
-22.707648624
 21
-9.31220219
 31
0.0
  0
LINE
  5
92
330
1F
100
AcDbEntity
  8
SK1
100
AcDbLine
 10
-22.707648624
 20
-9.31220219
 30
0.0
 11
-21.040480473
 21
-9.582369417
 31
0.0
  0
LINE
  5
93
330
1F
100
AcDbEntity
  8
SK1
100
AcDbLine
 10
-21.040480473
 20
-9.582369417
 30
0.0
 11
-19.35
 21
-9.672277701
 31
0.0
  0
LINE
  5
94
330
1F
100
AcDbEntity
  8
SK1
100
AcDbLine
 10
-19.35
 20
-9.672277701
 30
0.0
 11
-17.85
 21
-9.672277701
 31
0.0
  0
LINE
  5
97
330
1F
100
AcDbEntity
  8
SK1
100
AcDbLine
 10
-17.8500000007
 20
9.5271687089
 30
0.0
 11
-19.3500000002
 21
9.5271687089
 31
0.0
  0
LINE
  5
99
330
1F
100
AcDbEntity
  8
SK1
100
AcDbLine
 10
-31.347726626
 20
0.3
 30
0.0
 11
-31.332330742
 21
0.753926827
 31
0.0
  0
LINE
  5
9A
330
1F
100
AcDbEntity
  8
SK1
100
AcDbLine
 10
-31.332330742
 20
0.753926827
 30
0.0
 11
-31.143658348
 21
2.05290142
 31
0.0
  0
LINE
  5
9B
330
1F
100
AcDbEntity
  8
SK1
100
AcDbLine
 10
-31.143658348
 20
2.05290142
 30
0.0
 11
-30.730028376
 21
3.335559644
 31
0.0
  0
LINE
  5
9C
330
1F
100
AcDbEntity
  8
SK1
100
AcDbLine
 10
-30.730028376
 20
3.335559644
 30
0.0
 11
-30.155682928
 21
4.457038262
 31
0.0
  0
LINE
  5
9D
330
1F
100
AcDbEntity
  8
SK1
100
AcDbLine
 10
-30.155682928
 20
4.457038262
 30
0.0
 11
-29.406770894
 21
5.499831142
 31
0.0
  0
LINE
  5
9E
330
1F
100
AcDbEntity
  8
SK1
100
AcDbLine
 10
-29.406770894
 20
5.499831142
 30
0.0
 11
-28.197015538
 21
6.711353622
 31
0.0
  0
LINE
  5
9F
330
1F
100
AcDbEntity
  8
SK1
100
AcDbLine
 10
-28.197015538
 20
6.711353622
 30
0.0
 11
-26.760887341
 21
7.733137676
 31
0.0
  0
LINE
  5
A0
330
1F
100
AcDbEntity
  8
SK1
100
AcDbLine
 10
-26.760887341
 20
7.733137676
 30
0.0
 11
-25.818661346
 21
8.243054325
 31
0.0
  0
LINE
  5
A1
330
1F
100
AcDbEntity
  8
SK1
100
AcDbLine
 10
-25.818661346
 20
8.243054325
 30
0.0
 11
-24.833735556
 21
8.672895754
 31
0.0
  0
LINE
  5
A2
330
1F
100
AcDbEntity
  8
SK1
100
AcDbLine
 10
-24.833735556
 20
8.672895754
 30
0.0
 11
-23.784793179
 21
9.033193565
 31
0.0
  0
LINE
  5
A3
330
1F
100
AcDbEntity
  8
SK1
100
AcDbLine
 10
-23.784793179
 20
9.033193565
 30
0.0
 11
-22.707648624
 21
9.31220219
 31
0.0
  0
LINE
  5
A4
330
1F
100
AcDbEntity
  8
SK1
100
AcDbLine
 10
-22.707648624
 20
9.31220219
 30
0.0
 11
-21.052191638
 21
9.581240126
 31
0.0
  0
LINE
  5
A5
330
1F
100
AcDbEntity
  8
SK1
100
AcDbLine
 10
-21.052191638
 20
9.581240126
 30
0.0
 11
-19.35
 21
9.672277701
 31
0.0
  0
LINE
  5
A6
330
1F
100
AcDbEntity
  8
SK1
100
AcDbLine
 10
-19.35
 20
9.672277701
 30
0.0
 11
-17.85
 21
9.672277701
 31
0.0
  0
LINE
  5
A7
330
1F
100
AcDbEntity
  8
SK1
100
AcDbLine
 10
-4.6000000006
 20
0.2999999997
 30
0.0
 11
-10.4380024026
 21
0.2999999997
 31
0.0
  0
LINE
  5
A8
330
1F
100
AcDbEntity
  8
SK1
100
AcDbLine
 10
-22.882008463
 20
5.6344845561
 30
0.0
 11
-23.7616505643
 21
6.8139807595
 31
0.0
  0
LINE
  5
A9
330
1F
100
AcDbEntity
  8
SK1
100
AcDbLine
 10
-23.7616505643
 20
6.8139807595
 30
0.0
 11
-24.1486823163
 21
7.3324447075
 31
0.0
  0
LINE
  5
AA
330
1F
100
AcDbEntity
  8
SK1
100
AcDbLine
 10
-1.112182617
 20
23.0000000002
 30
0.0
 11
-44.0
 21
23.0000000002
 31
0.0
  0
LINE
  5
AB
330
1F
100
AcDbEntity
  8
SK1
100
AcDbLine
 10
-44.0
 20
23.0000000002
 30
0.0
 11
-46.605707514
 21
22.6337916912
 31
0.0
  0
LINE
  5
AC
330
1F
100
AcDbEntity
  8
SK1
100
AcDbLine
 10
-46.605707514
 20
22.6337916912
 30
0.0
 11
-48.579186621
 21
22.9817693042
 31
0.0
  0
LINE
  5
AD
330
1F
100
AcDbEntity
  8
SK1
100
AcDbLine
 10
-49.8267949193
 20
22.3999999999
 30
0.0
 11
-50.0
 21
22.1
 31
0.0
  0
LINE
  5
AE
330
1F
100
AcDbEntity
  8
SK1
100
AcDbLine
 10
-50.0
 20
22.1
 30
0.0
 11
-50.0
 21
-22.1
 31
0.0
  0
LINE
  5
AF
330
1F
100
AcDbEntity
  8
SK1
100
AcDbLine
 10
-50.0
 20
-22.1
 30
0.0
 11
-49.8267949192
 21
-22.4000000001
 31
0.0
  0
LINE
  5
B0
330
1F
100
AcDbEntity
  8
SK1
100
AcDbLine
 10
-48.5791866218
 20
-22.9817693034
 30
0.0
 11
-46.605707514
 21
-22.6337916908
 31
0.0
  0
LINE
  5
B1
330
1F
100
AcDbEntity
  8
SK1
100
AcDbLine
 10
-46.605707514
 20
-22.6337916908
 30
0.0
 11
-44.0
 21
-22.9999999998
 31
0.0
  0
LINE
  5
B2
330
1F
100
AcDbEntity
  8
SK1
100
AcDbLine
 10
-44.0
 20
-22.9999999998
 30
0.0
 11
-1.112182617
 21
-22.9999999998
 31
0.0
  0
LINE
  5
B3
330
1F
100
AcDbEntity
  8
SK1
100
AcDbLine
 10
-1.112182617
 20
-22.9999999998
 30
0.0
 11
-1.112182617
 21
23.0000000002
 31
0.0
  0
LINE
  5
B4
330
1F
100
AcDbEntity
  8
SK1
100
AcDbLine
 10
-1.112182617
 20
23.0000000002
 30
0.0
 11
-0.429334532
 21
22.8170244112
 31
0.0
  0
LINE
  5
B5
330
1F
100
AcDbEntity
  8
SK1
100
AcDbLine
 10
-24.7113761261
 20
-3.2078122352
 30
0.0
 11
-25.0355731651
 21
-2.4060856782
 31
0.0
  0
LINE
  5
B7
330
1F
100
AcDbEntity
  8
SK1
100
AcDbLine
 10
-26.8003501149
 20
-4.87419582
 30
0.0
 11
-26.1822659061
 21
-4.3832792632
 31
0.0
  0
LINE
  5
B8
330
1F
100
AcDbEntity
  8
SK1
100
AcDbLine
 10
-26.1822659061
 20
-4.3832792632
 30
0.0
 11
-24.7113761261
 21
-3.2078122352
 31
0.0
  0
LINE
  5
BA
330
1F
100
AcDbEntity
  8
SK1
100
AcDbLine
 10
-25.0355731648
 20
2.4060856788
 30
0.0
 11
-24.7113761265
 21
3.2078122352
 31
0.0
  0
LINE
  5
BB
330
1F
100
AcDbEntity
  8
SK1
100
AcDbLine
 10
-24.7113761265
 20
3.2078122352
 30
0.0
 11
-26.1822659065
 21
4.3832792632
 31
0.0
  0
LINE
  5
BC
330
1F
100
AcDbEntity
  8
SK1
100
AcDbLine
 10
-26.1822659065
 20
4.3832792632
 30
0.0
 11
-26.8003504505
 21
4.8741961652
 31
0.0
  0
LINE
  5
BF
330
1F
100
AcDbEntity
  8
SK1
100
AcDbLine
 10
-25.8705083352
 20
-0.3
 30
0.0
 11
-46.0
 21
-0.3
 31
0.0
  0
LINE
  5
C0
330
1F
100
AcDbEntity
  8
SK1
100
AcDbLine
 10
-46.0
 20
0.3
 30
0.0
 11
-25.870508335
 21
0.3
 31
0.0
  0
LINE
  5
C2
330
1F
100
AcDbEntity
  8
SK3
100
AcDbLine
 10
-50.0
 20
-12.750004606
 30
0.0
 11
-49.307242999
 21
-12.350036621
 31
0.0
  0
LINE
  5
C3
330
1F
100
AcDbEntity
  8
SK3
100
AcDbLine
 10
-49.307242999
 20
-12.350036621
 30
0.0
 11
-49.307120929
 21
12.349990845
 31
0.0
  0
LINE
  5
C4
330
1F
100
AcDbEntity
  8
SK3
100
AcDbLine
 10
-49.307120929
 20
12.349990845
 30
0.0
 11
-50.0
 21
12.750019865
 31
0.0
  0
LINE
  5
C5
330
1F
100
AcDbEntity
  8
SK3
100
AcDbLine
 10
-46.999992022
 20
-12.350036621
 30
0.0
 11
-46.220573077
 21
-11.0
 31
0.0
  0
LINE
  5
C6
330
1F
100
AcDbEntity
  8
SK3
100
AcDbLine
 10
-46.220573077
 20
-11.0
 30
0.0
 11
-46.220573077
 21
11.000015259
 31
0.0
  0
LINE
  5
C7
330
1F
100
AcDbEntity
  8
SK3
100
AcDbLine
 10
-46.220573077
 20
11.000015259
 30
0.0
 11
-46.999992022
 21
12.349990845
 31
0.0
  0
LINE
  5
C8
330
1F
100
AcDbEntity
  8
SK3
100
AcDbLine
 10
-46.999992022
 20
12.349990845
 30
0.0
 11
-46.999992022
 21
-12.350036621
 31
0.0
  0
LINE
  5
C9
330
1F
100
AcDbEntity
  8
SK1
100
AcDbLine
 10
-0.4293202239
 20
-22.8170205775
 30
0.0
 11
-1.112182617
 21
-22.9999999998
 31
0.0
  0
LINE
  5
CA
330
1F
100
AcDbEntity
  8
SK3
100
AcDbLine
 10
-21.999992022
 20
6.466059192
 30
0.0
 11
-21.999992022
 21
12.000015259
 31
0.0
  0
LINE
  5
CB
330
1F
100
AcDbEntity
  8
11
100
AcDbLine
 10
-21.999992022
 20
12.000015259
 30
0.0
 11
-46.797843585
 21
12.000015259
 31
0.0
  0
LINE
  5
CC
330
1F
100
AcDbEntity
  8
3
100
AcDbLine
 10
51.664635299
 20
32.98538049
 30
0.0
 11
54.636281654
 21
28.860170394
 31
0.0
  0
LINE
  5
CD
330
1F
100
AcDbEntity
  8
3
100
AcDbLine
 10
54.636281654
 20
28.860170394
 30
0.0
 11
56.313988492
 21
27.165900916
 31
0.0
  0
LINE
  5
CE
330
1F
100
AcDbEntity
  8
3
100
AcDbLine
 10
56.313988492
 20
27.165900916
 30
0.0
 11
51.207181737
 21
38.025025278
 31
0.0
  0
LINE
  5
CF
330
1F
100
AcDbEntity
  8
SK3
100
AcDbLine
 10
-46.220573077
 20
11.000015259
 30
0.0
 11
0.0000000000000284
 21
11.00000635626645
 31
0.0
  0
LINE
  5
D0
330
1F
100
AcDbEntity
  8
3
100
AcDbLine
 10
33.000007978
 20
11.0
 30
0.0
 11
37.003680555
 21
0.0
 31
0.0
  0
LINE
  5
D1
330
1F
100
AcDbEntity
  8
3
100
AcDbLine
 10
37.003680555
 20
0.0
 30
0.0
 11
33.000007978
 21
-11.0
 31
0.0
  0
LINE
  5
D2
330
1F
100
AcDbEntity
  8
SK3
100
AcDbLine
 10
-0.0000000000000071
 20
-11.0
 30
0.0
 11
-46.220573077
 21
-11.0
 31
0.0
  0
LINE
  5
D3
330
1F
100
AcDbEntity
  8
4
100
AcDbLine
 10
0.0
 20
0.0
 30
0.0
 11
113.825320006
 21
0.0
 31
0.0
  0
LINE
  5
D4
330
1F
100
AcDbEntity
  8
SK3
100
AcDbLine
 10
-21.999992022
 20
-6.466059192
 30
0.0
 11
-21.999992022
 21
-12.000015259
 31
0.0
  0
LINE
  5
D5
330
1F
100
AcDbEntity
  8
SK3
100
AcDbLine
 10
-21.999992022
 20
-12.000015259
 30
0.0
 11
-18.267941215
 21
-11.000015259
 31
0.0
  0
LINE
  5
D6
330
1F
100
AcDbEntity
  8
SK3
100
AcDbLine
 10
-49.307120929
 20
12.349990845
 30
0.0
 11
-46.999992022
 21
12.349990845
 31
0.0
  0
LINE
  5
D7
330
1F
100
AcDbEntity
  8
SK3
100
AcDbLine
 10
-46.999992022
 20
-12.350036621
 30
0.0
 11
-49.307120929
 21
-12.350036621
 31
0.0
  0
LINE
  5
D8
330
1F
100
AcDbEntity
  8
3
100
AcDbLine
 10
33.000007978
 20
11.000015259
 30
0.0
 11
33.000007978
 21
-11.0
 31
0.0
  0
LINE
  5
D9
330
1F
100
AcDbEntity
  8
11
100
AcDbLine
 10
-46.797843585
 20
-12.0
 30
0.0
 11
-21.999992022
 21
-12.0
 31
0.0
  0
LINE
  5
DA
330
1F
100
AcDbEntity
  8
SK3
100
AcDbLine
 10
-21.999992022
 20
12.000015259
 30
0.0
 11
-18.267941215
 21
11.000015259
 31
0.0
  0
LINE
  5
DC
330
1F
100
AcDbEntity
  8
SK1
100
AcDbLine
 10
-44.0
 20
-0.3
 30
0.0
 11
-44.0
 21
-22.9999999998
 31
0.0
  0
LINE
  5
DD
330
1F
100
AcDbEntity
  8
SK1
100
AcDbLine
 10
-44.0
 20
0.3
 30
0.0
 11
-44.0
 21
23.0000000002
 31
0.0
  0
LINE
  5
DE
330
1F
100
AcDbEntity
  8
SK1
100
AcDbLine
 10
-46.605707514
 20
-22.6337916908
 30
0.0
 11
-46.605707514
 21
22.6337916912
 31
0.0
  0
LINE
  5
E0
330
1F
100
AcDbEntity
  8
1
100
AcDbLine
 10
82.499998361
 20
45.000001788
 30
0.0
 11
0.500000024000002
 21
45.000001788
 31
0.0
  0
LINE
  5
E1
330
1F
100
AcDbEntity
  8
1
100
AcDbLine
 10
0.500000024
 20
-45.000001788
 30
0.0
 11
82.499998361
 21
-45.000001788
 31
0.0
  0
LINE
  5
E2
330
1F
100
AcDbEntity
  8
1
100
AcDbLine
 10
0.500000024
 20
45.000001788
 30
0.0
 11
0.0
 21
44.500000775
 31
0.0
  0
LINE
  5
E3
330
1F
100
AcDbEntity
  8
1
100
AcDbLine
 10
0.0
 20
-44.500000775
 30
0.0
 11
0.500000024
 21
-45.000001788
 31
0.0
  0
LINE
  5
E5
330
1F
100
AcDbEntity
  8
3
100
AcDbLine
 10
82.999999374
 20
37.000000477
 30
0.0
 11
70.0514788929
 21
37.000000477
 31
0.0
  0
LINE
  5
E6
330
1F
100
AcDbEntity
  8
1
100
AcDbLine
 10
82.999999374
 20
27.0000007
 30
0.0
 11
49.999999553
 21
27.0000007
 31
0.0
  0
LINE
  5
E7
330
1F
100
AcDbEntity
  8
1
100
AcDbLine
 10
82.499998361
 20
-27.0000007
 30
0.0
 11
49.999999553
 21
-27.0000007
 31
0.0
  0
LINE
  5
E9
330
1F
100
AcDbEntity
  8
1
100
AcDbLine
 10
49.999999553
 20
-27.0000007
 30
0.0
 11
49.999999553
 21
27.0000007
 31
0.0
  0
LINE
  5
EA
330
1F
100
AcDbEntity
  8
1
100
AcDbLine
 10
0.0
 20
-44.500000775
 30
0.0
 11
0.0
 21
44.500000775
 31
0.0
  0
LINE
  5
EB
330
1F
100
AcDbEntity
  8
1
100
AcDbLine
 10
82.499998361
 20
-45.000001788
 30
0.0
 11
82.999999374
 21
-44.498343828
 31
0.0
  0
LINE
  5
EC
330
1F
100
AcDbEntity
  8
1
100
AcDbLine
 10
82.499998361
 20
45.000001788
 30
0.0
 11
82.999999374
 21
44.498324398
 31
0.0
  0
LINE
  5
ED
330
1F
100
AcDbEntity
  8
1
100
AcDbLine
 10
82.999999374
 20
44.498324398
 30
0.0
 11
82.999999374
 21
-44.498343828
 31
0.0
  0
LINE
  5
EE
330
1F
100
AcDbEntity
  8
3
100
AcDbLine
 10
51.207181737
 20
38.025025278
 30
0.0
 11
51.664635299
 21
32.98538049
 31
0.0
  0
LINE
  5
EF
330
1F
100
AcDbEntity
  8
3
100
AcDbLine
 10
56.313988492
 20
27.165900916
 30
0.0
 11
77.22523641
 21
37.000000477
 31
0.0
  0
LINE
  5
F0
330
1F
100
AcDbEntity
  8
3
100
AcDbLine
 10
59.10643753
 20
41.739868397
 30
0.0
 11
51.207181737
 21
38.025025278
 31
0.0
  0
LINE
  5
F1
330
1F
100
AcDbEntity
  8
3
100
AcDbLine
 10
51.664635299
 20
32.98538049
 30
0.0
 11
30.583856977
 21
11.000015259
 31
0.0
  0
LINE
  5
F2
330
1F
100
AcDbEntity
  8
3
100
AcDbLine
 10
34.241181182
 20
7.589904648
 30
0.0
 11
54.636281654
 21
28.860170394
 31
0.0
  0
LINE
  5
F3
330
1F
100
AcDbEntity
  8
4
100
AcDbLine
 10
31.701416627
 20
8.553343574
 30
0.0
 11
54.821760888
 21
32.665794858
 31
0.0
  0
LINE
  5
F4
330
1F
100
AcDbEntity
  8
4
100
AcDbLine
 10
51.787319956
 20
31.667479696
 30
0.0
 11
66.67950421
 21
38.670946118
 31
0.0
  0
LINE
  5
F5
330
1F
100
AcDbEntity
  8
1
100
AcDbLine
 10
99.3000052851
 20
37.5004485249
 30
0.0
 11
82.1830776797
 21
37.5004470352
 31
0.0
  0
LINE
  5
F6
330
1F
100
AcDbEntity
  8
1
100
AcDbLine
 10
100.2999998611
 20
36.5004464979
 30
0.0
 11
99.7929431481
 21
37.0075032109
 31
0.0
  0
LINE
  5
F7
330
1F
100
AcDbEntity
  8
1
100
AcDbLine
 10
99.7929431481
 20
37.0075032109
 30
0.0
 11
99.3000052851
 21
37.5004485249
 31
0.0
  0
LINE
  5
F9
330
1F
100
AcDbEntity
  8
1
100
AcDbLine
 10
100.2999998611
 20
27.0004477349
 30
0.0
 11
83.1980767843
 21
27.0004477349
 31
0.0
  0
LINE
  5
FA
330
1F
100
AcDbEntity
  8
1
100
AcDbLine
 10
83.1980767843
 20
27.0004477349
 30
0.0
 11
83.1980767843
 21
-26.999553666
 31
0.0
  0
LINE
  5
FB
330
1F
100
AcDbEntity
  8
1
100
AcDbLine
 10
82.948076278
 20
-41.42902419
 30
0.0
 11
83.077984601
 21
-41.38308391
 31
0.0
  0
LINE
  5
FC
330
1F
100
AcDbEntity
  8
1
100
AcDbLine
 10
83.077984601
 20
-41.38308391
 30
0.0
 11
83.162693977
 21
-41.322872043
 31
0.0
  0
LINE
  5
FD
330
1F
100
AcDbEntity
  8
1
100
AcDbLine
 10
83.162693977
 20
-41.322872043
 30
0.0
 11
83.197771311
 21
-41.250359267
 31
0.0
  0
LINE
  5
FE
330
1F
100
AcDbEntity
  8
1
100
AcDbLine
 10
83.197771311
 20
-41.250359267
 30
0.0
 11
83.171433508
 21
-41.172076017
 31
0.0
  0
LINE
  5
FF
330
1F
100
AcDbEntity
  8
1
100
AcDbLine
 10
83.171433508
 20
-41.172076017
 30
0.0
 11
83.080048412
 21
-41.100412607
 31
0.0
  0
LINE
  5
100
330
1F
100
AcDbEntity
  8
1
100
AcDbLine
 10
83.080048412
 20
-41.100412607
 30
0.0
 11
82.948076278
 21
-41.051033884
 31
0.0
  0
LINE
  5
101
330
1F
100
AcDbEntity
  8
1
100
AcDbLine
 10
82.948076278
 20
-38.334876299
 30
0.0
 11
83.078714758
 21
-38.267780095
 31
0.0
  0
LINE
  5
102
330
1F
100
AcDbEntity
  8
1
100
AcDbLine
 10
83.078714758
 20
-38.267780095
 30
0.0
 11
83.16189304
 21
-38.182388991
 31
0.0
  0
LINE
  5
103
330
1F
100
AcDbEntity
  8
1
100
AcDbLine
 10
83.16189304
 20
-38.182388991
 30
0.0
 11
83.197838366
 21
-38.075000048
 31
0.0
  0
LINE
  5
104
330
1F
100
AcDbEntity
  8
1
100
AcDbLine
 10
83.197838366
 20
-38.075000048
 30
0.0
 11
83.166277707
 21
-37.954092026
 31
0.0
  0
LINE
  5
105
330
1F
100
AcDbEntity
  8
1
100
AcDbLine
 10
83.166277707
 20
-37.954092026
 30
0.0
 11
83.057011217
 21
-37.843581289
 31
0.0
  0
LINE
  5
106
330
1F
100
AcDbEntity
  8
1
100
AcDbLine
 10
83.057011217
 20
-37.843581289
 30
0.0
 11
82.948076278
 21
-37.788808346
 31
0.0
  0
LINE
  5
107
330
1F
100
AcDbEntity
  8
1
100
AcDbLine
 10
83.1980767843
 20
-26.999553666
 30
0.0
 11
96.906906664
 21
-26.999553666
 31
0.0
  0
LINE
  5
108
330
1F
100
AcDbEntity
  8
1
100
AcDbLine
 10
96.906906664
 20
-26.999553666
 30
0.0
 11
96.906906664
 21
-44.999107718
 31
0.0
  0
LINE
  5
109
330
1F
100
AcDbEntity
  8
1
100
AcDbLine
 10
96.906906664
 20
-44.999107718
 30
0.0
 11
83.156334907
 21
-44.999107718
 31
0.0
  0
LINE
  5
10A
330
1F
100
AcDbEntity
  8
1
100
AcDbLine
 10
82.948076278
 20
-44.653877616
 30
0.0
 11
83.077347577
 21
-44.640380889
 31
0.0
  0
LINE
  5
10B
330
1F
100
AcDbEntity
  8
1
100
AcDbLine
 10
83.077347577
 20
-44.640380889
 30
0.0
 11
83.163640201
 21
-44.6219109
 31
0.0
  0
LINE
  5
10C
330
1F
100
AcDbEntity
  8
1
100
AcDbLine
 10
83.163640201
 20
-44.6219109
 30
0.0
 11
83.19775641
 21
-44.600155205
 31
0.0
  0
LINE
  5
10D
330
1F
100
AcDbEntity
  8
1
100
AcDbLine
 10
83.19775641
 20
-44.600155205
 30
0.0
 11
83.175155073
 21
-44.577371329
 31
0.0
  0
LINE
  5
10E
330
1F
100
AcDbEntity
  8
1
100
AcDbLine
 10
83.175155073
 20
-44.577371329
 30
0.0
 11
83.097680211
 21
-44.556297362
 31
0.0
  0
LINE
  5
10F
330
1F
100
AcDbEntity
  8
1
100
AcDbLine
 10
83.097680211
 20
-44.556297362
 30
0.0
 11
82.974380553
 21
-44.53971237
 31
0.0
  0
LINE
  5
110
330
1F
100
AcDbEntity
  8
1
100
AcDbLine
 10
82.974380553
 20
-44.53971237
 30
0.0
 11
82.948076278
 21
-44.537361711
 31
0.0
  0
LINE
  5
111
330
1F
100
AcDbEntity
  8
1
100
AcDbLine
 10
82.948076278
 20
-43.487537652
 30
0.0
 11
83.077559918
 21
-43.458815664
 31
0.0
  0
LINE
  5
112
330
1F
100
AcDbEntity
  8
1
100
AcDbLine
 10
83.077559918
 20
-43.458815664
 30
0.0
 11
83.163278848
 21
-43.420340866
 31
0.0
  0
LINE
  5
113
330
1F
100
AcDbEntity
  8
1
100
AcDbLine
 10
83.163278848
 20
-43.420340866
 30
0.0
 11
83.197752684
 21
-43.375011534
 31
0.0
  0
LINE
  5
114
330
1F
100
AcDbEntity
  8
1
100
AcDbLine
 10
83.197752684
 20
-43.375011534
 30
0.0
 11
83.173977882
 21
-43.327327818
 31
0.0
  0
LINE
  5
115
330
1F
100
AcDbEntity
  8
1
100
AcDbLine
 10
83.173977882
 20
-43.327327818
 30
0.0
 11
83.091913462
 21
-43.283637613
 31
0.0
  0
LINE
  5
116
330
1F
100
AcDbEntity
  8
1
100
AcDbLine
 10
83.091913462
 20
-43.283637613
 30
0.0
 11
82.948076278
 21
-43.247908354
 31
0.0
  0
LINE
  5
117
330
1F
100
AcDbEntity
  8
1
100
AcDbLine
 10
104.534706771
 20
-46.135198325
 30
0.0
 11
104.537433684
 21
-46.135682613
 31
0.0
  0
LINE
  5
118
330
1F
100
AcDbEntity
  8
1
100
AcDbLine
 10
104.537433684
 20
-46.135682613
 30
0.0
 11
115.272789002
 21
-48.03685844
 31
0.0
  0
LINE
  5
119
330
1F
100
AcDbEntity
  8
1
100
AcDbLine
 10
104.534706771
 20
-46.313349158
 30
0.0
 11
104.534706771
 21
-46.135198325
 31
0.0
  0
LINE
  5
11A
330
1F
100
AcDbEntity
  8
1
100
AcDbLine
 10
104.3638039408
 20
-46.3139735466
 30
0.0
 11
96.906906664
 21
-44.999107718
 31
0.0
  0
LINE
  5
11B
330
1F
100
AcDbEntity
  8
1
100
AcDbLine
 10
96.906906664
 20
-26.999553666
 30
0.0
 11
102.718717158
 21
-28.674984351
 31
0.0
  0
LINE
  5
11C
330
1F
100
AcDbEntity
  8
1
100
AcDbLine
 10
102.718717158
 20
-28.674984351
 30
0.0
 11
111.097476184
 21
-30.990796164
 31
0.0
  0
LINE
  5
11D
330
1F
100
AcDbEntity
  8
1
100
AcDbLine
 10
111.097476184
 20
2.050712006
 30
0.0
 11
111.097476184
 21
-30.990796164
 31
0.0
  0
LINE
  5
11E
330
1F
100
AcDbEntity
  8
1
100
AcDbLine
 10
113.097480238
 20
-1.413389691
 30
0.0
 11
113.097480238
 21
-32.395482063
 31
0.0
  0
LINE
  5
11F
330
1F
100
AcDbEntity
  8
1
100
AcDbLine
 10
113.097480238
 20
-32.395482063
 30
0.0
 11
113.082154393
 21
-32.59242326
 31
0.0
  0
LINE
  5
120
330
1F
100
AcDbEntity
  8
1
100
AcDbLine
 10
113.082154393
 20
-32.59242326
 30
0.0
 11
113.039201796
 21
-32.740972936
 31
0.0
  0
LINE
  5
121
330
1F
100
AcDbEntity
  8
1
100
AcDbLine
 10
113.039201796
 20
-32.740972936
 30
0.0
 11
112.982227206
 21
-32.832760364
 31
0.0
  0
LINE
  5
122
330
1F
100
AcDbEntity
  8
1
100
AcDbLine
 10
112.982227206
 20
-32.832760364
 30
0.0
 11
112.906424999
 21
-32.891925424
 31
0.0
  0
LINE
  5
123
330
1F
100
AcDbEntity
  8
1
100
AcDbLine
 10
112.906424999
 20
-32.891925424
 30
0.0
 11
112.803241909
 21
-32.91580081
 31
0.0
  0
LINE
  5
124
330
1F
100
AcDbEntity
  8
1
100
AcDbLine
 10
112.803241909
 20
-32.91580081
 30
0.0
 11
112.642912865
 21
-32.879397273
 31
0.0
  0
LINE
  5
125
330
1F
100
AcDbEntity
  8
1
100
AcDbLine
 10
112.642912865
 20
-32.879397273
 30
0.0
 11
112.365177572
 21
-32.684400678
 31
0.0
  0
LINE
  5
126
330
1F
100
AcDbEntity
  8
1
100
AcDbLine
 10
112.365177572
 20
-32.684400678
 30
0.0
 11
112.111254335
 21
-32.394554466
 31
0.0
  0
LINE
  5
127
330
1F
100
AcDbEntity
  8
1
100
AcDbLine
 10
113.097480238
 20
-1.413389691
 30
0.0
 11
111.097476184
 21
2.050712006
 31
0.0
  0
LINE
  5
128
330
1F
100
AcDbEntity
  8
1
100
AcDbLine
 10
100.2999998611
 20
23.4319833635
 30
0.0
 11
100.2999998611
 21
36.5004464979
 31
0.0
  0
LINE
  5
129
330
1F
100
AcDbEntity
  8
1
100
AcDbLine
 10
111.097476184
 20
2.050712006
 30
0.0
 11
101.6397459622
 21
18.431982365
 31
0.0
  0
LINE
  5
12A
330
1F
100
AcDbEntity
  8
1
100
AcDbLine
 10
79.699999999
 20
-29.8302201167
 30
0.0
 11
79.649998546
 21
-29.78739515
 31
0.0
  0
LINE
  5
12B
330
1F
100
AcDbEntity
  8
1
100
AcDbLine
 10
79.649998546
 20
29.788289219
 30
0.0
 11
79.699999392
 21
29.831113294
 31
0.0
  0
LINE
  5
12C
330
1F
100
AcDbEntity
  8
1
100
AcDbLine
 10
113.825320006
 20
-2.674057381
 30
0.0
 11
113.825320006
 21
-19.499553368
 31
0.0
  0
LINE
  5
12D
330
1F
100
AcDbEntity
  8
1
100
AcDbLine
 10
116.153382489
 20
-19.499552965
 30
0.0
 11
116.153380573
 21
-6.706373301
 31
0.0
  0
LINE
  5
12E
330
1F
100
AcDbEntity
  8
1
100
AcDbLine
 10
116.153380573
 20
-6.706373301
 30
0.0
 11
116.649999023
 21
-7.566540036
 31
0.0
  0
LINE
  5
12F
330
1F
100
AcDbEntity
  8
1
100
AcDbLine
 10
116.649999023
 20
-7.566540036
 30
0.0
 11
116.649999023
 21
-36.264527589
 31
0.0
  0
LINE
  5
130
330
1F
100
AcDbEntity
  8
1
100
AcDbLine
 10
116.649999023
 20
-36.264527589
 30
0.0
 11
116.492344737
 21
-36.410152912
 31
0.0
  0
LINE
  5
131
330
1F
100
AcDbEntity
  8
1
100
AcDbLine
 10
116.208559573
 20
-36.359857768
 30
0.0
 11
116.492344737
 21
-36.410152912
 31
0.0
  0
LINE
  5
132
330
1F
100
AcDbEntity
  8
1
100
AcDbLine
 10
116.208559573
 20
-47.245107591
 30
0.0
 11
116.208559573
 21
-36.359857768
 31
0.0
  0
LINE
  5
133
330
1F
100
AcDbEntity
  8
1
100
AcDbLine
 10
116.208559573
 20
-47.245107591
 30
0.0
 11
116.2085148689
 21
-47.2535490991
 31
0.0
  0
LINE
  5
134
330
1F
100
AcDbEntity
  8
1
100
AcDbLine
 10
113.097480238
 20
-1.413389691
 30
0.0
 11
113.825320006
 21
-2.674057381
 31
0.0
  0
LINE
  5
135
330
1F
100
AcDbEntity
  8
1
100
AcDbLine
 10
79.649998546
 20
-29.78739515
 30
0.0
 11
79.601845443
 21
-29.750479385
 31
0.0
  0
LINE
  5
136
330
1F
100
AcDbEntity
  8
1
100
AcDbLine
 10
79.601845443
 20
-29.750479385
 30
0.0
 11
79.528177828
 21
-29.715131968
 31
0.0
  0
LINE
  5
137
330
1F
100
AcDbEntity
  8
1
100
AcDbLine
 10
79.528177828
 20
-29.715131968
 30
0.0
 11
79.479532987
 21
-29.713688418
 31
0.0
  0
LINE
  5
138
330
1F
100
AcDbEntity
  8
1
100
AcDbLine
 10
79.479532987
 20
-29.713688418
 30
0.0
 11
79.442920834
 21
-29.734993354
 31
0.0
  0
LINE
  5
139
330
1F
100
AcDbEntity
  8
1
100
AcDbLine
 10
79.442920834
 20
-29.734993354
 30
0.0
 11
79.411233515
 21
-29.796488583
 31
0.0
  0
LINE
  5
13A
330
1F
100
AcDbEntity
  8
1
100
AcDbLine
 10
79.411233515
 20
-29.796488583
 30
0.0
 11
79.400001764
 21
-29.897185043
 31
0.0
  0
LINE
  5
13B
330
1F
100
AcDbEntity
  8
1
100
AcDbLine
 10
79.649998546
 20
-31.221512705
 30
0.0
 11
79.6999999999
 21
-31.3232560177
 31
0.0
  0
LINE
  5
13C
330
1F
100
AcDbEntity
  8
1
100
AcDbLine
 10
79.400001764
 20
29.898079112
 30
0.0
 11
79.411013723
 21
29.798196629
 31
0.0
  0
LINE
  5
13D
330
1F
100
AcDbEntity
  8
1
100
AcDbLine
 10
79.411013723
 20
29.798196629
 30
0.0
 11
79.43741113
 21
29.74211052
 31
0.0
  0
LINE
  5
13E
330
1F
100
AcDbEntity
  8
1
100
AcDbLine
 10
79.43741113
 20
29.74211052
 30
0.0
 11
79.476649612
 21
29.715349898
 31
0.0
  0
LINE
  5
13F
330
1F
100
AcDbEntity
  8
1
100
AcDbLine
 10
79.476649612
 20
29.715349898
 30
0.0
 11
79.531452358
 21
29.716890305
 31
0.0
  0
LINE
  5
140
330
1F
100
AcDbEntity
  8
1
100
AcDbLine
 10
79.531452358
 20
29.716890305
 30
0.0
 11
79.586784095
 21
29.741801321
 31
0.0
  0
LINE
  5
141
330
1F
100
AcDbEntity
  8
1
100
AcDbLine
 10
79.586784095
 20
29.741801321
 30
0.0
 11
79.649998546
 21
29.788289219
 31
0.0
  0
LINE
  5
142
330
1F
100
AcDbEntity
  8
1
100
AcDbLine
 10
79.649998546
 20
31.222406775
 30
0.0
 11
79.443162978
 21
30.681785196
 31
0.0
  0
LINE
  5
143
330
1F
100
AcDbEntity
  8
1
100
AcDbLine
 10
79.443162978
 20
30.681785196
 30
0.0
 11
79.400001764
 21
30.401201919
 31
0.0
  0
LINE
  5
144
330
1F
100
AcDbEntity
  8
1
100
AcDbLine
 10
79.699999392
 20
31.324151903
 30
0.0
 11
79.649998546
 21
31.222406775
 31
0.0
  0
LINE
  5
145
330
1F
100
AcDbEntity
  8
1
100
AcDbLine
 10
79.6999999998
 20
-35.4702340724
 30
0.0
 11
79.649998546
 21
-35.429336131
 31
0.0
  0
LINE
  5
146
330
1F
100
AcDbEntity
  8
1
100
AcDbLine
 10
79.649998546
 20
35.4302302
 30
0.0
 11
79.699999392
 21
35.471126437
 31
0.0
  0
LINE
  5
147
330
1F
100
AcDbEntity
  8
1
100
AcDbLine
 10
79.400001764
 20
35.449374467
 30
0.0
 11
79.406029284
 21
35.397388041
 31
0.0
  0
LINE
  5
148
330
1F
100
AcDbEntity
  8
1
100
AcDbLine
 10
79.406029284
 20
35.397388041
 30
0.0
 11
79.433659762
 21
35.352706909
 31
0.0
  0
LINE
  5
149
330
1F
100
AcDbEntity
  8
1
100
AcDbLine
 10
79.433659762
 20
35.352706909
 30
0.0
 11
79.476716668
 21
35.340592265
 31
0.0
  0
LINE
  5
14A
330
1F
100
AcDbEntity
  8
1
100
AcDbLine
 10
79.476716668
 20
35.340592265
 30
0.0
 11
79.535140395
 21
35.355657339
 31
0.0
  0
LINE
  5
14B
330
1F
100
AcDbEntity
  8
1
100
AcDbLine
 10
79.535140395
 20
35.355657339
 30
0.0
 11
79.618661404
 21
35.405833274
 31
0.0
  0
LINE
  5
14C
330
1F
100
AcDbEntity
  8
1
100
AcDbLine
 10
79.618661404
 20
35.405833274
 30
0.0
 11
79.649998546
 21
35.4302302
 31
0.0
  0
LINE
  5
14D
330
1F
100
AcDbEntity
  8
1
100
AcDbLine
 10
79.7000019125
 20
36.5089874353
 30
0.0
 11
79.6499985466
 21
36.4264883101
 31
0.0
  0
LINE
  5
14E
330
1F
100
AcDbEntity
  8
1
100
AcDbLine
 10
79.649998546
 20
-35.429336131
 30
0.0
 11
79.584694207
 21
-35.381589085
 31
0.0
  0
LINE
  5
14F
330
1F
100
AcDbEntity
  8
1
100
AcDbLine
 10
79.584694207
 20
-35.381589085
 30
0.0
 11
79.511764199
 21
-35.346016288
 31
0.0
  0
LINE
  5
150
330
1F
100
AcDbEntity
  8
1
100
AcDbLine
 10
79.511764199
 20
-35.346016288
 30
0.0
 11
79.45236072
 21
-35.342577845
 31
0.0
  0
LINE
  5
151
330
1F
100
AcDbEntity
  8
1
100
AcDbLine
 10
79.45236072
 20
-35.342577845
 30
0.0
 11
79.419134855
 21
-35.367019475
 31
0.0
  0
LINE
  5
152
330
1F
100
AcDbEntity
  8
1
100
AcDbLine
 10
79.419134855
 20
-35.367019475
 30
0.0
 11
79.400374293
 21
-35.434111953
 31
0.0
  0
LINE
  5
153
330
1F
100
AcDbEntity
  8
1
100
AcDbLine
 10
79.400374293
 20
-35.434111953
 30
0.0
 11
79.400001764
 21
-35.448480398
 31
0.0
  0
LINE
  5
154
330
1F
100
AcDbEntity
  8
1
100
AcDbLine
 10
79.649998546
 20
-36.425594241
 30
0.0
 11
79.700000001
 21
-36.5080979584
 31
0.0
  0
LINE
  5
155
330
1F
100
AcDbEntity
  8
1
100
AcDbLine
 10
79.7
 20
-39.4263171452
 30
0.0
 11
79.649998546
 21
-39.385132492
 31
0.0
  0
LINE
  5
156
330
1F
100
AcDbEntity
  8
1
100
AcDbLine
 10
79.6500004811
 20
37.4504476779
 30
0.0
 11
79.7000013271
 21
37.5004485249
 31
0.0
  0
LINE
  5
157
330
1F
100
AcDbEntity
  8
1
100
AcDbLine
 10
82.1830776797
 20
37.5004470352
 30
0.0
 11
79.7000013271
 21
37.5004485249
 31
0.0
  0
LINE
  5
158
330
1F
100
AcDbEntity
  8
1
100
AcDbLine
 10
79.649998546
 20
-39.385132492
 30
0.0
 11
79.56990853
 21
-39.325322956
 31
0.0
  0
LINE
  5
159
330
1F
100
AcDbEntity
  8
1
100
AcDbLine
 10
79.56990853
 20
-39.325322956
 30
0.0
 11
79.492973834
 21
-39.284288883
 31
0.0
  0
LINE
  5
15A
330
1F
100
AcDbEntity
  8
1
100
AcDbLine
 10
79.492973834
 20
-39.284288883
 30
0.0
 11
79.434605986
 21
-39.276584983
 31
0.0
  0
LINE
  5
15B
330
1F
100
AcDbEntity
  8
1
100
AcDbLine
 10
79.434605986
 20
-39.276584983
 30
0.0
 11
79.406893551
 21
-39.299432188
 31
0.0
  0
LINE
  5
15C
330
1F
100
AcDbEntity
  8
1
100
AcDbLine
 10
79.406893551
 20
-39.299432188
 30
0.0
 11
79.400001764
 21
-39.336360991
 31
0.0
  0
LINE
  5
15D
330
1F
100
AcDbEntity
  8
1
100
AcDbLine
 10
79.649998546
 20
-40.085740388
 30
0.0
 11
79.7000000002
 21
-40.1564121809
 31
0.0
  0
LINE
  5
15E
330
1F
100
AcDbEntity
  8
1
100
AcDbLine
 10
79.4000036991
 20
37.2004471719
 30
0.0
 11
79.4000036991
 21
-44.6136333051
 31
0.0
  0
LINE
  5
15F
330
1F
100
AcDbEntity
  8
1
100
AcDbLine
 10
79.4000036991
 20
37.2004471719
 30
0.0
 11
79.4075995661
 21
37.2080430389
 31
0.0
  0
LINE
  5
160
330
1F
100
AcDbEntity
  8
1
100
AcDbLine
 10
79.4075995661
 20
37.2080430389
 30
0.0
 11
79.4301561991
 21
37.2305996709
 31
0.0
  0
LINE
  5
161
330
1F
100
AcDbEntity
  8
1
100
AcDbLine
 10
79.4301561991
 20
37.2305996709
 30
0.0
 11
79.4669881441
 21
37.2674353419
 31
0.0
  0
LINE
  5
162
330
1F
100
AcDbEntity
  8
1
100
AcDbLine
 10
79.4669881441
 20
37.2674353419
 30
0.0
 11
79.5169815401
 21
37.3174250119
 31
0.0
  0
LINE
  5
163
330
1F
100
AcDbEntity
  8
1
100
AcDbLine
 10
79.5169815401
 20
37.3174250119
 30
0.0
 11
79.5786090171
 21
37.3790524899
 31
0.0
  0
LINE
  5
164
330
1F
100
AcDbEntity
  8
1
100
AcDbLine
 10
79.5786090171
 20
37.3790524899
 30
0.0
 11
79.6500004811
 21
37.4504476779
 31
0.0
  0
LINE
  5
165
330
1F
100
AcDbEntity
  8
1
100
AcDbLine
 10
79.699999999
 20
-42.1750227215
 30
0.0
 11
79.649998546
 21
-42.132411152
 31
0.0
  0
LINE
  5
166
330
1F
100
AcDbEntity
  8
1
100
AcDbLine
 10
79.649998546
 20
-42.132411152
 30
0.0
 11
79.556534737
 21
-42.058572173
 31
0.0
  0
LINE
  5
167
330
1F
100
AcDbEntity
  8
1
100
AcDbLine
 10
79.556534737
 20
-42.058572173
 30
0.0
 11
79.477495253
 21
-42.009796947
 31
0.0
  0
LINE
  5
168
330
1F
100
AcDbEntity
  8
1
100
AcDbLine
 10
79.477495253
 20
-42.009796947
 30
0.0
 11
79.421750009
 21
-41.995063424
 31
0.0
  0
LINE
  5
169
330
1F
100
AcDbEntity
  8
1
100
AcDbLine
 10
79.421750009
 20
-41.995063424
 30
0.0
 11
79.40116778
 21
-42.013902217
 31
0.0
  0
LINE
  5
16A
330
1F
100
AcDbEntity
  8
1
100
AcDbLine
 10
79.40116778
 20
-42.013902217
 30
0.0
 11
79.400001764
 21
-42.025048286
 31
0.0
  0
LINE
  5
16B
330
1F
100
AcDbEntity
  8
1
100
AcDbLine
 10
79.649998546
 20
-42.601764202
 30
0.0
 11
79.7000000007
 21
-42.6642084375
 31
0.0
  0
LINE
  5
16C
330
1F
100
AcDbEntity
  8
1
100
AcDbLine
 10
79.7000000007
 20
-43.943503227
 30
0.0
 11
79.649998546
 21
-43.898664415
 31
0.0
  0
LINE
  5
16D
330
1F
100
AcDbEntity
  8
1
100
AcDbLine
 10
79.649998546
 20
-43.898664415
 30
0.0
 11
79.544006586
 21
-43.808121234
 31
0.0
  0
LINE
  5
16E
330
1F
100
AcDbEntity
  8
1
100
AcDbLine
 10
79.544006586
 20
-43.808121234
 30
0.0
 11
79.464315176
 21
-43.749589473
 31
0.0
  0
LINE
  5
16F
330
1F
100
AcDbEntity
  8
1
100
AcDbLine
 10
79.464315176
 20
-43.749589473
 30
0.0
 11
79.418289214
 21
-43.726481497
 31
0.0
  0
LINE
  5
170
330
1F
100
AcDbEntity
  8
1
100
AcDbLine
 10
79.418289214
 20
-43.726481497
 30
0.0
 11
79.400158227
 21
-43.733768165
 31
0.0
  0
LINE
  5
171
330
1F
100
AcDbEntity
  8
1
100
AcDbLine
 10
79.400158227
 20
-43.733768165
 30
0.0
 11
79.400001764
 21
-43.736267835
 31
0.0
  0
LINE
  5
172
330
1F
100
AcDbEntity
  8
1
100
AcDbLine
 10
79.649998546
 20
-44.169612229
 30
0.0
 11
79.6999999999
 21
-44.2259287054
 31
0.0
  0
LINE
  5
173
330
1F
100
AcDbEntity
  8
1
100
AcDbLine
 10
79.7000000004
 20
-44.8478670931
 30
0.0
 11
79.649998546
 21
-44.800069183
 31
0.0
  0
LINE
  5
174
330
1F
100
AcDbEntity
  8
1
100
AcDbLine
 10
113.825320006
 20
-2.674057381
 30
0.0
 11
116.153380573
 21
-6.706373301
 31
0.0
  0
LINE
  5
175
330
1F
100
AcDbEntity
  8
1
100
AcDbLine
 10
79.6500004807
 20
-44.8887534445
 30
0.0
 11
79.7000019336
 21
-44.9403117001
 31
0.0
  0
LINE
  5
176
330
1F
100
AcDbEntity
  8
1
100
AcDbLine
 10
96.906906664
 20
45.000001788
 30
0.0
 11
83.356334567
 21
45.000001788
 31
0.0
  0
LINE
  5
177
330
1F
100
AcDbEntity
  8
1
100
AcDbLine
 10
104.305988848
 20
46.304672956
 30
0.0
 11
96.906906664
 21
45.000001788
 31
0.0
  0
LINE
  5
178
330
1F
100
AcDbEntity
  8
1
100
AcDbLine
 10
103.31328094
 20
36.887537688
 30
0.0
 11
104.299998582
 21
38.063462824
 31
0.0
  0
LINE
  5
179
330
1F
100
AcDbEntity
  8
1
100
AcDbLine
 10
108.283429146
 20
34.72096473
 30
0.0
 11
107.2967155521
 21
33.5450438568
 31
0.0
  0
LINE
  5
17B
330
1F
100
AcDbEntity
  8
1
100
AcDbLine
 10
116.649999023
 20
7.567434106
 30
0.0
 11
116.649999023
 21
36.265421659
 31
0.0
  0
LINE
  5
17C
330
1F
100
AcDbEntity
  8
1
100
AcDbLine
 10
112.281194627
 20
0.000447035
 30
0.0
 11
116.649999023
 21
7.567434106
 31
0.0
  0
LINE
  5
17E
330
1F
100
AcDbEntity
  8
1
100
AcDbLine
 10
79.8499982066
 20
44.8896475135
 30
0.0
 11
79.8999990526
 21
44.9412055305
 31
0.0
  0
LINE
  5
17F
330
1F
100
AcDbEntity
  8
1
100
AcDbLine
 10
79.600001425
 20
37.400446832
 30
0.0
 11
79.600001425
 21
44.614527374
 31
0.0
  0
LINE
  5
181
330
1F
100
AcDbEntity
  8
1
100
AcDbLine
 10
116.0610819479
 20
48.9882945542
 30
0.0
 11
104.9610806257
 21
47.0310644486
 31
0.0
  0
LINE
  5
182
330
1F
100
AcDbEntity
  8
1
100
AcDbLine
 10
116.999998724
 20
36.9292109903
 30
0.0
 11
117.000001227
 21
48.2004455133
 31
0.0
  0
LINE
  5
184
330
1F
100
AcDbEntity
  8
CUT
100
AcDbLine
 10
117.0
 20
-36.928317572
 30
0.0
 11
117.0
 21
-48.199552964
 31
0.0
  0
LINE
  5
185
330
1F
100
AcDbEntity
  8
CUT
100
AcDbLine
 10
116.41554549
 20
-48.199552964
 30
0.0
 11
116.41554549
 21
-36.928317572
 31
0.0
  0
LINE
  5
186
330
1F
100
AcDbEntity
  8
CUT
100
AcDbLine
 10
116.2374290815
 20
-36.7160467023
 30
0.0
 11
116.208559573
 21
-36.710955203
 31
0.0
  0
LINE
  5
187
330
1F
100
AcDbEntity
  8
CUT
100
AcDbLine
 10
105.062572956
 20
-46.454593539
 30
0.0
 11
116.1625709185
 21
-48.4118238337
 31
0.0
  0
LINE
  5
188
330
1F
100
AcDbEntity
  8
CUT
100
AcDbLine
 10
104.884452601
 20
-46.1971493366
 30
0.0
 11
104.884455185
 21
-46.2423229116
 31
0.0
  0
LINE
  5
189
330
1F
100
AcDbEntity
  8
CUT
100
AcDbLine
 10
116.0610814579
 20
-48.9873991664
 30
0.0
 11
104.961081147
 21
-47.030169517
 31
0.0
  0
LINE
  5
18A
330
1F
100
AcDbEntity
  8
1
100
AcDbLine
 10
115.2696448561
 20
-48.0335094037
 30
0.0
 11
115.109516978
 21
-47.83693701
 31
0.0
  0
LINE
  5
18B
330
1F
100
AcDbEntity
  8
1
100
AcDbLine
 10
115.109516978
 20
-47.83693701
 30
0.0
 11
114.784582257
 21
-47.279741615
 31
0.0
  0
LINE
  5
18C
330
1F
100
AcDbEntity
  8
1
100
AcDbLine
 10
114.784582257
 20
-47.279741615
 30
0.0
 11
114.464110434
 21
-46.516422182
 31
0.0
  0
LINE
  5
18D
330
1F
100
AcDbEntity
  8
1
100
AcDbLine
 10
114.464110434
 20
-46.516422182
 30
0.0
 11
114.142670035
 21
-45.524224639
 31
0.0
  0
LINE
  5
18E
330
1F
100
AcDbEntity
  8
1
100
AcDbLine
 10
114.142670035
 20
-45.524224639
 30
0.0
 11
113.827778697
 21
-44.319219887
 31
0.0
  0
LINE
  5
18F
330
1F
100
AcDbEntity
  8
1
100
AcDbLine
 10
113.827778697
 20
-44.319219887
 30
0.0
 11
113.521530032
 21
-42.910780758
 31
0.0
  0
LINE
  5
190
330
1F
100
AcDbEntity
  8
1
100
AcDbLine
 10
113.521530032
 20
-42.910780758
 30
0.0
 11
113.226002753
 21
-41.308280081
 31
0.0
  0
LINE
  5
191
330
1F
100
AcDbEntity
  8
1
100
AcDbLine
 10
113.226002753
 20
-41.308280081
 30
0.0
 11
112.943275571
 21
-39.521090686
 31
0.0
  0
LINE
  5
192
330
1F
100
AcDbEntity
  8
1
100
AcDbLine
 10
112.943275571
 20
-39.521090686
 30
0.0
 11
112.648210228
 21
-37.348713726
 31
0.0
  0
LINE
  5
193
330
1F
100
AcDbEntity
  8
1
100
AcDbLine
 10
112.648210228
 20
-37.348713726
 30
0.0
 11
112.370102406
 21
-34.966737032
 31
0.0
  0
LINE
  5
194
330
1F
100
AcDbEntity
  8
1
100
AcDbLine
 10
112.370102406
 20
-34.966737032
 30
0.0
 11
112.111254335
 21
-32.394554466
 31
0.0
  0
LINE
  5
195
330
1F
100
AcDbEntity
  8
1
100
AcDbLine
 10
115.272789002
 20
-48.03685844
 30
0.0
 11
115.2696448561
 21
-48.0335094037
 31
0.0
  0
LINE
  5
196
330
1F
100
AcDbEntity
  8
CUT
100
AcDbLine
 10
116.41554549
 20
-48.199552964
 30
0.0
 11
117.0
 21
-48.199552964
 31
0.0
  0
LINE
  5
197
330
1F
100
AcDbEntity
  8
CUT
100
AcDbLine
 10
116.1625709185
 20
-48.4118238337
 30
0.0
 11
116.0610814579
 21
-48.9873991664
 31
0.0
  0
LINE
  5
198
330
1F
100
AcDbEntity
  8
CUT
100
AcDbLine
 10
116.2374290815
 20
-36.7160467023
 30
0.0
 11
116.2974599
 21
-36.375612021
 31
0.0
  0
LINE
  5
199
330
1F
100
AcDbEntity
  8
CUT
100
AcDbLine
 10
116.41554549
 20
-36.928317572
 30
0.0
 11
117.0
 21
-36.928317572
 31
0.0
  0
LINE
  5
19A
330
1F
100
AcDbEntity
  8
CUT
100
AcDbLine
 10
105.062572956
 20
-46.454593539
 30
0.0
 11
104.961081147
 21
-47.030169517
 31
0.0
  0
LINE
  5
19B
330
1F
100
AcDbEntity
  8
CUT
100
AcDbLine
 10
104.884455185
 20
-46.2423229116
 30
0.0
 11
104.534707446
 21
-46.2423222066
 31
0.0
  0
ARC
  5
19C
330
1F
100
AcDbEntity
  8
3
100
AcDbCircle
 10
70.040905639
 20
-51.9823619391
 30
0.0
 40
14.98236519292166
100
AcDbArc
 50
89.9595656045
 51
151.921729602
  0
ARC
  5
19E
330
1F
100
AcDbEntity
  8
SK1
100
AcDbCircle
 10
-17.9259354577
 20
0.5553718925
 30
0.0
 40
10.04690147164938
100
AcDbArc
 50
231.7298750868
 51
239.976314875
  0
ARC
  5
19F
330
1F
100
AcDbEntity
  8
SK1
100
AcDbCircle
 10
-17.9292751224
 20
0.5496024531
 30
0.0
 40
10.040247852
100
AcDbArc
 50
239.976314875
 51
251.741880154
  0
ARC
  5
1A0
330
1F
100
AcDbEntity
  8
SK1
100
AcDbCircle
 10
-17.9320008823
 20
0.5413362565
 30
0.0
 40
10.03154384300001
100
AcDbArc
 50
251.741872984
 51
279.427079272
  0
ARC
  5
1A2
330
1F
100
AcDbEntity
  8
SK1
100
AcDbCircle
 10
-17.849662225
 20
-2.3777337996
 30
0.0
 40
7.149434917506447
100
AcDbArc
 50
269.997293056
 51
282.6094377701
  0
ARC
  5
1A3
330
1F
100
AcDbEntity
  8
SK1
100
AcDbCircle
 10
-19.4432189392
 20
2.4140490371
 30
0.0
 40
11.9415815967941
100
AcDbArc
 50
193.136820997
 51
270.4472695663
  0
ARC
  5
1A4
330
1F
100
AcDbEntity
  8
SK1
100
AcDbCircle
 10
-17.7899435636
 20
-0.825236724
 30
0.0
 40
8.847244815403213
100
AcDbArc
 50
269.6110645925
 51
299.0076822932
  0
ARC
  5
1A5
330
1F
100
AcDbEntity
  8
SK1
100
AcDbCircle
 10
-17.3847161404
 20
0.1541150489
 30
0.0
 40
9.543337163997583
100
AcDbArc
 50
294.0224419946
 51
357.2725783095
  0
ARC
  5
1A6
330
1F
100
AcDbEntity
  8
SK1
100
AcDbCircle
 10
-4.6000000009
 20
-0.0000000003
 30
0.0
 40
0.2999999999828418
100
AcDbArc
 50
269.999999949
 51
89.999999949
  0
ARC
  5
1A7
330
1F
100
AcDbEntity
  8
SK1
100
AcDbCircle
 10
-17.8496622252
 20
2.3777378409
 30
0.0
 40
7.149430876000007
100
AcDbArc
 50
77.39055863000002
 51
90.00270694400001
  0
ARC
  5
1A8
330
1F
100
AcDbEntity
  8
SK1
100
AcDbCircle
 10
-19.4432189392
 20
-2.4140490373
 30
0.0
 40
11.94158159679412
100
AcDbArc
 50
89.55273043369999
 51
166.863179002
  0
ARC
  5
1A9
330
1F
100
AcDbEntity
  8
SK1
100
AcDbCircle
 10
-17.7899443926
 20
0.8252367179
 30
0.0
 40
8.847244815903224
100
AcDbArc
 50
60.9923212774
 51
90.3889300382
  0
ARC
  5
1AA
330
1F
100
AcDbEntity
  8
SK1
100
AcDbCircle
 10
-17.3433920336
 20
-0.1258704807
 30
0.0
 40
9.50075211809606
100
AcDbArc
 50
2.5691397354
 51
66.1358506633
  0
ARC
  5
1AB
330
1F
100
AcDbEntity
  8
SK1
100
AcDbCircle
 10
-17.9320000004
 20
-0.0000000003
 30
0.0
 40
7.49999999975983
100
AcDbArc
 50
2.292442776
 51
161.2879965472
  0
ARC
  5
1AC
330
1F
100
AcDbEntity
  8
SK1
100
AcDbCircle
 10
-17.9259354581
 20
-0.5553718928
 30
0.0
 40
10.04690147164938
100
AcDbArc
 50
120.023685125
 51
128.2701249132
  0
ARC
  5
1AD
330
1F
100
AcDbEntity
  8
SK1
100
AcDbCircle
 10
-17.9292736349
 20
-0.5496023048
 30
0.0
 40
10.04024785199999
100
AcDbArc
 50
108.258119846
 51
120.023685125
  0
ARC
  5
1AF
330
1F
100
AcDbEntity
  8
SK1
100
AcDbCircle
 10
-17.9320006631
 20
-0.5413322647
 30
0.0
 40
10.03153979575078
100
AcDbArc
 50
80.5729207302
 51
108.2581270142
  0
ARC
  5
1B0
330
1F
100
AcDbEntity
  8
SK1
100
AcDbCircle
 10
-17.9860483562
 20
-1.928443306
 30
0.0
 40
11.41009527066906
100
AcDbArc
 50
66.8466721335
 51
81.44609386990001
  0
ARC
  5
1B1
330
1F
100
AcDbEntity
  8
SK1
100
AcDbCircle
 10
-48.7875644342
 20
21.8000000004
 30
0.0
 40
1.200000000259209
100
AcDbArc
 50
80.00000000339999
 51
150.0000000331
  0
ARC
  5
1B2
330
1F
100
AcDbEntity
  8
SK1
100
AcDbCircle
 10
-48.787564435
 20
-21.8
 30
0.0
 40
1.199999999765645
100
AcDbArc
 50
210.0000000129
 51
279.999999999
  0
ARC
  5
1B3
330
1F
100
AcDbEntity
  8
SK1
100
AcDbCircle
 10
-0.2999267581
 20
23.2999877931
 30
0.0
 40
0.5000000001622754
100
AcDbArc
 50
255.0002074473
 51
306.859407195
  0
ARC
  5
1B4
330
1F
100
AcDbEntity
  8
SK1
100
AcDbCircle
 10
-21.9962214781
 20
0.0173762358
 30
0.0
 40
3.887264632929641
100
AcDbArc
 50
184.683134273
 51
218.5675084895
  0
ARC
  5
1B5
330
1F
100
AcDbEntity
  8
SK1
100
AcDbCircle
 10
-21.669313573
 20
0.4193223146
 30
0.0
 40
7.372899239940786
100
AcDbArc
 50
185.5988555017999
 51
206.1963176507
  0
ARC
  5
1B6
330
1F
100
AcDbEntity
  8
SK1
100
AcDbCircle
 10
-21.6808272051
 20
0.413576699
 30
0.0
 40
7.360031819279705
100
AcDbArc
 50
206.1957509794
 51
224.9727332
  0
ARC
  5
1B7
330
1F
100
AcDbEntity
  8
SK1
100
AcDbCircle
 10
-21.6861476798
 20
0.4082612851
 30
0.0
 40
7.352511109442171
100
AcDbArc
 50
224.9727331962
 51
225.92716713
  0
ARC
  5
1B8
330
1F
100
AcDbEntity
  8
SK1
100
AcDbCircle
 10
-21.9906221403
 20
-0.019596033
 30
0.0
 40
3.893026908260009
100
AcDbArc
 50
141.458324148
 51
175.291033093
  0
ARC
  5
1B9
330
1F
100
AcDbEntity
  8
SK1
100
AcDbCircle
 10
-21.6693134469
 20
-0.4193210281
 30
0.0
 40
7.372899239940771
100
AcDbArc
 50
153.8036905213
 51
174.4011545441
  0
ARC
  5
1BA
330
1F
100
AcDbEntity
  8
SK1
100
AcDbCircle
 10
-21.6808275433
 20
-0.4135763568
 30
0.0
 40
7.360031819500409
100
AcDbArc
 50
135.0272668
 51
153.8042490146
  0
ARC
  5
1BB
330
1F
100
AcDbEntity
  8
SK1
100
AcDbCircle
 10
-21.6861478478
 20
-0.408261113
 30
0.0
 40
7.352511350391568
100
AcDbArc
 50
134.07283287
 51
135.0272668038
  0
ARC
  5
1BC
330
1F
100
AcDbEntity
  8
SK1
100
AcDbCircle
 10
-19.3360244871
 20
-0.5174125781
 30
0.0
 40
9.207910019540986
100
AcDbArc
 50
135.0272668
 51
144.158782368
  0
ARC
  5
1BD
330
1F
100
AcDbEntity
  8
SK1
100
AcDbCircle
 10
-19.342678315
 20
-0.51076508
 30
0.0
 40
9.198535498000004
100
AcDbArc
 50
121.498294462
 51
135.0272668
  0
ARC
  5
1BE
330
1F
100
AcDbEntity
  8
SK1
100
AcDbCircle
 10
-46.0
 20
0.0
 30
0.0
 40
0.3000000000000225
100
AcDbArc
 50
90.0
 51
270.0
  0
ARC
  5
1BF
330
1F
100
AcDbEntity
  8
SK1
100
AcDbCircle
 10
-0.299926758
 20
-23.2999877928
 30
0.0
 40
0.5000000000000134
100
AcDbArc
 50
53.140592805
 51
104.998095138
  0
ARC
  5
1C0
330
1F
100
AcDbEntity
  8
SK1
100
AcDbCircle
 10
-19.3426783147
 20
0.5107650806
 30
0.0
 40
9.198565879660476
100
AcDbArc
 50
224.9727332
 51
238.5017055358
  0
ARC
  5
1C1
330
1F
100
AcDbEntity
  8
SK1
100
AcDbCircle
 10
-19.336024487
 20
0.517412578
 30
0.0
 40
9.207940956
100
AcDbArc
 50
215.841217633
 51
224.9727332
  0
ARC
  5
1C2
330
1F
100
AcDbEntity
  8
SK1
100
AcDbCircle
 10
-17.9320000004
 20
-0.0000000003
 30
0.0
 40
7.499999999224936
100
AcDbArc
 50
205.322210656
 51
357.707557224
  0
ARC
  5
1C5
330
1F
100
AcDbEntity
  8
SK1
100
AcDbCircle
 10
-17.9860486364
 20
1.9284472896
 30
0.0
 40
11.41009931839955
100
AcDbArc
 50
278.5539067507
 51
293.1533278646
  0
ARC
  5
1C6
330
1F
100
AcDbEntity
  8
3
100
AcDbCircle
 10
70.040905639
 20
51.9823619392
 30
0.0
 40
14.98236519299999
100
AcDbArc
 50
208.078270398
 51
270.040434395
  0
ARC
  5
1C7
330
1F
100
AcDbEntity
  8
1
100
AcDbCircle
 10
92.7254270674
 20
8.4044311463
 30
0.0
 40
46.5967527121477
100
AcDbArc
 50
156.4796746178
 51
157.461812867
  0
ARC
  5
1C8
330
1F
100
AcDbEntity
  8
1
100
AcDbCircle
 10
102.977514812
 20
4.1498698705
 30
0.0
 40
57.69582644199999
100
AcDbArc
 50
157.461812867
 51
166.864202143
  0
ARC
  5
1C9
330
1F
100
AcDbEntity
  8
1
100
AcDbCircle
 10
120.7586337971
 20
-0.0000000003
 30
0.0
 40
75.95478622100003
100
AcDbArc
 50
166.8639368923
 51
193.136063108
  0
ARC
  5
1CB
330
1F
100
AcDbEntity
  8
1
100
AcDbCircle
 10
102.9775148116
 20
-4.1498698712
 30
0.0
 40
57.69582644151444
100
AcDbArc
 50
193.1357978574
 51
202.538187133
  0
ARC
  5
1CC
330
1F
100
AcDbEntity
  8
1
100
AcDbCircle
 10
92.725427383
 20
-8.404431009
 30
0.0
 40
46.59598017600001
100
AcDbArc
 50
202.5381871334
 51
203.520324812
  0
ARC
  5
1CD
330
1F
100
AcDbEntity
  8
1
100
AcDbCircle
 10
121.1026989765
 20
-38.0021635494
 30
0.0
 40
80.735831416
100
AcDbArc
 50
118.202290013
 51
120.846272818
  0
ARC
  5
1CE
330
1F
100
AcDbEntity
  8
1
100
AcDbCircle
 10
82.7632841179
 20
33.5364344251
 30
0.0
 40
0.4291768604209055
100
AcDbArc
 50
295.5039562815
 51
64.496010356
  0
ARC
  5
1CF
330
1F
100
AcDbEntity
  8
1
100
AcDbCircle
 10
46.293453501
 20
-38.002163968
 30
0.0
 40
80.72734530919398
100
AcDbArc
 50
62.99587758149999
 51
65.54984404900001
  0
ARC
  5
1D0
330
1F
100
AcDbEntity
  8
1
100
AcDbCircle
 10
118.0795120671
 20
-55.7593002791
 30
0.0
 40
99.929647607
100
AcDbArc
 50
111.052120891
 51
112.538187133
  0
ARC
  5
1D1
330
1F
100
AcDbEntity
  8
1
100
AcDbCircle
 10
110.710394077
 20
-38.002163968
 30
0.0
 40
80.706605093
100
AcDbArc
 50
112.538187133
 51
112.596325357
  0
ARC
  5
1D2
330
1F
100
AcDbEntity
  8
1
100
AcDbCircle
 10
82.5259829845
 20
27.0435618089
 30
0.0
 40
0.6734752401790542
100
AcDbArc
 50
356.3295683022
 51
51.190050096
  0
ARC
  5
1D3
330
1F
100
AcDbEntity
  8
1
100
AcDbCircle
 10
55.649852406
 20
-10.3099567678
 30
0.0
 40
46.69003537326707
100
AcDbArc
 50
54.220378713
 51
54.50520341899999
  0
ARC
  5
1D4
330
1F
100
AcDbEntity
  8
1
100
AcDbCircle
 10
35.901148655
 20
-38.002163968
 30
0.0
 40
80.706605093
100
AcDbArc
 50
54.505296738
 51
57.150322834
  0
ARC
  5
1D5
330
1F
100
AcDbEntity
  8
1
100
AcDbCircle
 10
82.48196194
 20
-27.0232890201
 30
0.0
 40
0.7165080860000083
100
AcDbArc
 50
310.5820297139999
 51
1.898351868
  0
ARC
  5
1D6
330
1F
100
AcDbEntity
  8
1
100
AcDbCircle
 10
52.521161675
 20
86.557995847
 30
0.0
 40
131.570814858
100
AcDbArc
 50
281.921534352
 51
283.136063108
  0
ARC
  5
1D7
330
1F
100
AcDbEntity
  8
1
100
AcDbCircle
 10
59.708947136
 20
55.760194348
 30
0.0
 40
99.93210278200002
100
AcDbArc
 50
283.135797857
 51
283.447627668
  0
ARC
  5
1D8
330
1F
100
AcDbEntity
  8
1
100
AcDbCircle
 10
107.687205287
 20
55.760194348
 30
0.0
 40
99.91636036100002
100
AcDbArc
 50
253.733448918
 51
255.665407909
  0
ARC
  5
1D9
330
1F
100
AcDbEntity
  8
1
100
AcDbCircle
 10
49.31664229
 20
55.760194348
 30
0.0
 40
99.918068416
100
AcDbArc
 50
287.7029864759999
 51
289.667891257
  0
ARC
  5
1DA
330
1F
100
AcDbEntity
  8
1
100
AcDbCircle
 10
110.710394077
 20
38.003058038
 30
0.0
 40
80.706610068
100
AcDbArc
 50
247.403674643
 51
247.461812867
  0
ARC
  5
1DB
330
1F
100
AcDbEntity
  8
1
100
AcDbCircle
 10
118.0795091787
 20
55.7601920508
 30
0.0
 40
99.93210526916498
100
AcDbArc
 50
247.4618128672
 51
249.416812296
  0
ARC
  5
1DC
330
1F
100
AcDbEntity
  8
1
100
AcDbCircle
 10
46.293453501
 20
38.003058038
 30
0.0
 40
80.71134989900003
100
AcDbArc
 50
294.450155951
 51
297.004122026
  0
ARC
  5
1DD
330
1F
100
AcDbEntity
  8
1
100
AcDbCircle
 10
82.762938588
 20
-33.535540104
 30
0.0
 40
0.4293255070000144
100
AcDbArc
 50
295.545592852
 51
64.45440714799999
  0
ARC
  5
1DE
330
1F
100
AcDbEntity
  8
1
100
AcDbCircle
 10
121.102698922
 20
38.003058038
 30
0.0
 40
80.74850647900003
100
AcDbArc
 50
239.153727182
 51
241.797709987
  0
ARC
  5
1DF
330
1F
100
AcDbEntity
  8
1
100
AcDbCircle
 10
35.901148655
 20
38.003058038
 30
0.0
 40
80.744615946
100
AcDbArc
 50
302.849677166
 51
305.494703262
  0
ARC
  5
1E0
330
1F
100
AcDbEntity
  8
1
100
AcDbCircle
 10
55.649852208
 20
10.310851113
 30
0.0
 40
46.69381902000002
100
AcDbArc
 50
305.4947965810001
 51
305.779621786
  0
ARC
  5
1E1
330
1F
100
AcDbEntity
  8
1
100
AcDbCircle
 10
82.695759451
 20
-90.2863906675
 30
0.0
 40
45.28962493445064
100
AcDbArc
 50
89.4173172179
 51
89.68079302699999
  0
ARC
  5
1E2
330
1F
100
AcDbEntity
  8
1
100
AcDbCircle
 10
83.6980781457
 20
86.5579958465
 30
0.0
 40
131.559072287
100
AcDbArc
 50
268.258514872
 51
269.673359302
  0
ARC
  5
1E3
330
1F
100
AcDbEntity
  8
1
100
AcDbCircle
 10
73.305771366
 20
86.557995847
 30
0.0
 40
131.561343011
100
AcDbArc
 50
272.785823685
 51
274.202913096
  0
ARC
  5
1E4
330
1F
100
AcDbEntity
  8
1
100
AcDbCircle
 10
94.090381057
 20
86.557995847
 30
0.0
 40
131.573241916
100
AcDbArc
 50
263.720905437
 51
265.141884429
  0
ARC
  5
1E5
330
1F
100
AcDbEntity
  8
1
100
AcDbCircle
 10
62.913466521
 20
86.557995847
 30
0.0
 40
131.576703739
100
AcDbArc
 50
277.329762228
 51
278.758042759
  0
ARC
  5
1E6
330
1F
100
AcDbEntity
  8
1
100
AcDbCircle
 10
104.482685902
 20
86.557995847
 30
0.0
 40
131.577200155
100
AcDbArc
 50
259.143438958
 51
260.580504153
  0
ARC
  5
1E7
330
1F
100
AcDbEntity
  8
1
100
AcDbCircle
 10
104.44706315
 20
-45.594205556
 30
0.0
 40
0.724567496000011
100
AcDbArc
 50
263.401632993
 51
270.0
  0
ARC
  5
1E8
330
1F
100
AcDbEntity
  8
1
100
AcDbCircle
 10
104.44706315
 20
-45.594205556
 30
0.0
 40
0.7255303070000139
100
AcDbArc
 50
270.0
 51
276.948529268
  0
ARC
  5
1E9
330
1F
100
AcDbEntity
  8
1
100
AcDbCircle
 10
155.9497096357
 20
0.3216781918
 30
0.0
 40
54.70094967992126
100
AcDbArc
 50
214.9198639001
 51
216.73363829
  0
ARC
  5
1EA
330
1F
100
AcDbEntity
  8
1
100
AcDbCircle
 10
110.3000008981
 20
23.4319828835
 30
0.0
 40
10.000001037
100
AcDbArc
 50
179.9999972498
 51
210.0
  0
ARC
  5
1EB
330
1F
100
AcDbEntity
  8
1
100
AcDbCircle
 10
115.405603387
 20
-47.242110024
 30
0.0
 40
0.8029929640000213
100
AcDbArc
 50
260.252022024
 51
359.183762591
  0
ARC
  5
1EC
330
1F
100
AcDbEntity
  8
1
100
AcDbCircle
 10
202.0311622555
 20
-19.4995136364
 30
0.0
 40
88.20584224950001
100
AcDbArc
 50
180.0000258084
 51
185.3447477777
  0
ARC
  5
1ED
330
1F
100
AcDbEntity
  8
1
100
AcDbCircle
 10
128.5909074513
 20
-26.370144457
 30
0.0
 40
14.44490005409442
100
AcDbArc
 50
185.3450241526
 51
192.606993773
  0
ARC
  5
1EE
330
1F
100
AcDbEntity
  8
1
100
AcDbCircle
 10
118.4683662176
 20
-28.63409787
 30
0.0
 40
4.072276177583046
100
AcDbArc
 50
192.606993769
 51
207.00288411
  0
ARC
  5
1EF
330
1F
100
AcDbEntity
  8
1
100
AcDbCircle
 10
114.9893530832
 20
-30.4069650502
 30
0.0
 40
0.1675879149999879
100
AcDbArc
 50
207.0026237783
 51
332.997376199
  0
ARC
  5
1F1
330
1F
100
AcDbEntity
  8
1
100
AcDbCircle
 10
111.5103399488
 20
-28.63409787
 30
0.0
 40
4.072276177567272
100
AcDbArc
 50
332.9971158891
 51
347.393006227
  0
ARC
  5
1F2
330
1F
100
AcDbEntity
  8
1
100
AcDbCircle
 10
101.3877987148
 20
-26.370144457
 30
0.0
 40
14.44490005441692
100
AcDbArc
 50
347.3930062259001
 51
354.654975849
  0
ARC
  5
1F3
330
1F
100
AcDbEntity
  8
1
100
AcDbCircle
 10
27.9475420751
 20
-19.499552965
 30
0.0
 40
88.20584041390563
100
AcDbArc
 50
354.6552777693
 51
0.0
  0
ARC
  5
1F4
330
1F
100
AcDbEntity
  8
1
100
AcDbCircle
 10
81.5133051173
 20
-30.2056169238
 30
0.0
 40
2.12225248662394
100
AcDbArc
 50
185.26359344
 51
208.5997169607
  0
ARC
  5
1F5
330
1F
100
AcDbEntity
  8
1
100
AcDbCircle
 10
80.679640118
 20
35.653012019
 30
0.0
 40
1.287799417000031
100
AcDbArc
 50
143.085785079
 51
173.546184618
  0
ARC
  5
1F6
330
1F
100
AcDbEntity
  8
1
100
AcDbCircle
 10
80.8896087147
 20
-35.5686291442
 30
0.0
 40
1.50699122339242
100
AcDbArc
 50
188.711218677
 51
214.656811639
  0
ARC
  5
1F7
330
1F
100
AcDbEntity
  8
1
100
AcDbCircle
 10
80.4635178869
 20
-39.3685288331
 30
0.0
 40
1.084530374156284
100
AcDbArc
 50
191.297373701
 51
221.3999119745
  0
ARC
  5
1F8
330
1F
100
AcDbEntity
  8
1
100
AcDbCircle
 10
80.5043650372
 20
-41.8024086148
 30
0.0
 40
1.170004895732445
100
AcDbArc
 50
199.283467107
 51
223.0947640114
  0
ARC
  5
1F9
330
1F
100
AcDbEntity
  8
1
100
AcDbCircle
 10
80.4364656969
 20
-43.3277407371
 30
0.0
 40
1.152075600114787
100
AcDbArc
 50
205.888001052
 51
226.9487412827
  0
ARC
  5
1FA
330
1F
100
AcDbEntity
  8
1
100
AcDbCircle
 10
115.4072385788
 20
-47.2468952492
 30
0.0
 40
0.801322988262743
100
AcDbArc
 50
260.3409698981
 51
0.1278203125
  0
ARC
  5
1FB
330
1F
100
AcDbEntity
  8
1
100
AcDbCircle
 10
78.831704466
 20
-45.488801345
 30
0.0
 40
1.069559344967124
100
AcDbArc
 50
40.0862549823
 51
57.90411145099999
  0
ARC
  5
1FC
330
1F
100
AcDbEntity
  8
1
100
AcDbCircle
 10
81.1655310789
 20
-43.2604738353
 30
0.0
 40
2.224438688674077
100
AcDbArc
 50
217.4677675531
 51
227.0539646231
  0
ARC
  5
1FD
330
1F
100
AcDbEntity
  8
1
100
AcDbCircle
 10
105.3049993989
 20
35.2162921464
 30
0.0
 40
2.600000784638019
100
AcDbArc
 50
140.0000790488
 51
320.0
  0
ARC
  5
1FE
330
1F
100
AcDbEntity
  8
1
100
AcDbCircle
 10
82.895759111
 20
90.287284737
 30
0.0
 40
45.28962493395067
100
AcDbArc
 50
270.319206973
 51
270.5826827821
  0
ARC
  5
1FF
330
1F
100
AcDbEntity
  8
1
100
AcDbCircle
 10
83.8980762138
 20
-86.5571022729
 30
0.0
 40
131.5576027989518
100
AcDbArc
 50
90.3266408196
 51
91.74148512800001
  0
ARC
  5
200
330
1F
100
AcDbEntity
  8
1
100
AcDbCircle
 10
81.3655288053
 20
43.2613679048
 30
0.0
 40
2.224438688710562
100
AcDbArc
 50
132.9460353958
 51
142.5322324673
  0
ARC
  5
201
330
1F
100
AcDbEntity
  8
1
100
AcDbCircle
 10
105.099999291
 20
46.243217548
 30
0.0
 40
0.8000007090001734
100
AcDbArc
 50
100.0
 51
180.0000505634
  0
ARC
  5
202
330
1F
100
AcDbEntity
  8
1
100
AcDbCircle
 10
116.2000010367
 20
48.200448255
 30
0.0
 40
0.8000001902962111
100
AcDbArc
 50
359.9998036424001
 51
100.000037354
  0
ARC
  5
203
330
1F
100
AcDbEntity
  8
1
100
AcDbCircle
 10
116.1999999755
 20
36.9292101213
 30
0.0
 40
0.7999987485002428
100
AcDbArc
 50
280.0
 51
0.0000622377
  0
ARC
  5
204
330
1F
100
AcDbEntity
  8
1
100
AcDbCircle
 10
105.0999997074
 20
34.971982156
 30
0.0
 40
0.8000011253505378
100
AcDbArc
 50
179.9999939123
 51
280.0001499048
  0
ARC
  5
205
330
1F
100
AcDbEntity
  8
CUT
100
AcDbCircle
 10
116.2
 20
-48.199552964
 30
0.0
 40
0.7999999999999972
100
AcDbArc
 50
260.0
 51
0.0
  0
ARC
  5
206
330
1F
100
AcDbEntity
  8
CUT
100
AcDbCircle
 10
116.2
 20
-48.199552964
 30
0.0
 40
0.2155454900000109
100
AcDbArc
 50
260.0
 51
0.0
  0
ARC
  5
207
330
1F
100
AcDbEntity
  8
CUT
100
AcDbCircle
 10
116.2
 20
-36.928317572
 30
0.0
 40
0.8000000000000015
100
AcDbArc
 50
0.0
 51
55.898251634
  0
ARC
  5
208
330
1F
100
AcDbEntity
  8
CUT
100
AcDbCircle
 10
116.2
 20
-36.928317572
 30
0.0
 40
0.2155454900000109
100
AcDbArc
 50
0.0
 51
80.0
  0
ARC
  5
209
330
1F
100
AcDbEntity
  8
CUT
100
AcDbCircle
 10
105.1000000999
 20
-46.2423229116
 30
0.0
 40
0.2155449148996663
100
AcDbArc
 50
180.0
 51
260.0004960613999
  0
ARC
  5
20A
330
1F
100
AcDbEntity
  8
CUT
100
AcDbCircle
 10
105.1000000999
 20
-46.2423229116
 30
0.0
 40
0.8000004681545935
100
AcDbArc
 50
184.429224501
 51
259.9999760422
  0
ARC
  5
20C
330
1F
100
AcDbEntity
  8
1
100
AcDbCircle
 10
109.4587438159
 20
39.6271841652
 30
0.0
 40
0.7000000002112284
100
AcDbArc
 50
3.384161806
 51
116.6158381253
  0
ARC
  5
20D
330
1F
100
AcDbEntity
  8
1
100
AcDbCircle
 10
110.457
 20
39.6862145952
 30
0.0
 40
0.3000000001400454
100
AcDbArc
 50
183.3841619477
 51
356.615838194
  0
ARC
  5
20F
330
1F
100
AcDbEntity
  8
1
100
AcDbCircle
 10
111.455256184
 20
39.6271841652
 30
0.0
 40
0.7000000001400725
100
AcDbArc
 50
63.384161806
 51
176.6158381333
  0
ARC
  5
210
330
1F
100
AcDbEntity
  8
1
100
AcDbCircle
 10
111.9032624239
 20
40.5212145952
 30
0.0
 40
0.3000000002112305
100
AcDbArc
 50
243.3841619664
 51
56.61583806649997
  0
ARC
  5
212
330
1F
100
AcDbEntity
  8
1
100
AcDbCircle
 10
108.460487633
 20
41.356214595
 30
0.0
 40
0.6999999999428997
100
AcDbArc
 50
303.384161806
 51
56.6158382077
  0
ARC
  5
213
330
1F
100
AcDbEntity
  8
1
100
AcDbCircle
 10
109.010737576
 20
40.521214595
 30
0.0
 40
0.2999999999428853
100
AcDbArc
 50
123.384161774
 51
296.615838194
  0
ARC
  5
214
330
1F
100
AcDbEntity
  8
1
100
AcDbCircle
 10
112.453512367
 20
41.3562145955
 30
0.0
 40
0.7000000000000121
100
AcDbArc
 50
123.3841617425
 51
236.6158382672
  0
ARC
  5
215
330
1F
100
AcDbEntity
  8
1
100
AcDbCircle
 10
111.9032624241
 20
42.1912145954
 30
0.0
 40
0.299999999764226
100
AcDbArc
 50
303.3841619335
 51
116.6158381191
  0
ARC
  5
217
330
1F
100
AcDbEntity
  8
1
100
AcDbCircle
 10
111.455256184
 20
43.0852450246
 30
0.0
 40
0.7000000000000298
100
AcDbArc
 50
183.384161806
 51
296.615838194
  0
ARC
  5
218
330
1F
100
AcDbEntity
  8
1
100
AcDbCircle
 10
110.4570000002
 20
43.0262145956
 30
0.0
 40
0.2999999999999972
100
AcDbArc
 50
3.3841617571
 51
176.615838194
  0
ARC
  5
21B
330
1F
100
AcDbEntity
  8
1
100
AcDbCircle
 10
109.4587438163
 20
43.0852450246
 30
0.0
 40
0.700000000110567
100
AcDbArc
 50
243.384161806
 51
356.615838215
  0
ARC
  5
21C
330
1F
100
AcDbEntity
  8
1
100
AcDbCircle
 10
109.010737576
 20
42.191214595
 30
0.0
 40
0.299999999999996
100
AcDbArc
 50
63.3841618808
 51
236.615838194
  0
ARC
  5
21D
330
1F
100
AcDbEntity
  8
1
100
AcDbCircle
 10
276.6516258861
 20
-16.0143827623
 30
0.0
 40
164.3724398218227
100
AcDbArc
 50
185.7195017086
 51
187.095933649
  0
ARC
  5
21E
330
1F
100
AcDbEntity
  8
1
100
AcDbCircle
 10
194.9156416558
 20
-26.189246893
 30
0.0
 40
82.01322166
100
AcDbArc
 50
187.095933649
 51
192.474884001
  0
ARC
  5
21F
330
1F
100
AcDbEntity
  8
1
100
AcDbCircle
 10
127.4341181812
 20
-41.1184092889
 30
0.0
 40
12.9000109095682
100
AcDbArc
 50
192.4753148371
 51
202.812008309
  0
ARC
  5
220
330
1F
100
AcDbEntity
  8
1
100
AcDbCircle
 10
119.928177817
 20
-44.275467356
 30
0.0
 40
4.757151682635222
100
AcDbArc
 50
202.8120083084
 51
218.681923559
  0
DIMENSION
  5
222
330
1F
100
AcDbEntity
  8
SK2
100
AcDbDimension
280
     0
  2
_D
 10
133.3107552999572
 20
-48.98739925268484
 30
0.0
 11
133.310755545
 21
0.0004476076
 31
0.0
 70
   160
  1
%%c<> - 153
 71
     5
 42
97.9756937206
 73
     0
 74
     0
 75
     0
  3
SLDDIMSTYLE0
100
AcDbAlignedDimension
 13
116.0610819479
 23
48.9882945542
 33
0.0
 14
116.0610814579
 24
-48.9873991664
 34
0.0
 50
89.99999971339999
100
AcDbRotatedDimension
1001
ACAD
1000
DSTYLE
1002
{
1070
   140
1040
3.5
1070
   340
1005
294
1070
   177
1070
   256
1070
   176
1070
   256
1070
   178
1070
   256
1070
   347
1005
14
1070
   346
1005
14
1070
   345
1005
14
1002
}
  0
DIMENSION
  5
22F
330
1F
100
AcDbEntity
  8
2
100
AcDbDimension
280
     0
  2
_D_1
 10
0.0
 20
60.5028137231
 30
0.0
 11
58.5000006135
 21
60.5028137231
 31
0.0
 70
   160
  1
<>
 71
     5
 42
117.000001227
 73
     0
 74
     0
 75
     0
  3
SLDDIMSTYLE1
100
AcDbAlignedDimension
 13
117.000001227
 23
48.2004455133
 33
0.0
 14
0.0
 24
44.500000775
 34
0.0
100
AcDbRotatedDimension
1001
ACAD
1000
DSTYLE
1002
{
1070
   140
1040
3.5
1070
   340
1005
294
1070
   177
1070
   256
1070
   176
1070
   256
1070
   178
1070
   256
1070
   347
1005
14
1070
   346
1005
14
1070
   345
1005
14
1002
}
  0
DIMENSION
  5
23A
330
1F
100
AcDbEntity
  8
2
100
AcDbDimension
280
     0
  2
_D_2
 10
82.999999374
 20
-56.4489677376
 30
0.0
 11
41.499999687
 21
-56.4489677376
 31
0.0
 70
   160
  1
<>
 71
     5
 42
82.999999374
 73
     0
 74
     0
 75
     0
  3
SLDDIMSTYLE1
100
AcDbAlignedDimension
 13
0.0
 23
-44.500000775
 33
0.0
 14
82.999999374
 24
-44.498343828
 34
0.0
100
AcDbRotatedDimension
1001
ACAD
1000
DSTYLE
1002
{
1070
   140
1040
3.5
1070
   340
1005
294
1070
   177
1070
   256
1070
   176
1070
   256
1070
   178
1070
   256
1070
   347
1005
14
1070
   346
1005
14
1070
   345
1005
14
1002
}
  0
DIMENSION
  5
244
330
1F
100
AcDbEntity
  8
SK2
100
AcDbDimension
280
     0
  2
_D_3
 10
-58.7966634156
 20
-22.9999999998
 30
0.0
 11
-58.7966634156
 21
0.0000000002
 31
0.0
 70
   160
  1
%%c<>
 71
     5
 42
46.0
 73
     0
 74
     0
 75
     0
  3
SLDDIMSTYLE1
100
AcDbAlignedDimension
 13
-44.0
 23
23.0000000002
 33
0.0
 14
-44.0
 24
-22.9999999998
 34
0.0
 50
90.0
100
AcDbRotatedDimension
1001
ACAD
1000
DSTYLE
1002
{
1070
   140
1040
3.5
1070
   340
1005
294
1070
   177
1070
   256
1070
   176
1070
   256
1070
   178
1070
   256
1070
   347
1005
14
1070
   346
1005
14
1070
   345
1005
14
1002
}
  0
DIMENSION
  5
24F
330
1F
100
AcDbEntity
  8
SK2
100
AcDbDimension
280
     0
  2
_D_4
 10
-68.034815167
 20
-45.00000178800001
 30
0.0
 11
-68.034815167
 21
0.0
 31
0.0
 70
   160
  1
%%c<>
 71
     5
 42
90.000003576
 73
     0
 74
     0
 75
     0
  3
SLDDIMSTYLE1
100
AcDbAlignedDimension
 13
0.500000024
 23
45.000001788
 33
0.0
 14
0.500000024
 24
-45.000001788
 34
0.0
 50
90.0
100
AcDbRotatedDimension
1001
ACAD
1000
DSTYLE
1002
{
1070
   140
1040
3.5
1070
   340
1005
294
1070
   177
1070
   256
1070
   176
1070
   256
1070
   178
1070
   256
1070
   347
1005
14
1070
   346
1005
14
1070
   345
1005
14
1002
}
  0
LINE
  5
324
330
1F
100
AcDbEntity
  8
1
100
AcDbLine
 10
108.283429146
 20
34.72096473
 30
0.0
 11
116.3389183003129
 21
36.1413651513769
 31
0.0
  0
LINE
  5
325
330
1F
100
AcDbEntity
  8
1
100
AcDbLine
 10
116.3389183003129
 20
36.1413651513769
 30
0.0
 11
116.649999023
 21
36.1413651513769
 31
0.0
  0
LINE
  5
327
330
1F
100
AcDbEntity
  8
1
100
AcDbLine
 10
104.2999985820001
 20
46.24321684200113
 30
0.0
 11
104.2896694987188
 21
46.30179538497723
 31
0.0
  0
LINE
  5
329
330
1F
100
AcDbEntity
  8
1
100
AcDbLine
 10
105.2389205062185
 20
34.18413520879658
 30
0.0
 11
116.3389183003129
 21
36.1413651513769
 31
0.0
  0
LINE
  5
32A
330
1F
100
AcDbEntity
  8
1
100
AcDbLine
 10
104.2999985820495
 20
34.97198224100045
 30
0.0
 11
104.2999985820001
 21
46.24321684200113
 31
0.0
  0
LINE
  5
32D
330
1F
100
AcDbEntity
  8
3
100
AcDbLine
 10
116.649999023
 20
36.265421659
 30
0.0
 11
116.1999999755
 21
36.9292101213
 31
0.0
  0
LINE
  5
32E
330
1F
100
AcDbEntity
  8
3
100
AcDbLine
 10
116.1999999755
 20
36.9292101213
 30
0.0
 11
116.1999999755
 21
48.200448255
 31
0.0
  0
LINE
  5
32F
330
1F
100
AcDbEntity
  8
3
100
AcDbLine
 10
116.1999999755
 20
48.200448255
 30
0.0
 11
105.099999291
 21
46.243217548
 31
0.0
  0
LINE
  5
330
330
1F
100
AcDbEntity
  8
3
100
AcDbLine
 10
105.099999291
 20
46.243217548
 30
0.0
 11
104.3023128768205
 21
46.30402477647002
 31
0.0
  0
LINE
  5
33B
330
1F
100
AcDbEntity
  8
NOCUT
100
AcDbLine
 10
0.0
 20
0.0
 30
0.0
 11
112.2814576846408
 21
0.0
 31
0.0
  0
LINE
  5
33C
330
1F
100
AcDbEntity
  8
NOCUT
100
AcDbLine
 10
112.281194627
 20
0.000447035
 30
0.0
 11
116.649999023
 21
7.567434106
 31
0.0
  0
LINE
  5
33D
330
1F
100
AcDbEntity
  8
NOCUT
100
AcDbLine
 10
116.649999023
 20
7.567434106
 30
0.0
 11
116.649999023
 21
36.265421659
 31
0.0
  0
LINE
  5
349
330
1F
100
AcDbEntity
  8
NOCUT
100
AcDbLine
 10
96.906906664
 20
45.000001788
 30
0.0
 11
0.500000024
 21
45.000001788
 31
0.0
  0
LINE
  5
34A
330
1F
100
AcDbEntity
  8
NOCUT
100
AcDbLine
 10
0.500000024
 20
45.000001788
 30
0.0
 11
0.0
 21
44.500000775
 31
0.0
  0
LWPOLYLINE
  5
34D
330
1F
100
AcDbEntity
  8
INFTOTAL
100
AcDbPolyline
 90
        4
 70
     1
 43
0.0
 10
166.3491278959963
 20
83.52129888236611
 10
166.3491278959963
 20
-73.02748160543867
 10
-100.8703842991255
 20
-73.02748160543867
 10
-100.8703842991255
 20
83.52129888236611
  0
LINE
  5
350
330
1F
100
AcDbEntity
  8
SK4
100
AcDbLine
 10
-52.6673587245
 20
0.0
 30
0.0
 11
113.825320006
 21
0.0
 31
0.0
  0
LINE
  5
356
330
1F
100
AcDbEntity
  8
3
100
AcDbLine
 10
33.000007978
 20
11.0
 30
0.0
 11
0.0
 21
11.0
 31
0.0
  0
LINE
  5
357
330
1F
100
AcDbEntity
  8
3
100
AcDbLine
 10
33.000007978
 20
-11.0
 30
0.0
 11
0.0
 21
-11.0
 31
0.0
  0
LINE
  5
3D7
330
1F
100
AcDbEntity
  8
NOCUT
100
AcDbLine
 10
96.906906664
 20
45.000001788
 30
0.0
 11
104.305988848
 21
46.304672956
 31
0.0
  0
LINE
  5
3D8
330
1F
100
AcDbEntity
  8
NOCUT
100
AcDbLine
 10
104.3023128768205
 20
46.30402477647002
 30
0.0
 11
105.099999291
 21
46.243217548
 31
0.0
  0
LINE
  5
3D9
330
1F
100
AcDbEntity
  8
NOCUT
100
AcDbLine
 10
105.099999291
 20
46.243217548
 30
0.0
 11
116.1999999755
 21
48.200448255
 31
0.0
  0
LINE
  5
3DA
330
1F
100
AcDbEntity
  8
NOCUT
100
AcDbLine
 10
116.1999999755
 20
48.200448255
 30
0.0
 11
116.1999999755
 21
36.9292101213
 31
0.0
  0
LINE
  5
3DB
330
1F
100
AcDbEntity
  8
NOCUT
100
AcDbLine
 10
116.1999999755
 20
36.9292101213
 30
0.0
 11
116.649999023
 21
36.265421659
 31
0.0
  0
LINE
  5
421
330
1F
100
AcDbEntity
  8
SK4
100
AcDbLine
 10
51.78731995599998
 20
-31.667479696
 30
0.0
 11
66.67950421
 21
-38.670946118
 31
0.0
  0
LINE
  5
422
330
1F
100
AcDbEntity
  8
SK4
100
AcDbLine
 10
31.70141662700001
 20
-8.553343574
 30
0.0
 11
54.82176088799997
 21
-32.665794858
 31
0.0
  0
LINE
  5
423
330
1F
100
AcDbEntity
  8
SK4
100
AcDbLine
 10
31.70141662700001
 20
8.553343574
 30
0.0
 11
54.82176088799997
 21
32.665794858
 31
0.0
  0
LINE
  5
424
330
1F
100
AcDbEntity
  8
SK4
100
AcDbLine
 10
51.78731995599998
 20
31.667479696
 30
0.0
 11
66.67950421
 21
38.670946118
 31
0.0
  0
LINE
  5
428
330
1F
100
AcDbEntity
  8
SK1
100
AcDbLine
 10
-0.0000000001909334
 20
-22.89993287163272
 30
0.0
 11
-0.0000000001936002
 21
22.8999328718029
 31
0.0
  0
LINE
  5
42B
330
1F
100
AcDbEntity
  8
NOCUT
100
AcDbLine
 10
0.0
 20
44.500000775
 30
0.0
 11
0.0
 21
0.0
 31
0.0
  0
LINE
  5
430
330
1F
100
AcDbEntity
  8
NOCUT
100
AcDbLine
 10
112.2814576846408
 20
0.0
 30
0.0
 11
112.281194627
 21
0.000447035
 31
0.0
  0
LINE
  5
448
330
1F
100
AcDbEntity
  8
CUT
100
AcDbLine
 10
116.0610819479
 20
48.9882945542
 30
0.0
 11
104.9610806257
 21
47.0310644486
 31
0.0
  0
LINE
  5
449
330
1F
100
AcDbEntity
  8
CUT
100
AcDbLine
 10
116.999998724
 20
36.9292109903
 30
0.0
 11
117.000001227
 21
48.2004455133
 31
0.0
  0
ARC
  5
44A
330
1F
100
AcDbEntity
  8
CUT
100
AcDbCircle
 10
105.099999291
 20
46.243217548
 30
0.0
 40
0.8000007090001734
100
AcDbArc
 50
100.0000000000009
 51
180.0000505633998
  0
ARC
  5
44B
330
1F
100
AcDbEntity
  8
CUT
100
AcDbCircle
 10
116.2000010367
 20
48.200448255
 30
0.0
 40
0.8000001902962111
100
AcDbArc
 50
359.9998036423999
 51
100.0000373540001
  0
ARC
  5
44C
330
1F
100
AcDbEntity
  8
CUT
100
AcDbCircle
 10
116.1999999755
 20
36.9292101213
 30
0.0
 40
0.7999987485002428
100
AcDbArc
 50
280.0
 51
0.0000622376997498
  0
ARC
  5
44D
330
1F
100
AcDbEntity
  8
CUT
100
AcDbCircle
 10
105.0999997074
 20
34.971982156
 30
0.0
 40
0.8000011253505378
100
AcDbArc
 50
179.9999939123002
 51
280.0001499047984
  0
LINE
  5
44E
330
1F
100
AcDbEntity
  8
CUT
100
AcDbLine
 10
105.2389205062185
 20
34.18413520879658
 30
0.0
 11
116.3389183003129
 21
36.1413651513769
 31
0.0
  0
LINE
  5
44F
330
1F
100
AcDbEntity
  8
CUT
100
AcDbLine
 10
104.2999985820495
 20
34.97198224100045
 30
0.0
 11
104.2999985820001
 21
46.24321684200113
 31
0.0
  0
CIRCLE
  5
450
330
1F
100
AcDbEntity
  8
1
100
AcDbCircle
 10
110.457
 20
41.356214595
 30
0.0
 40
3.595641606000001
  0
HATCH
  5
454
330
1F
100
AcDbEntity
  8
7
100
AcDbHatch
 10
0.0
 20
0.0
 30
0.0
210
0.0
220
0.0
230
1.0
  2
ANSI37
 70
     0
 71
     0
 91
        2
 92
        7
 72
     1
 73
     1
 93
        8
 10
116.9999987239998
 20
36.92921029252982
 42
0.0
 10
117.0000012269936
 20
48.20044551332253
 42
0.4663087742564584
 10
116.0610822725764
 20
48.98829461145745
 42
0.0
 10
104.9610806080035
 20
47.0310644454846
 42
0.3639703111961289
 10
104.2999985820001
 20
46.24321731266469
 42
0.0
 10
104.2999985820495
 20
34.97198224100045
 42
0.4663079709243517
 10
105.2389191708475
 20
34.18413497333455
 42
0.0
 10
116.338918339122
 20
36.14136515822
 42
0.3639702809182929
 97
        0
 92
       22
 72
     1
 73
     1
 93
        2
 10
106.861358394
 20
41.356214595
 42
-1.0
 10
114.052641606
 20
41.356214595
 42
-1.0
 97
        0
 75
     0
 76
     1
 52
90.0
 41
0.5
 77
     0
 78
     2
 53
135.0
 43
-88.58334327051398
 44
4.45300828288493
 45
-1.122532015133644
 46
-1.122532015133644
 79
     0
 53
225.0
 43
-88.58334327051398
 44
4.45300828288493
 45
1.122532015133644
 46
-1.122532015133644
 79
     0
 47
0.0
 98
        2
 10
116.0286168632969
 20
43.806607847489
 10
116.0286168632969
 20
43.806607847489
1001
ACAD
1010
0.0
1020
0.0
1030
0.0
1001
PE_URL
1000

  0
ENDSEC
  0
SECTION
  2
OBJECTS
  0
DICTIONARY
  5
C
330
0
100
AcDbDictionary
281
     1
  3
ACAD_COLOR
350
40B
  3
ACAD_DETAILVIEWSTYLE
350
341
  3
ACAD_GROUP
350
D
  3
ACAD_LAYOUT
350
27C
  3
ACAD_MATERIAL
350
290
  3
ACAD_MLEADERSTYLE
350
2AA
  3
ACAD_MLINESTYLE
350
17
  3
ACAD_PLOTSETTINGS
350
2EC
  3
ACAD_PLOTSTYLENAME
350
2ED
  3
ACAD_SCALELIST
350
25A
  3
ACAD_SECTIONVIEWSTYLE
350
342
  3
ACAD_TABLESTYLE
350
2F9
  3
ACAD_VISUALSTYLE
350
27F
  3
ACDB_RECOMPOSE_DATA
350
45C
  3
AcDbVariableDictionary
350
2A8
  3
APPDATA
350
2FC
  0
SUN
  5
34E
330
29
100
AcDbSun
 90
        1
290
     0
 63
     7
421
 16777215
 40
1.0
291
     1
 91
  2455826
 92
 54000000
292
     0
 70
     2
 71
   256
280
     1
  0
DICTIONARY
  5
2FD
330
2
100
AcDbDictionary
280
     1
281
     1
  3
ACAD_LAYERSTATES
360
2FE
  0
DICTIONARY
  5
444
330
1F
100
AcDbDictionary
280
     1
281
     1
  3
ACAD_SORTENTS
360
445
  0
DICTIONARY
  5
40B
102
{ACAD_REACTORS
330
C
102
}
330
C
100
AcDbDictionary
281
     1
  0
DICTIONARY
  5
341
102
{ACAD_REACTORS
330
C
102
}
330
C
100
AcDbDictionary
281
     1
  0
DICTIONARY
  5
D
102
{ACAD_REACTORS
330
C
102
}
330
C
100
AcDbDictionary
281
     1
  0
DICTIONARY
  5
27C
102
{ACAD_REACTORS
330
C
102
}
330
C
100
AcDbDictionary
281
     1
  3
Layout1
350
27E
  3
Model
350
27D
  0
DICTIONARY
  5
290
102
{ACAD_REACTORS
330
C
102
}
330
C
100
AcDbDictionary
281
     1
  3
ByBlock
350
292
  3
ByLayer
350
291
  3
Global
350
293
  0
DICTIONARY
  5
2AA
102
{ACAD_REACTORS
330
C
102
}
330
C
100
AcDbDictionary
281
     1
  3
Standard
350
2FB
  0
DICTIONARY
  5
17
102
{ACAD_REACTORS
330
C
102
}
330
C
100
AcDbDictionary
281
     1
  3
STANDARD
350
18
  0
DICTIONARY
  5
2EC
102
{ACAD_REACTORS
330
C
102
}
330
C
100
AcDbDictionary
281
     1
  0
ACDBDICTIONARYWDFLT
  5
2ED
102
{ACAD_REACTORS
330
C
102
}
330
C
100
AcDbDictionary
281
     1
  3
Normal
350
2EE
100
AcDbDictionaryWithDefault
340
2EE
  0
DICTIONARY
  5
25A
102
{ACAD_REACTORS
330
C
102
}
330
C
100
AcDbDictionary
281
     1
  3
A0
350
25B
  3
A1
350
25C
  3
A2
350
25D
  3
A3
350
25E
  3
A4
350
25F
  3
A5
350
260
  3
A6
350
261
  3
A7
350
262
  3
A8
350
263
  3
A9
350
264
  3
B0
350
265
  3
B1
350
266
  3
B2
350
267
  3
B3
350
268
  3
B4
350
269
  3
B5
350
26A
  3
B6
350
26B
  3
B7
350
26C
  3
B8
350
26D
  3
B9
350
26E
  3
C0
350
26F
  3
C1
350
270
  3
C2
350
271
  3
C3
350
272
  3
C4
350
273
  3
C5
350
274
  3
C6
350
275
  3
C7
350
276
  3
C8
350
277
  3
C9
350
278
  3
D0
350
279
  3
D1
350
27A
  3
D2
350
27B
  0
DICTIONARY
  5
342
102
{ACAD_REACTORS
330
C
102
}
330
C
100
AcDbDictionary
281
     1
  0
DICTIONARY
  5
2F9
102
{ACAD_REACTORS
330
C
102
}
330
C
100
AcDbDictionary
281
     1
  3
Standard
350
2FA
  0
DICTIONARY
  5
27F
102
{ACAD_REACTORS
330
C
102
}
330
C
100
AcDbDictionary
281
     1
  3
2dWireframe
350
284
  3
3D Hidden
350
286
  3
3dWireframe
350
285
  3
Basic
350
287
  3
Brighten
350
28B
  3
ColorChange
350
28F
  3
Conceptual
350
289
  3
Dim
350
28A
  3
EdgeColorOff
350
2F3
  3
Facepattern
350
28E
  3
Flat
350
280
  3
FlatWithEdges
350
281
  3
Gouraud
350
282
  3
GouraudWithEdges
350
283
  3
Hidden
350
2F0
  3
JitterOff
350
2F1
  3
Linepattern
350
28D
  3
OverhangOff
350
2F2
  3
Realistic
350
288
  3
Shaded
350
2F8
  3
Shaded with edges
350
2F7
  3
Shades of Gray
350
2F4
  3
Sketchy
350
2F5
  3
Thicken
350
28C
  3
Wireframe
350
2EF
  3
X-Ray
350
2F6
  0
XRECORD
  5
45C
102
{ACAD_REACTORS
330
C
102
}
330
C
100
AcDbXrecord
280
     1
 90
        1
330
2FA
  0
DICTIONARY
  5
2A8
102
{ACAD_REACTORS
330
C
102
}
330
C
100
AcDbDictionary
281
     1
  3
CANNOSCALE
350
33E
  3
CMLEADERSTYLE
350
340
  3
CTABLESTYLE
350
33F
  3
DIMASSOC
350
2AC
  3
HIDETEXT
350
2AD
  3
MSLTSCALE
350
2AB
  0
DICTIONARY
  5
2FC
102
{ACAD_REACTORS
330
C
102
}
330
C
100
AcDbDictionary
281
     1
  0
DICTIONARY
  5
2FE
102
{ACAD_REACTORS
330
2FD
102
}
330
2FD
100
AcDbDictionary
281
     1
  0
SORTENTSTABLE
  5
445
102
{ACAD_REACTORS
330
444
102
}
330
444
100
AcDbSortentsTable
330
1F
331
76
  5
77
331
77
  5
78
331
78
  5
79
331
79
  5
7A
331
7A
  5
7B
331
7B
  5
7C
331
7C
  5
7D
331
7D
  5
7E
331
7E
  5
7F
331
7F
  5
80
331
80
  5
81
331
81
  5
82
331
82
  5
83
331
83
  5
84
331
84
  5
85
331
85
  5
86
331
0
  5
87
331
87
  5
88
331
88
  5
89
331
89
  5
8A
331
8A
  5
8B
331
8B
  5
8C
331
8C
  5
8D
331
8D
  5
8E
331
8E
  5
8F
331
8F
  5
90
331
90
  5
91
331
91
  5
92
331
92
  5
93
331
93
  5
94
331
94
  5
95
331
0
  5
96
331
0
  5
97
331
97
  5
98
331
0
  5
99
331
99
  5
9A
331
9A
  5
9B
331
9B
  5
9C
331
9C
  5
9D
331
9D
  5
9E
331
9E
  5
9F
331
9F
  5
A0
331
A0
  5
A1
331
A1
  5
A2
331
A2
  5
A3
331
A3
  5
A4
331
A4
  5
A5
331
A5
  5
A6
331
A6
  5
A7
331
A7
  5
A8
331
A8
  5
A9
331
A9
  5
AA
331
AA
  5
AB
331
AB
  5
AC
331
AC
  5
AD
331
AD
  5
AE
331
AE
  5
AF
331
AF
  5
B0
331
B0
  5
B1
331
B1
  5
B2
331
B2
  5
B3
331
B3
  5
B4
331
B4
  5
B5
331
B5
  5
B6
331
0
  5
B7
331
B7
  5
B8
331
B8
  5
B9
331
0
  5
BA
331
BA
  5
BB
331
BB
  5
BC
331
BC
  5
BD
331
0
  5
BE
331
0
  5
BF
331
BF
  5
C0
331
C0
  5
C1
331
0
  5
C2
331
C2
  5
C3
331
C3
  5
C4
331
C4
  5
C5
331
C5
  5
C6
331
C6
  5
C7
331
C7
  5
C8
331
C8
  5
C9
331
C9
  5
CA
331
CA
  5
CB
331
CB
  5
CC
331
CC
  5
CD
331
CD
  5
CE
331
CE
  5
CF
331
CF
  5
D0
331
D0
  5
D1
331
D1
  5
D2
331
D2
  5
D3
331
D3
  5
D4
331
D4
  5
D5
331
D5
  5
D6
331
D6
  5
D7
331
D7
  5
D8
331
D8
  5
D9
331
D9
  5
DA
331
DA
  5
DB
331
0
  5
DC
331
DC
  5
DD
331
DD
  5
DE
331
DE
  5
E0
331
E0
  5
E1
331
E1
  5
E2
331
E2
  5
E3
331
E3
  5
E4
331
0
  5
E5
331
E5
  5
E6
331
E6
  5
E7
331
E7
  5
E8
331
0
  5
E9
331
E9
  5
EA
331
EA
  5
EB
331
EB
  5
EC
331
EC
  5
ED
331
ED
  5
EE
331
EE
  5
EF
331
EF
  5
F0
331
F0
  5
F1
331
F1
  5
F2
331
F2
  5
F3
331
F3
  5
F4
331
F4
  5
F5
331
F5
  5
F6
331
F6
  5
F7
331
F7
  5
F8
331
0
  5
F9
331
F9
  5
FA
331
FA
  5
FB
331
FB
  5
FC
331
FC
  5
FD
331
FD
  5
FE
331
FE
  5
FF
331
FF
  5
100
331
100
  5
101
331
101
  5
102
331
102
  5
103
331
103
  5
104
331
104
  5
105
331
105
  5
106
331
106
  5
107
331
107
  5
108
331
108
  5
109
331
109
  5
10A
331
10A
  5
10B
331
10B
  5
10C
331
10C
  5
10D
331
10D
  5
10E
331
10E
  5
10F
331
10F
  5
110
331
110
  5
111
331
111
  5
112
331
112
  5
113
331
113
  5
114
331
114
  5
115
331
115
  5
116
331
116
  5
117
331
117
  5
118
331
118
  5
119
331
119
  5
11A
331
11A
  5
11B
331
11B
  5
11C
331
11C
  5
11D
331
11D
  5
11E
331
11E
  5
11F
331
11F
  5
120
331
120
  5
121
331
121
  5
122
331
122
  5
123
331
123
  5
124
331
124
  5
125
331
125
  5
126
331
126
  5
127
331
127
  5
128
331
128
  5
129
331
129
  5
12A
331
12A
  5
12B
331
12B
  5
12C
331
12C
  5
12D
331
12D
  5
12E
331
12E
  5
12F
331
12F
  5
130
331
130
  5
131
331
131
  5
132
331
132
  5
133
331
133
  5
134
331
134
  5
135
331
135
  5
136
331
136
  5
137
331
137
  5
138
331
138
  5
139
331
139
  5
13A
331
13A
  5
13B
331
13B
  5
13C
331
13C
  5
13D
331
13D
  5
13E
331
13E
  5
13F
331
13F
  5
140
331
140
  5
141
331
141
  5
142
331
142
  5
143
331
143
  5
144
331
144
  5
145
331
145
  5
146
331
146
  5
147
331
147
  5
148
331
148
  5
149
331
149
  5
14A
331
14A
  5
14B
331
14B
  5
14C
331
14C
  5
14D
331
14D
  5
14E
331
14E
  5
14F
331
14F
  5
150
331
150
  5
151
331
151
  5
152
331
152
  5
153
331
153
  5
154
331
154
  5
155
331
155
  5
156
331
156
  5
157
331
157
  5
158
331
158
  5
159
331
159
  5
15A
331
15A
  5
15B
331
15B
  5
15C
331
15C
  5
15D
331
15D
  5
15E
331
15E
  5
15F
331
15F
  5
160
331
160
  5
161
331
161
  5
162
331
162
  5
163
331
163
  5
164
331
164
  5
165
331
165
  5
166
331
166
  5
167
331
167
  5
168
331
168
  5
169
331
169
  5
16A
331
16A
  5
16B
331
16B
  5
16C
331
16C
  5
16D
331
16D
  5
16E
331
16E
  5
16F
331
16F
  5
170
331
170
  5
171
331
171
  5
172
331
172
  5
173
331
173
  5
174
331
174
  5
175
331
175
  5
176
331
176
  5
177
331
177
  5
178
331
178
  5
179
331
179
  5
17B
331
17B
  5
17C
331
17C
  5
17E
331
17E
  5
17F
331
17F
  5
181
331
181
  5
184
331
182
  5
185
331
184
  5
186
331
185
  5
187
331
186
  5
188
331
187
  5
189
331
188
  5
18A
331
189
  5
18B
331
18A
  5
18C
331
18B
  5
18D
331
18C
  5
18E
331
18D
  5
18F
331
18E
  5
190
331
18F
  5
191
331
190
  5
192
331
191
  5
193
331
192
  5
194
331
193
  5
195
331
194
  5
196
331
195
  5
197
331
196
  5
198
331
197
  5
199
331
198
  5
19A
331
199
  5
19B
331
19A
  5
19C
331
19B
  5
19D
331
19C
  5
19E
331
0
  5
19F
331
19E
  5
1A0
331
19F
  5
1A1
331
1A0
  5
1A2
331
0
  5
1A3
331
1A2
  5
1A4
331
1A3
  5
1A5
331
1A4
  5
1A6
331
1A5
  5
1A7
331
1A6
  5
1A8
331
1A7
  5
1A9
331
1A8
  5
1AA
331
1A9
  5
1AB
331
1AA
  5
1AC
331
1AB
  5
1AD
331
1AC
  5
1AE
331
1AD
  5
1AF
331
0
  5
1B0
331
1AF
  5
1B1
331
1B0
  5
1B2
331
1B1
  5
1B3
331
1B2
  5
1B4
331
1B3
  5
1B5
331
1B4
  5
1B6
331
1B5
  5
1B7
331
1B6
  5
1B8
331
1B7
  5
1B9
331
1B8
  5
1BA
331
1B9
  5
1BB
331
1BA
  5
1BC
331
1BB
  5
1BD
331
1BC
  5
1BE
331
1BD
  5
1BF
331
1BE
  5
1C0
331
1BF
  5
1C1
331
1C0
  5
1C2
331
1C1
  5
1C3
331
1C2
  5
1C4
331
0
  5
1C5
331
0
  5
1C6
331
1C5
  5
1C7
331
1C6
  5
1C8
331
1C7
  5
1C9
331
1C8
  5
1CA
331
1C9
  5
1CB
331
0
  5
1CC
331
1CB
  5
1CD
331
1CC
  5
1CE
331
1CD
  5
1CF
331
1CE
  5
1D0
331
1CF
  5
1D1
331
1D0
  5
1D2
331
1D1
  5
1D3
331
1D2
  5
1D4
331
1D3
  5
1D5
331
1D4
  5
1D6
331
1D5
  5
1D7
331
1D6
  5
1D8
331
1D7
  5
1D9
331
1D8
  5
1DA
331
1D9
  5
1DB
331
1DA
  5
1DC
331
1DB
  5
1DD
331
1DC
  5
1DE
331
1DD
  5
1DF
331
1DE
  5
1E0
331
1DF
  5
1E1
331
1E0
  5
1E2
331
1E1
  5
1E3
331
1E2
  5
1E4
331
1E3
  5
1E5
331
1E4
  5
1E6
331
1E5
  5
1E7
331
1E6
  5
1E8
331
1E7
  5
1E9
331
1E8
  5
1EA
331
1E9
  5
1EB
331
1EA
  5
1EC
331
1EB
  5
1ED
331
1EC
  5
1EE
331
1ED
  5
1EF
331
1EE
  5
1F0
331
1EF
  5
1F1
331
0
  5
1F2
331
1F1
  5
1F3
331
1F2
  5
1F4
331
1F3
  5
1F5
331
1F4
  5
1F6
331
1F5
  5
1F7
331
1F6
  5
1F8
331
1F7
  5
1F9
331
1F8
  5
1FA
331
1F9
  5
1FB
331
1FA
  5
1FC
331
1FB
  5
1FD
331
1FC
  5
1FE
331
1FD
  5
1FF
331
1FE
  5
200
331
1FF
  5
201
331
200
  5
202
331
201
  5
203
331
202
  5
204
331
203
  5
205
331
204
  5
206
331
205
  5
207
331
206
  5
208
331
207
  5
209
331
208
  5
20A
331
209
  5
20B
331
20A
  5
20C
331
0
  5
20E
331
20C
  5
20F
331
20D
  5
210
331
0
  5
211
331
20F
  5
212
331
210
  5
213
331
0
  5
214
331
212
  5
215
331
213
  5
216
331
214
  5
217
331
215
  5
218
331
0
  5
219
331
217
  5
21A
331
218
  5
21B
331
0
  5
21C
331
0
  5
21D
331
21B
  5
21E
331
21C
  5
21F
331
21D
  5
220
331
21E
  5
221
331
21F
  5
222
331
220
  5
22F
331
0
  5
23A
331
222
  5
244
331
22F
  5
24F
331
23A
  5
324
331
244
  5
325
331
24F
  5
326
331
324
  5
327
331
325
  5
329
331
0
  5
32A
331
327
  5
32B
331
329
  5
32D
331
32A
  5
32E
331
0
  5
32F
331
32D
  5
330
331
32E
  5
33B
331
32F
  5
33C
331
330
  5
33D
331
33B
  5
349
331
33C
  5
34A
331
33D
  5
34B
331
349
  5
34D
331
34A
  5
350
331
0
  5
356
331
34D
  5
357
331
350
  5
3D7
331
356
  5
3D8
331
357
  5
3D9
331
3D7
  5
3DA
331
3D8
  5
3DB
331
3D9
  5
417
331
3DA
  5
418
331
3DB
  5
419
331
0
  5
421
331
0
  5
422
331
0
  5
423
331
421
  5
424
331
422
  5
428
331
423
  5
42B
331
424
  5
430
331
428
  5
443
331
42B
  5
446
331
430
  5
447
331
0
  5
182
331
0
  5
76
331
0
  5
20D
331
448
  5
44A
331
449
  5
44B
331
44A
  5
44C
331
44B
  5
44D
331
44C
  5
44E
331
44D
  5
44F
331
44E
  5
450
331
44F
  5
453
331
450
  5
454
331
0
  5
448
331
454
  5
449
  0
LAYOUT
  5
27E
102
{ACAD_REACTORS
330
27C
102
}
330
27C
100
AcDbPlotSettings
  1

  2
none_device
  4

  6

 40
0.0
 41
0.0
 42
0.0
 43
0.0
 44
0.0
 45
0.0
 46
0.0
 47
0.0
 48
0.0
 49
0.0
140
0.0
141
0.0
142
1.0
143
1.0
 70
   688
 72
     0
 73
     0
 74
     5
  7

 75
    16
 76
     0
 77
     2
 78
   300
147
1.0
148
0.0
149
0.0
100
AcDbLayout
  1
Layout1
 70
     1
 71
     1
 10
0.0
 20
0.0
 11
420.0
 21
297.0
 12
0.0
 22
0.0
 32
0.0
 14
1.000000000000000E+20
 24
1.000000000000000E+20
 34
1.000000000000000E+20
 15
-1.000000000000000E+20
 25
-1.000000000000000E+20
 35
-1.000000000000000E+20
146
0.0
 13
0.0
 23
0.0
 33
0.0
 16
1.0
 26
0.0
 36
0.0
 17
0.0
 27
1.0
 37
0.0
 76
     0
330
1B
  0
LAYOUT
  5
27D
102
{ACAD_REACTORS
330
27C
102
}
330
27C
100
AcDbPlotSettings
  1

  2
none_device
  4

  6

 40
0.0
 41
0.0
 42
0.0
 43
0.0
 44
0.0
 45
0.0
 46
0.0
 47
0.0
 48
0.0
 49
0.0
140
0.0
141
0.0
142
1.0
143
1.0
 70
  1712
 72
     0
 73
     0
 74
     0
  7

 75
     0
 76
     0
 77
     2
 78
   300
147
1.0
148
-0.0000001562100806
149
0.0
100
AcDbLayout
  1
Model
 70
     1
 71
     0
 10
0.0
 20
0.0
 11
420.0
 21
297.0
 12
0.0
 22
0.0
 32
0.0
 14
-100.8703842991255
 24
-73.02748160543865
 34
0.0
 15
166.3491278959963
 25
83.52129888236612
 35
0.0
146
0.0
 13
0.0
 23
0.0
 33
0.0
 16
1.0
 26
0.0
 36
0.0
 17
0.0
 27
1.0
 37
0.0
 76
     0
330
1F
331
29
  0
MATERIAL
  5
292
102
{ACAD_REACTORS
330
290
102
}
330
290
100
AcDbMaterial
  1
ByBlock
 72
     1
 94
      127
  0
MATERIAL
  5
291
102
{ACAD_REACTORS
330
290
102
}
330
290
100
AcDbMaterial
  1
ByLayer
 72
     1
 94
      127
  0
MATERIAL
  5
293
102
{ACAD_REACTORS
330
290
102
}
330
290
100
AcDbMaterial
  1
Global
 72
     1
 94
      127
  0
MLEADERSTYLE
  5
2FB
102
{ACAD_REACTORS
330
2AA
102
}
330
2AA
100
AcDbMLeaderStyle
179
     2
170
     2
171
     1
172
     0
 90
        2
 40
0.0
 41
0.0
173
     1
 91
-1056964608
340
14
 92
       -2
290
     1
 42
2.0
291
     1
 43
8.0
  3
Standard
341
0
 44
4.0
300

342
11
174
     1
178
     1
175
     1
176
     0
 93
-1056964608
 45
4.0
292
     0
297
     0
 46
4.0
343
0
 94
-1056964608
 47
1.0
 49
1.0
140
1.0
293
     1
141
0.0
294
     1
177
     0
142
1.0
295
     0
296
     0
143
3.75
271
     0
272
     9
273
     9
298
     0
  0
MLINESTYLE
  5
18
102
{ACAD_REACTORS
330
17
102
}
330
17
100
AcDbMlineStyle
  2
Standard
 70
     0
  3

 62
   256
 51
90.0
 52
90.0
 71
     2
 49
0.5
 62
   256
  6
BYLAYER
 49
-0.5
 62
   256
  6
BYLAYER
  0
ACDBPLACEHOLDER
  5
2EE
102
{ACAD_REACTORS
330
2ED
102
}
330
2ED
  0
SCALE
  5
25B
102
{ACAD_REACTORS
330
25A
102
}
330
25A
100
AcDbScale
 70
     0
300
1:1
140
1.0
141
1.0
290
     1
  0
SCALE
  5
25C
102
{ACAD_REACTORS
330
25A
102
}
330
25A
100
AcDbScale
 70
     0
300
1:2
140
1.0
141
2.0
290
     0
  0
SCALE
  5
25D
102
{ACAD_REACTORS
330
25A
102
}
330
25A
100
AcDbScale
 70
     0
300
1:4
140
1.0
141
4.0
290
     0
  0
SCALE
  5
25E
102
{ACAD_REACTORS
330
25A
102
}
330
25A
100
AcDbScale
 70
     0
300
1:5
140
1.0
141
5.0
290
     0
  0
SCALE
  5
25F
102
{ACAD_REACTORS
330
25A
102
}
330
25A
100
AcDbScale
 70
     0
300
1:8
140
1.0
141
8.0
290
     0
  0
SCALE
  5
260
102
{ACAD_REACTORS
330
25A
102
}
330
25A
100
AcDbScale
 70
     0
300
1:10
140
1.0
141
10.0
290
     0
  0
SCALE
  5
261
102
{ACAD_REACTORS
330
25A
102
}
330
25A
100
AcDbScale
 70
     0
300
1:16
140
1.0
141
16.0
290
     0
  0
SCALE
  5
262
102
{ACAD_REACTORS
330
25A
102
}
330
25A
100
AcDbScale
 70
     0
300
1:20
140
1.0
141
20.0
290
     0
  0
SCALE
  5
263
102
{ACAD_REACTORS
330
25A
102
}
330
25A
100
AcDbScale
 70
     0
300
1:30
140
1.0
141
30.0
290
     0
  0
SCALE
  5
264
102
{ACAD_REACTORS
330
25A
102
}
330
25A
100
AcDbScale
 70
     0
300
1:40
140
1.0
141
40.0
290
     0
  0
SCALE
  5
265
102
{ACAD_REACTORS
330
25A
102
}
330
25A
100
AcDbScale
 70
     0
300
1:50
140
1.0
141
50.0
290
     0
  0
SCALE
  5
266
102
{ACAD_REACTORS
330
25A
102
}
330
25A
100
AcDbScale
 70
     0
300
1:100
140
1.0
141
100.0
290
     0
  0
SCALE
  5
267
102
{ACAD_REACTORS
330
25A
102
}
330
25A
100
AcDbScale
 70
     0
300
2:1
140
2.0
141
1.0
290
     0
  0
SCALE
  5
268
102
{ACAD_REACTORS
330
25A
102
}
330
25A
100
AcDbScale
 70
     0
300
4:1
140
4.0
141
1.0
290
     0
  0
SCALE
  5
269
102
{ACAD_REACTORS
330
25A
102
}
330
25A
100
AcDbScale
 70
     0
300
8:1
140
8.0
141
1.0
290
     0
  0
SCALE
  5
26A
102
{ACAD_REACTORS
330
25A
102
}
330
25A
100
AcDbScale
 70
     0
300
10:1
140
10.0
141
1.0
290
     0
  0
SCALE
  5
26B
102
{ACAD_REACTORS
330
25A
102
}
330
25A
100
AcDbScale
 70
     0
300
100:1
140
100.0
141
1.0
290
     0
  0
SCALE
  5
26C
102
{ACAD_REACTORS
330
25A
102
}
330
25A
100
AcDbScale
 70
     0
300
1/128" = 1'-0"
140
0.0078125
141
12.0
290
     0
  0
SCALE
  5
26D
102
{ACAD_REACTORS
330
25A
102
}
330
25A
100
AcDbScale
 70
     0
300
1/64" = 1'-0"
140
0.015625
141
12.0
290
     0
  0
SCALE
  5
26E
102
{ACAD_REACTORS
330
25A
102
}
330
25A
100
AcDbScale
 70
     0
300
1/32" = 1'-0"
140
0.03125
141
12.0
290
     0
  0
SCALE
  5
26F
102
{ACAD_REACTORS
330
25A
102
}
330
25A
100
AcDbScale
 70
     0
300
1/16" = 1'-0"
140
0.0625
141
12.0
290
     0
  0
SCALE
  5
270
102
{ACAD_REACTORS
330
25A
102
}
330
25A
100
AcDbScale
 70
     0
300
3/32" = 1'-0"
140
0.09375
141
12.0
290
     0
  0
SCALE
  5
271
102
{ACAD_REACTORS
330
25A
102
}
330
25A
100
AcDbScale
 70
     0
300
1/8" = 1'-0"
140
0.125
141
12.0
290
     0
  0
SCALE
  5
272
102
{ACAD_REACTORS
330
25A
102
}
330
25A
100
AcDbScale
 70
     0
300
3/16" = 1'-0"
140
0.1875
141
12.0
290
     0
  0
SCALE
  5
273
102
{ACAD_REACTORS
330
25A
102
}
330
25A
100
AcDbScale
 70
     0
300
1/4" = 1'-0"
140
0.25
141
12.0
290
     0
  0
SCALE
  5
274
102
{ACAD_REACTORS
330
25A
102
}
330
25A
100
AcDbScale
 70
     0
300
3/8" = 1'-0"
140
0.375
141
12.0
290
     0
  0
SCALE
  5
275
102
{ACAD_REACTORS
330
25A
102
}
330
25A
100
AcDbScale
 70
     0
300
1/2" = 1'-0"
140
0.5
141
12.0
290
     0
  0
SCALE
  5
276
102
{ACAD_REACTORS
330
25A
102
}
330
25A
100
AcDbScale
 70
     0
300
3/4" = 1'-0"
140
0.75
141
12.0
290
     0
  0
SCALE
  5
277
102
{ACAD_REACTORS
330
25A
102
}
330
25A
100
AcDbScale
 70
     0
300
1" = 1'-0"
140
1.0
141
12.0
290
     0
  0
SCALE
  5
278
102
{ACAD_REACTORS
330
25A
102
}
330
25A
100
AcDbScale
 70
     0
300
1-1/2" = 1'-0"
140
1.5
141
12.0
290
     0
  0
SCALE
  5
279
102
{ACAD_REACTORS
330
25A
102
}
330
25A
100
AcDbScale
 70
     0
300
3" = 1'-0"
140
3.0
141
12.0
290
     0
  0
SCALE
  5
27A
102
{ACAD_REACTORS
330
25A
102
}
330
25A
100
AcDbScale
 70
     0
300
6" = 1'-0"
140
6.0
141
12.0
290
     0
  0
SCALE
  5
27B
102
{ACAD_REACTORS
330
25A
102
}
330
25A
100
AcDbScale
 70
     0
300
1'-0" = 1'-0"
140
12.0
141
12.0
290
     0
  0
TABLESTYLE
  5
2FA
102
{ACAD_REACTORS
330
2F9
102
}
102
{ACAD_XDICTIONARY
360
45A
102
}
330
2F9
100
AcDbTableStyle
  3
Standard
 70
     0
 71
     0
 40
1.5
 41
1.5
280
     0
281
     0
  7
STANDARD
140
4.5
170
     2
 62
     0
 63
   257
283
     0
 90
        4
 91
        0
  1

274
    -2
284
     1
 64
     0
275
    -2
285
     1
 65
     0
276
    -2
286
     1
 66
     0
277
    -2
287
     1
 67
     0
278
    -2
288
     1
 68
     0
279
    -2
289
     1
 69
     0
  7
STANDARD
140
6.0
170
     5
 62
     0
 63
   257
283
     0
 90
        4
 91
        0
  1

274
    -2
284
     1
 64
     0
275
    -2
285
     1
 65
     0
276
    -2
286
     1
 66
     0
277
    -2
287
     1
 67
     0
278
    -2
288
     1
 68
     0
279
    -2
289
     1
 69
     0
  7
STANDARD
140
4.5
170
     5
 62
     0
 63
   257
283
     0
 90
        4
 91
        0
  1

274
    -2
284
     1
 64
     0
275
    -2
285
     1
 65
     0
276
    -2
286
     1
 66
     0
277
    -2
287
     1
 67
     0
278
    -2
288
     1
 68
     0
279
    -2
289
     1
 69
     0
  0
VISUALSTYLE
  5
284
102
{ACAD_REACTORS
330
27F
102
}
330
27F
100
AcDbVisualStyle
  2
2dWireframe
 70
     4
177
     3
291
     0
 70
    58
 90
        0
176
     1
 90
        2
176
     1
 90
        0
176
     1
 90
        0
176
     1
 40
-0.6
176
     1
 40
-30.0
176
     1
 62
     7
176
     1
 90
        1
176
     1
 90
        4
176
     1
 62
     7
176
     1
 62
   257
176
     1
 90
        1
176
     1
 90
        1
176
     1
 40
1.0
176
     1
 90
        0
176
     1
 62
   257
176
     1
 40
1.0
176
     1
 90
        1
176
     1
 90
        6
176
     1
 90
        2
176
     1
 62
     7
176
     1
 90
        5
176
     1
 90
        0
176
     1
 90
        0
176
     1
290
     0
176
     1
 90
        1
176
     1
 40
0.0
176
     1
 90
        0
176
     1
290
     1
176
     1
290
     1
176
     1
290
     0
176
     1
290
     0
176
     1
290
     0
176
     1
290
     0
176
     1
290
     0
176
     1
290
     0
176
     1
290
     0
176
     1
 90
       50
176
     1
 40
0.0
176
     1
 40
1.0
176
     1
 90
        0
176
     1
 62
    18
420
        0
176
     1
 90
       50
176
     1
 90
        3
176
     1
 62
     5
420
      255
176
     1
290
     0
176
     1
 90
       50
176
     1
 90
       50
176
     1
 90
       50
176
     1
290
     0
176
     1
 90
       50
176
     1
 62
   256
176
     0
 40
1.0
176
     0
 90
        2
176
     1
  1
strokes_ogs.tif
176
     1
290
     0
176
     1
 40
1.0
176
     1
 40
1.0
176
     1
  0
VISUALSTYLE
  5
286
102
{ACAD_REACTORS
330
27F
102
}
330
27F
100
AcDbVisualStyle
  2
3D Hidden
 70
     6
177
     3
291
     0
 70
    58
 90
        1
176
     1
 90
        2
176
     1
 90
        2
176
     1
 90
        0
176
     1
 40
-0.6
176
     1
 40
-30.0
176
     1
 62
     7
176
     1
 90
        2
176
     1
 90
        2
176
     1
 62
     7
176
     1
 62
   257
176
     1
 90
        2
176
     1
 90
        1
176
     1
 40
40.0
176
     1
 90
        0
176
     1
 62
   257
176
     1
 40
1.0
176
     1
 90
        1
176
     1
 90
        6
176
     1
 90
        2
176
     1
 62
     7
176
     1
 90
        3
176
     1
 90
        0
176
     1
 90
        0
176
     1
290
     0
176
     1
 90
        1
176
     1
 40
0.0
176
     1
 90
        0
176
     1
290
     0
176
     1
290
     1
176
     1
290
     1
176
     1
290
     0
176
     1
290
     0
176
     1
290
     0
176
     1
290
     0
176
     1
290
     0
176
     1
290
     0
176
     1
 90
       50
176
     1
 40
0.0
176
     1
 40
1.0
176
     1
 90
        0
176
     1
 62
    18
420
        0
176
     1
 90
       50
176
     1
 90
        3
176
     1
 62
     5
420
      255
176
     1
290
     0
176
     1
 90
       50
176
     1
 90
       50
176
     1
 90
       50
176
     1
290
     0
176
     1
 90
       50
176
     1
 62
   256
176
     0
 40
1.0
176
     0
 90
        2
176
     1
  1
strokes_ogs.tif
176
     1
290
     0
176
     1
 40
1.0
176
     1
 40
1.0
176
     1
  0
VISUALSTYLE
  5
285
102
{ACAD_REACTORS
330
27F
102
}
330
27F
100
AcDbVisualStyle
  2
3dWireframe
 70
     5
177
     3
291
     0
 70
    58
 90
        0
176
     1
 90
        2
176
     1
 90
        0
176
     1
 90
        0
176
     1
 40
-0.6
176
     1
 40
-30.0
176
     1
 62
     7
176
     1
 90
        1
176
     1
 90
        4
176
     1
 62
     7
176
     1
 62
   257
176
     1
 90
        1
176
     1
 90
        1
176
     1
 40
1.0
176
     1
 90
        0
176
     1
 62
   257
176
     1
 40
1.0
176
     1
 90
        1
176
     1
 90
        6
176
     1
 90
        2
176
     1
 62
     7
176
     1
 90
        5
176
     1
 90
        0
176
     1
 90
        0
176
     1
290
     0
176
     1
 90
        1
176
     1
 40
0.0
176
     1
 90
        0
176
     1
290
     0
176
     1
290
     1
176
     1
290
     1
176
     1
290
     0
176
     1
290
     0
176
     1
290
     0
176
     1
290
     0
176
     1
290
     0
176
     1
290
     0
176
     1
 90
       50
176
     1
 40
0.0
176
     1
 40
1.0
176
     1
 90
        0
176
     1
 62
    18
420
        0
176
     1
 90
       50
176
     1
 90
        3
176
     1
 62
     5
420
      255
176
     1
290
     0
176
     1
 90
       50
176
     1
 90
       50
176
     1
 90
       50
176
     1
290
     0
176
     1
 90
       50
176
     1
 62
   256
176
     0
 40
1.0
176
     0
 90
        2
176
     1
  1
strokes_ogs.tif
176
     1
290
     0
176
     1
 40
1.0
176
     1
 40
1.0
176
     1
  0
VISUALSTYLE
  5
287
102
{ACAD_REACTORS
330
27F
102
}
330
27F
100
AcDbVisualStyle
  2
Basic
 70
     7
177
     3
291
     1
 70
    58
 90
        1
176
     1
 90
        0
176
     1
 90
        1
176
     1
 90
        0
176
     1
 40
-0.6
176
     1
 40
-30.0
176
     1
 62
     7
176
     1
 90
        0
176
     1
 90
        4
176
     1
 62
     7
176
     1
 62
   257
176
     1
 90
        1
176
     1
 90
        1
176
     1
 40
1.0
176
     1
 90
        8
176
     1
 62
     7
176
     1
 40
1.0
176
     1
 90
        1
176
     1
 90
        6
176
     1
 90
        2
176
     1
 62
     7
176
     1
 90
        5
176
     1
 90
        0
176
     1
 90
        0
176
     1
290
     0
176
     1
 90
        1
176
     1
 40
0.0
176
     1
 90
        0
176
     1
290
     0
176
     1
290
     1
176
     1
290
     1
176
     1
290
     0
176
     1
290
     0
176
     1
290
     0
176
     1
290
     0
176
     1
290
     0
176
     1
290
     0
176
     1
 90
       50
176
     1
 40
0.0
176
     1
 40
1.0
176
     1
 90
        0
176
     1
 62
    18
420
        0
176
     1
 90
       50
176
     1
 90
        3
176
     1
 62
     5
420
      255
176
     1
290
     0
176
     1
 90
       50
176
     1
 90
       50
176
     1
 90
       50
176
     1
290
     0
176
     1
 90
       50
176
     1
 62
   256
176
     0
 40
1.0
176
     0
 90
        2
176
     1
  1
strokes_ogs.tif
176
     1
290
     0
176
     1
 40
1.0
176
     1
 40
1.0
176
     1
  0
VISUALSTYLE
  5
28B
102
{ACAD_REACTORS
330
27F
102
}
330
27F
100
AcDbVisualStyle
  2
Brighten
 70
    12
177
     3
291
     1
 70
    58
 90
        2
176
     1
 90
        2
176
     1
 90
        0
176
     1
 90
        0
176
     1
 40
-0.6
176
     1
 40
-30.0
176
     1
 62
     7
176
     1
 90
        1
176
     1
 90
        4
176
     1
 62
     7
176
     1
 62
   257
176
     1
 90
        1
176
     1
 90
        1
176
     1
 40
1.0
176
     1
 90
        8
176
     1
 62
     7
176
     1
 40
1.0
176
     1
 90
        1
176
     1
 90
        6
176
     1
 90
        2
176
     1
 62
     7
176
     1
 90
        5
176
     1
 90
        0
176
     1
 90
        0
176
     1
290
     0
176
     1
 90
        1
176
     1
 40
50.0
176
     1
 90
        0
176
     1
290
     0
176
     1
290
     1
176
     1
290
     1
176
     1
290
     0
176
     1
290
     0
176
     1
290
     0
176
     1
290
     0
176
     1
290
     0
176
     1
290
     0
176
     1
 90
       50
176
     1
 40
0.0
176
     1
 40
1.0
176
     1
 90
        0
176
     1
 62
    18
420
        0
176
     1
 90
       50
176
     1
 90
        3
176
     1
 62
     5
420
      255
176
     1
290
     0
176
     1
 90
       50
176
     1
 90
       50
176
     1
 90
       50
176
     1
290
     0
176
     1
 90
       50
176
     1
 62
   256
176
     0
 40
1.0
176
     0
 90
        2
176
     1
  1
strokes_ogs.tif
176
     1
290
     0
176
     1
 40
1.0
176
     1
 40
1.0
176
     1
  0
VISUALSTYLE
  5
28F
102
{ACAD_REACTORS
330
27F
102
}
330
27F
100
AcDbVisualStyle
  2
ColorChange
 70
    16
177
     3
291
     1
 70
    58
 90
        2
176
     1
 90
        2
176
     1
 90
        3
176
     1
 90
        0
176
     1
 40
-0.6
176
     1
 40
-30.0
176
     1
 62
     8
176
     1
 90
        1
176
     1
 90
        4
176
     1
 62
     7
176
     1
 62
   257
176
     1
 90
        1
176
     1
 90
        1
176
     1
 40
1.0
176
     1
 90
        8
176
     1
 62
     8
176
     1
 40
1.0
176
     1
 90
        1
176
     1
 90
        6
176
     1
 90
        2
176
     1
 62
     7
176
     1
 90
        5
176
     1
 90
        0
176
     1
 90
        0
176
     1
290
     0
176
     1
 90
        1
176
     1
 40
0.0
176
     1
 90
        0
176
     1
290
     0
176
     1
290
     1
176
     1
290
     1
176
     1
290
     0
176
     1
290
     0
176
     1
290
     0
176
     1
290
     0
176
     1
290
     0
176
     1
290
     0
176
     1
 90
       50
176
     1
 40
0.0
176
     1
 40
1.0
176
     1
 90
        0
176
     1
 62
    18
420
        0
176
     1
 90
       50
176
     1
 90
        3
176
     1
 62
     5
420
      255
176
     1
290
     0
176
     1
 90
       50
176
     1
 90
       50
176
     1
 90
       50
176
     1
290
     0
176
     1
 90
       50
176
     1
 62
   256
176
     0
 40
1.0
176
     0
 90
        2
176
     1
  1
strokes_ogs.tif
176
     1
290
     0
176
     1
 40
1.0
176
     1
 40
1.0
176
     1
  0
VISUALSTYLE
  5
289
102
{ACAD_REACTORS
330
27F
102
}
330
27F
100
AcDbVisualStyle
  2
Conceptual
 70
     9
177
     3
291
     0
 70
    58
 90
        3
176
     1
 90
        2
176
     1
 90
        0
176
     1
 90
        0
176
     1
 40
-0.6
176
     1
 40
-30.0
176
     1
 62
     7
176
     1
 90
        2
176
     1
 90
        2
176
     1
 62
     7
176
     1
 62
   257
176
     1
 90
        1
176
     1
 90
        1
176
     1
 40
40.0
176
     1
 90
        8
176
     1
 62
     7
176
     1
 40
1.0
176
     1
 90
        1
176
     1
 90
        6
176
     1
 90
        2
176
     1
 62
     7
176
     1
 90
        3
176
     1
 90
        0
176
     1
 90
        0
176
     1
290
     0
176
     1
 90
        1
176
     1
 40
0.0
176
     1
 90
        0
176
     1
290
     0
176
     1
290
     1
176
     1
290
     1
176
     1
290
     0
176
     1
290
     0
176
     1
290
     0
176
     1
290
     0
176
     1
290
     0
176
     1
290
     0
176
     1
 90
       50
176
     1
 40
0.0
176
     1
 40
1.0
176
     1
 90
        0
176
     1
 62
    18
420
        0
176
     1
 90
       50
176
     1
 90
        3
176
     1
 62
     5
420
      255
176
     1
290
     0
176
     1
 90
       50
176
     1
 90
       50
176
     1
 90
       50
176
     1
290
     0
176
     1
 90
       50
176
     1
 62
   256
176
     0
 40
1.0
176
     0
 90
        2
176
     1
  1
strokes_ogs.tif
176
     1
290
     0
176
     1
 40
1.0
176
     1
 40
1.0
176
     1
  0
VISUALSTYLE
  5
28A
102
{ACAD_REACTORS
330
27F
102
}
330
27F
100
AcDbVisualStyle
  2
Dim
 70
    11
177
     3
291
     1
 70
    58
 90
        2
176
     1
 90
        2
176
     1
 90
        0
176
     1
 90
        0
176
     1
 40
-0.6
176
     1
 40
-30.0
176
     1
 62
     7
176
     1
 90
        1
176
     1
 90
        4
176
     1
 62
     7
176
     1
 62
   257
176
     1
 90
        1
176
     1
 90
        1
176
     1
 40
1.0
176
     1
 90
        8
176
     1
 62
     7
176
     1
 40
1.0
176
     1
 90
        1
176
     1
 90
        6
176
     1
 90
        2
176
     1
 62
     7
176
     1
 90
        5
176
     1
 90
        0
176
     1
 90
        0
176
     1
290
     0
176
     1
 90
        1
176
     1
 40
-50.0
176
     1
 90
        0
176
     1
290
     0
176
     1
290
     1
176
     1
290
     1
176
     1
290
     0
176
     1
290
     0
176
     1
290
     0
176
     1
290
     0
176
     1
290
     0
176
     1
290
     0
176
     1
 90
       50
176
     1
 40
0.0
176
     1
 40
1.0
176
     1
 90
        0
176
     1
 62
    18
420
        0
176
     1
 90
       50
176
     1
 90
        3
176
     1
 62
     5
420
      255
176
     1
290
     0
176
     1
 90
       50
176
     1
 90
       50
176
     1
 90
       50
176
     1
290
     0
176
     1
 90
       50
176
     1
 62
   256
176
     0
 40
1.0
176
     0
 90
        2
176
     1
  1
strokes_ogs.tif
176
     1
290
     0
176
     1
 40
1.0
176
     1
 40
1.0
176
     1
  0
VISUALSTYLE
  5
2F3
102
{ACAD_REACTORS
330
27F
102
}
330
27F
100
AcDbVisualStyle
  2
EdgeColorOff
 70
    22
177
     3
291
     1
 70
    58
 90
        2
176
     0
 90
        2
176
     0
 90
        0
176
     0
 90
        0
176
     0
 40
0.6
176
     0
 40
30.0
176
     0
 62
     7
420
 16777215
176
     0
 90
        1
176
     0
 90
        4
176
     0
 62
     7
176
     0
 62
   257
176
     0
 90
        1
176
     0
 90
        1
176
     0
 40
1.0
176
     0
 90
        8
176
     2
 62
     7
176
     0
 40
1.0
176
     0
 90
        1
176
     0
 90
        6
176
     0
 90
        2
176
     0
 62
     7
176
     0
 90
        5
176
     0
 90
        0
176
     0
 90
        0
176
     0
290
     0
176
     0
 90
        1
176
     0
 40
0.0
176
     0
 90
        0
176
     0
290
     0
176
     0
290
     1
176
     0
290
     1
176
     0
290
     0
176
     0
290
     0
176
     0
290
     0
176
     0
290
     0
176
     0
290
     0
176
     0
290
     0
176
     0
 90
       50
176
     0
 40
0.0
176
     0
 40
1.0
176
     0
 90
        0
176
     0
 62
    18
420
        0
176
     0
 90
       50
176
     0
 90
        3
176
     0
 62
     5
420
      255
176
     0
290
     0
176
     0
 90
       50
176
     0
 90
       50
176
     0
 90
       50
176
     0
290
     0
176
     0
 90
       50
176
     0
 62
   256
176
     0
 40
1.0
176
     0
 90
        2
176
     0
  1
strokes_ogs.tif
176
     0
290
     0
176
     0
 40
1.0
176
     0
 40
1.0
176
     0
  0
VISUALSTYLE
  5
28E
102
{ACAD_REACTORS
330
27F
102
}
330
27F
100
AcDbVisualStyle
  2
Facepattern
 70
    15
177
     3
291
     1
 70
    58
 90
        2
176
     1
 90
        2
176
     1
 90
        0
176
     1
 90
        0
176
     1
 40
-0.6
176
     1
 40
-30.0
176
     1
 62
     7
176
     1
 90
        1
176
     1
 90
        4
176
     1
 62
     7
176
     1
 62
   257
176
     1
 90
        1
176
     1
 90
        1
176
     1
 40
1.0
176
     1
 90
        8
176
     1
 62
     7
176
     1
 40
1.0
176
     1
 90
        1
176
     1
 90
        6
176
     1
 90
        2
176
     1
 62
     7
176
     1
 90
        5
176
     1
 90
        0
176
     1
 90
        0
176
     1
290
     0
176
     1
 90
        1
176
     1
 40
0.0
176
     1
 90
        0
176
     1
290
     0
176
     1
290
     1
176
     1
290
     1
176
     1
290
     0
176
     1
290
     0
176
     1
290
     0
176
     1
290
     0
176
     1
290
     0
176
     1
290
     0
176
     1
 90
       50
176
     1
 40
0.0
176
     1
 40
1.0
176
     1
 90
        0
176
     1
 62
    18
420
        0
176
     1
 90
       50
176
     1
 90
        3
176
     1
 62
     5
420
      255
176
     1
290
     0
176
     1
 90
       50
176
     1
 90
       50
176
     1
 90
       50
176
     1
290
     0
176
     1
 90
       50
176
     1
 62
   256
176
     0
 40
1.0
176
     0
 90
        2
176
     1
  1
strokes_ogs.tif
176
     1
290
     0
176
     1
 40
1.0
176
     1
 40
1.0
176
     1
  0
VISUALSTYLE
  5
280
102
{ACAD_REACTORS
330
27F
102
}
330
27F
100
AcDbVisualStyle
  2
Flat
 70
     0
177
     3
291
     1
 70
    58
 90
        2
176
     1
 90
        1
176
     1
 90
        1
176
     1
 90
        2
176
     1
 40
-0.6
176
     1
 40
30.0
176
     1
 62
     7
176
     1
 90
        0
176
     1
 90
        4
176
     1
 62
     7
176
     1
 62
   257
176
     1
 90
        1
176
     1
 90
        1
176
     1
 40
1.0
176
     1
 90
        8
176
     1
 62
     7
176
     1
 40
1.0
176
     1
 90
        1
176
     1
 90
        6
176
     1
 90
        2
176
     1
 62
     7
176
     1
 90
        5
176
     1
 90
        0
176
     1
 90
        0
176
     1
290
     0
176
     1
 90
       13
176
     1
 40
0.0
176
     1
 90
        0
176
     1
290
     0
176
     1
290
     1
176
     1
290
     1
176
     1
290
     0
176
     1
290
     0
176
     1
290
     0
176
     1
290
     0
176
     1
290
     0
176
     1
290
     0
176
     1
 90
       50
176
     1
 40
0.0
176
     1
 40
1.0
176
     1
 90
        0
176
     1
 62
    18
420
        0
176
     1
 90
       50
176
     1
 90
        3
176
     1
 62
     5
420
      255
176
     1
290
     0
176
     1
 90
       50
176
     1
 90
       50
176
     1
 90
       50
176
     1
290
     0
176
     1
 90
       50
176
     1
 62
   256
176
     0
 40
1.0
176
     0
 90
        2
176
     1
  1
strokes_ogs.tif
176
     1
290
     0
176
     1
 40
1.0
176
     1
 40
1.0
176
     1
  0
VISUALSTYLE
  5
281
102
{ACAD_REACTORS
330
27F
102
}
330
27F
100
AcDbVisualStyle
  2
FlatWithEdges
 70
     1
177
     3
291
     1
 70
    58
 90
        2
176
     1
 90
        1
176
     1
 90
        1
176
     1
 90
        2
176
     1
 40
-0.6
176
     1
 40
30.0
176
     1
 62
     7
176
     1
 90
        1
176
     1
 90
        4
176
     1
 62
     7
176
     1
 62
   257
176
     1
 90
        1
176
     1
 90
        1
176
     1
 40
1.0
176
     1
 90
        0
176
     1
 62
   257
176
     1
 40
1.0
176
     1
 90
        1
176
     1
 90
        6
176
     1
 90
        2
176
     1
 62
     7
176
     1
 90
        5
176
     1
 90
        0
176
     1
 90
        0
176
     1
290
     0
176
     1
 90
       13
176
     1
 40
0.0
176
     1
 90
        0
176
     1
290
     0
176
     1
290
     1
176
     1
290
     1
176
     1
290
     0
176
     1
290
     0
176
     1
290
     0
176
     1
290
     0
176
     1
290
     0
176
     1
290
     0
176
     1
 90
       50
176
     1
 40
0.0
176
     1
 40
1.0
176
     1
 90
        0
176
     1
 62
    18
420
        0
176
     1
 90
       50
176
     1
 90
        3
176
     1
 62
     5
420
      255
176
     1
290
     0
176
     1
 90
       50
176
     1
 90
       50
176
     1
 90
       50
176
     1
290
     0
176
     1
 90
       50
176
     1
 62
   256
176
     0
 40
1.0
176
     0
 90
        2
176
     1
  1
strokes_ogs.tif
176
     1
290
     0
176
     1
 40
1.0
176
     1
 40
1.0
176
     1
  0
VISUALSTYLE
  5
282
102
{ACAD_REACTORS
330
27F
102
}
330
27F
100
AcDbVisualStyle
  2
Gouraud
 70
     2
177
     3
291
     1
 70
    58
 90
        2
176
     1
 90
        2
176
     1
 90
        1
176
     1
 90
        2
176
     1
 40
-0.6
176
     1
 40
30.0
176
     1
 62
     7
176
     1
 90
        0
176
     1
 90
        4
176
     1
 62
     7
176
     1
 62
   257
176
     1
 90
        1
176
     1
 90
        1
176
     1
 40
1.0
176
     1
 90
        0
176
     1
 62
     7
176
     1
 40
1.0
176
     1
 90
        1
176
     1
 90
        6
176
     1
 90
        2
176
     1
 62
     7
176
     1
 90
        5
176
     1
 90
        0
176
     1
 90
        0
176
     1
290
     0
176
     1
 90
       13
176
     1
 40
0.0
176
     1
 90
        0
176
     1
290
     0
176
     1
290
     1
176
     1
290
     1
176
     1
290
     0
176
     1
290
     0
176
     1
290
     0
176
     1
290
     0
176
     1
290
     0
176
     1
290
     0
176
     1
 90
       50
176
     1
 40
0.0
176
     1
 40
1.0
176
     1
 90
        0
176
     1
 62
    18
420
        0
176
     1
 90
       50
176
     1
 90
        3
176
     1
 62
     5
420
      255
176
     1
290
     0
176
     1
 90
       50
176
     1
 90
       50
176
     1
 90
       50
176
     1
290
     0
176
     1
 90
       50
176
     1
 62
   256
176
     0
 40
1.0
176
     0
 90
        2
176
     1
  1
strokes_ogs.tif
176
     1
290
     0
176
     1
 40
1.0
176
     1
 40
1.0
176
     1
  0
VISUALSTYLE
  5
283
102
{ACAD_REACTORS
330
27F
102
}
330
27F
100
AcDbVisualStyle
  2
GouraudWithEdges
 70
     3
177
     3
291
     1
 70
    58
 90
        2
176
     1
 90
        2
176
     1
 90
        1
176
     1
 90
        2
176
     1
 40
-0.6
176
     1
 40
30.0
176
     1
 62
     7
176
     1
 90
        1
176
     1
 90
        4
176
     1
 62
     7
176
     1
 62
   257
176
     1
 90
        1
176
     1
 90
        1
176
     1
 40
1.0
176
     1
 90
        0
176
     1
 62
   257
176
     1
 40
1.0
176
     1
 90
        1
176
     1
 90
        6
176
     1
 90
        2
176
     1
 62
     7
176
     1
 90
        5
176
     1
 90
        0
176
     1
 90
        0
176
     1
290
     0
176
     1
 90
       13
176
     1
 40
0.0
176
     1
 90
        0
176
     1
290
     0
176
     1
290
     1
176
     1
290
     1
176
     1
290
     0
176
     1
290
     0
176
     1
290
     0
176
     1
290
     0
176
     1
290
     0
176
     1
290
     0
176
     1
 90
       50
176
     1
 40
0.0
176
     1
 40
1.0
176
     1
 90
        0
176
     1
 62
    18
420
        0
176
     1
 90
       50
176
     1
 90
        3
176
     1
 62
     5
420
      255
176
     1
290
     0
176
     1
 90
       50
176
     1
 90
       50
176
     1
 90
       50
176
     1
290
     0
176
     1
 90
       50
176
     1
 62
   256
176
     0
 40
1.0
176
     0
 90
        2
176
     1
  1
strokes_ogs.tif
176
     1
290
     0
176
     1
 40
1.0
176
     1
 40
1.0
176
     1
  0
VISUALSTYLE
  5
2F0
102
{ACAD_REACTORS
330
27F
102
}
330
27F
100
AcDbVisualStyle
  2
Hidden
 70
     6
177
     3
291
     0
 70
    58
 90
        1
176
     1
 90
        2
176
     1
 90
        2
176
     1
 90
        0
176
     1
 40
0.6
176
     1
 40
30.0
176
     1
 62
     7
420
 16777215
176
     1
 90
        2
176
     1
 90
        2
176
     1
 62
     7
176
     1
 62
   257
176
     1
 90
        2
176
     1
 90
        1
176
     1
 40
40.0
176
     1
 90
        0
176
     1
 62
   257
176
     1
 40
1.0
176
     1
 90
        1
176
     1
 90
        6
176
     1
 90
        2
176
     1
 62
     7
176
     1
 90
        3
176
     1
 90
        0
176
     1
 90
        0
176
     1
290
     0
176
     1
 90
        1
176
     1
 40
0.0
176
     1
 90
        0
176
     1
290
     0
176
     1
290
     1
176
     1
290
     1
176
     1
290
     0
176
     1
290
     0
176
     1
290
     0
176
     1
290
     0
176
     1
290
     0
176
     1
290
     0
176
     1
 90
       50
176
     1
 40
0.0
176
     1
 40
1.0
176
     1
 90
        0
176
     1
 62
    18
420
        0
176
     1
 90
       50
176
     1
 90
        3
176
     1
 62
     5
420
      255
176
     1
290
     0
176
     1
 90
       50
176
     1
 90
       50
176
     1
 90
       50
176
     1
290
     0
176
     1
 90
       50
176
     1
 62
   256
176
     0
 40
1.0
176
     0
 90
        2
176
     1
  1
strokes_ogs.tif
176
     1
290
     0
176
     1
 40
1.0
176
     1
 40
1.0
176
     1
  0
VISUALSTYLE
  5
2F1
102
{ACAD_REACTORS
330
27F
102
}
330
27F
100
AcDbVisualStyle
  2
JitterOff
 70
    20
177
     3
291
     1
 70
    58
 90
        2
176
     0
 90
        2
176
     0
 90
        0
176
     0
 90
        0
176
     0
 40
0.6
176
     0
 40
30.0
176
     0
 62
     7
420
 16777215
176
     0
 90
        1
176
     0
 90
        4
176
     0
 62
     7
176
     0
 62
   257
176
     0
 90
        1
176
     0
 90
        1
176
     0
 40
1.0
176
     0
 90
       10
176
     2
 62
     7
176
     0
 40
1.0
176
     0
 90
        1
176
     0
 90
        6
176
     0
 90
        2
176
     0
 62
     7
176
     0
 90
        5
176
     0
 90
        0
176
     0
 90
        0
176
     0
290
     0
176
     0
 90
        1
176
     0
 40
0.0
176
     0
 90
        0
176
     0
290
     0
176
     0
290
     1
176
     0
290
     1
176
     0
290
     0
176
     0
290
     0
176
     0
290
     0
176
     0
290
     0
176
     0
290
     0
176
     0
290
     0
176
     0
 90
       50
176
     0
 40
0.0
176
     0
 40
1.0
176
     0
 90
        0
176
     0
 62
    18
420
        0
176
     0
 90
       50
176
     0
 90
        3
176
     0
 62
     5
420
      255
176
     0
290
     0
176
     0
 90
       50
176
     0
 90
       50
176
     0
 90
       50
176
     0
290
     0
176
     0
 90
       50
176
     0
 62
   256
176
     0
 40
1.0
176
     0
 90
        2
176
     0
  1
strokes_ogs.tif
176
     0
290
     0
176
     0
 40
1.0
176
     0
 40
1.0
176
     0
  0
VISUALSTYLE
  5
28D
102
{ACAD_REACTORS
330
27F
102
}
330
27F
100
AcDbVisualStyle
  2
Linepattern
 70
    14
177
     3
291
     1
 70
    58
 90
        2
176
     1
 90
        2
176
     1
 90
        0
176
     1
 90
        0
176
     1
 40
-0.6
176
     1
 40
-30.0
176
     1
 62
     7
176
     1
 90
        1
176
     1
 90
        4
176
     1
 62
     7
176
     1
 62
   257
176
     1
 90
        7
176
     1
 90
        7
176
     1
 40
1.0
176
     1
 90
        8
176
     1
 62
     7
176
     1
 40
1.0
176
     1
 90
        1
176
     1
 90
        6
176
     1
 90
        2
176
     1
 62
     7
176
     1
 90
        5
176
     1
 90
        0
176
     1
 90
        0
176
     1
290
     0
176
     1
 90
        1
176
     1
 40
0.0
176
     1
 90
        0
176
     1
290
     0
176
     1
290
     1
176
     1
290
     1
176
     1
290
     0
176
     1
290
     0
176
     1
290
     0
176
     1
290
     0
176
     1
290
     0
176
     1
290
     0
176
     1
 90
       50
176
     1
 40
0.0
176
     1
 40
1.0
176
     1
 90
        0
176
     1
 62
    18
420
        0
176
     1
 90
       50
176
     1
 90
        3
176
     1
 62
     5
420
      255
176
     1
290
     0
176
     1
 90
       50
176
     1
 90
       50
176
     1
 90
       50
176
     1
290
     0
176
     1
 90
       50
176
     1
 62
   256
176
     0
 40
1.0
176
     0
 90
        2
176
     1
  1
strokes_ogs.tif
176
     1
290
     0
176
     1
 40
1.0
176
     1
 40
1.0
176
     1
  0
VISUALSTYLE
  5
2F2
102
{ACAD_REACTORS
330
27F
102
}
330
27F
100
AcDbVisualStyle
  2
OverhangOff
 70
    21
177
     3
291
     1
 70
    58
 90
        2
176
     0
 90
        2
176
     0
 90
        0
176
     0
 90
        0
176
     0
 40
0.6
176
     0
 40
30.0
176
     0
 62
     7
420
 16777215
176
     0
 90
        1
176
     0
 90
        4
176
     0
 62
     7
176
     0
 62
   257
176
     0
 90
        1
176
     0
 90
        1
176
     0
 40
1.0
176
     0
 90
        9
176
     2
 62
     7
176
     0
 40
1.0
176
     0
 90
        1
176
     0
 90
        6
176
     0
 90
        2
176
     0
 62
     7
176
     0
 90
        5
176
     0
 90
        0
176
     0
 90
        0
176
     0
290
     0
176
     0
 90
        1
176
     0
 40
0.0
176
     0
 90
        0
176
     0
290
     0
176
     0
290
     1
176
     0
290
     1
176
     0
290
     0
176
     0
290
     0
176
     0
290
     0
176
     0
290
     0
176
     0
290
     0
176
     0
290
     0
176
     0
 90
       50
176
     0
 40
0.0
176
     0
 40
1.0
176
     0
 90
        0
176
     0
 62
    18
420
        0
176
     0
 90
       50
176
     0
 90
        3
176
     0
 62
     5
420
      255
176
     0
290
     0
176
     0
 90
       50
176
     0
 90
       50
176
     0
 90
       50
176
     0
290
     0
176
     0
 90
       50
176
     0
 62
   256
176
     0
 40
1.0
176
     0
 90
        2
176
     0
  1
strokes_ogs.tif
176
     0
290
     0
176
     0
 40
1.0
176
     0
 40
1.0
176
     0
  0
VISUALSTYLE
  5
288
102
{ACAD_REACTORS
330
27F
102
}
330
27F
100
AcDbVisualStyle
  2
Realistic
 70
     8
177
     3
291
     0
 70
    58
 90
        2
176
     1
 90
        2
176
     1
 90
        0
176
     1
 90
        0
176
     1
 40
-0.6
176
     1
 40
-30.0
176
     1
 62
     7
176
     1
 90
        1
176
     1
 90
        0
176
     1
 62
     7
176
     1
 62
   257
176
     1
 90
        1
176
     1
 90
        1
176
     1
 40
1.0
176
     1
 90
        8
176
     1
 62
     8
176
     1
 40
1.0
176
     1
 90
        1
176
     1
 90
        6
176
     1
 90
        2
176
     1
 62
     7
176
     1
 90
        5
176
     1
 90
        0
176
     1
 90
        0
176
     1
290
     0
176
     1
 90
       13
176
     1
 40
0.0
176
     1
 90
        0
176
     1
290
     0
176
     1
290
     1
176
     1
290
     1
176
     1
290
     0
176
     1
290
     0
176
     1
290
     0
176
     1
290
     0
176
     1
290
     0
176
     1
290
     0
176
     1
 90
       50
176
     1
 40
0.0
176
     1
 40
1.0
176
     1
 90
        0
176
     1
 62
    18
420
        0
176
     1
 90
       50
176
     1
 90
        3
176
     1
 62
     5
420
      255
176
     1
290
     0
176
     1
 90
       50
176
     1
 90
       50
176
     1
 90
       50
176
     1
290
     0
176
     1
 90
       50
176
     1
 62
   256
176
     0
 40
1.0
176
     0
 90
        2
176
     1
  1
strokes_ogs.tif
176
     1
290
     0
176
     1
 40
1.0
176
     1
 40
1.0
176
     1
  0
VISUALSTYLE
  5
2F8
102
{ACAD_REACTORS
330
27F
102
}
330
27F
100
AcDbVisualStyle
  2
Shaded
 70
    27
177
     3
291
     0
 70
    58
 90
        2
176
     1
 90
        2
176
     1
 90
        1
176
     1
 90
        2
176
     1
 40
0.6
176
     1
 40
30.0
176
     1
 62
     7
420
 16777215
176
     1
 90
        0
176
     1
 90
        4
176
     1
 62
     7
176
     1
 62
   257
176
     1
 90
        1
176
     1
 90
        1
176
     1
 40
1.0
176
     1
 90
        8
176
     1
 62
   257
176
     1
 40
1.0
176
     1
 90
        1
176
     1
 90
        6
176
     1
 90
        2
176
     1
 62
     8
420
  7895160
176
     1
 90
        3
176
     1
 90
        0
176
     1
 90
        0
176
     1
290
     0
176
     1
 90
        5
176
     1
 40
0.0
176
     1
 90
        0
176
     1
290
     0
176
     1
290
     1
176
     1
290
     1
176
     1
290
     0
176
     1
290
     0
176
     1
290
     0
176
     1
290
     0
176
     1
290
     0
176
     1
290
     0
176
     1
 90
       50
176
     1
 40
0.0
176
     1
 40
1.0
176
     1
 90
        0
176
     1
 62
    18
420
        0
176
     1
 90
       50
176
     1
 90
        3
176
     1
 62
     5
420
      255
176
     1
290
     0
176
     1
 90
       50
176
     1
 90
       50
176
     1
 90
       50
176
     1
290
     0
176
     1
 90
       50
176
     1
 62
   256
176
     0
 40
1.0
176
     0
 90
        2
176
     1
  1
strokes_ogs.tif
176
     1
290
     0
176
     1
 40
1.0
176
     1
 40
1.0
176
     1
  0
VISUALSTYLE
  5
2F7
102
{ACAD_REACTORS
330
27F
102
}
330
27F
100
AcDbVisualStyle
  2
Shaded with edges
 70
    26
177
     3
291
     0
 70
    58
 90
        2
176
     1
 90
        2
176
     1
 90
        1
176
     1
 90
        2
176
     1
 40
0.6
176
     1
 40
30.0
176
     1
 62
     7
420
 16777215
176
     1
 90
        1
176
     1
 90
       10
176
     1
 62
     7
176
     1
 62
   257
176
     1
 90
        2
176
     1
 90
        1
176
     1
 40
1.0
176
     1
 90
        8
176
     1
 62
   257
176
     1
 40
1.0
176
     1
 90
        1
176
     1
 90
        6
176
     1
 90
        2
176
     1
 62
     7
176
     1
 90
        3
176
     1
 90
        0
176
     1
 90
        0
176
     1
290
     0
176
     1
 90
        5
176
     1
 40
0.0
176
     1
 90
        0
176
     1
290
     0
176
     1
290
     1
176
     1
290
     1
176
     1
290
     0
176
     1
290
     0
176
     1
290
     0
176
     1
290
     0
176
     1
290
     0
176
     1
290
     0
176
     1
 90
       50
176
     1
 40
0.0
176
     1
 40
1.0
176
     1
 90
        0
176
     1
 62
    18
420
        0
176
     1
 90
       50
176
     1
 90
        3
176
     1
 62
     5
420
      255
176
     1
290
     0
176
     1
 90
       50
176
     1
 90
       50
176
     1
 90
       50
176
     1
290
     0
176
     1
 90
       50
176
     1
 62
   256
176
     0
 40
1.0
176
     0
 90
        2
176
     1
  1
strokes_ogs.tif
176
     1
290
     0
176
     1
 40
1.0
176
     1
 40
1.0
176
     1
  0
VISUALSTYLE
  5
2F4
102
{ACAD_REACTORS
330
27F
102
}
330
27F
100
AcDbVisualStyle
  2
Shades of Gray
 70
    23
177
     3
291
     0
 70
    58
 90
        2
176
     1
 90
        2
176
     1
 90
        3
176
     1
 90
        0
176
     1
 40
0.6
176
     1
 40
30.0
176
     1
 62
     7
420
 16777215
176
     1
 90
        2
176
     1
 90
        2
176
     1
 62
     7
176
     1
 62
     7
176
     1
 90
        1
176
     1
 90
        1
176
     1
 40
40.0
176
     1
 90
        8
176
     1
 62
     7
176
     1
 40
1.0
176
     1
 90
        1
176
     1
 90
        6
176
     1
 90
        2
176
     1
 62
     7
176
     1
 90
        3
176
     1
 90
        0
176
     1
 90
        0
176
     1
290
     0
176
     1
 90
        1
176
     1
 40
0.0
176
     1
 90
        0
176
     1
290
     0
176
     1
290
     1
176
     1
290
     1
176
     1
290
     0
176
     1
290
     0
176
     1
290
     0
176
     1
290
     0
176
     1
290
     0
176
     1
290
     0
176
     1
 90
       50
176
     1
 40
0.0
176
     1
 40
1.0
176
     1
 90
        0
176
     1
 62
    18
420
        0
176
     1
 90
       50
176
     1
 90
        3
176
     1
 62
     5
420
      255
176
     1
290
     0
176
     1
 90
       50
176
     1
 90
       50
176
     1
 90
       50
176
     1
290
     0
176
     1
 90
       50
176
     1
 62
   256
176
     0
 40
1.0
176
     0
 90
        2
176
     1
  1
strokes_ogs.tif
176
     1
290
     0
176
     1
 40
1.0
176
     1
 40
1.0
176
     1
  0
VISUALSTYLE
  5
2F5
102
{ACAD_REACTORS
330
27F
102
}
330
27F
100
AcDbVisualStyle
  2
Sketchy
 70
    24
177
     3
291
     0
 70
    58
 90
        1
176
     1
 90
        2
176
     1
 90
        2
176
     1
 90
        0
176
     1
 40
0.6
176
     1
 40
30.0
176
     1
 62
     7
420
 16777215
176
     1
 90
        2
176
     1
 90
        2
176
     1
 62
     7
176
     1
 62
     7
176
     1
 90
        1
176
     1
 90
        1
176
     1
 40
40.0
176
     1
 90
       11
176
     1
 62
     7
176
     1
 40
1.0
176
     1
 90
        1
176
     1
 90
        6
176
     1
 90
        2
176
     1
 62
     7
176
     1
 90
        6
176
     1
 90
        0
176
     1
 90
        0
176
     1
290
     0
176
     1
 90
        1
176
     1
 40
0.0
176
     1
 90
        0
176
     1
290
     0
176
     1
290
     1
176
     1
290
     1
176
     1
290
     0
176
     1
290
     0
176
     1
290
     0
176
     1
290
     0
176
     1
290
     0
176
     1
290
     0
176
     1
 90
       50
176
     1
 40
0.0
176
     1
 40
1.0
176
     1
 90
        0
176
     1
 62
    18
420
        0
176
     1
 90
       50
176
     1
 90
        3
176
     1
 62
     5
420
      255
176
     1
290
     0
176
     1
 90
       50
176
     1
 90
       50
176
     1
 90
       50
176
     1
290
     0
176
     1
 90
       50
176
     1
 62
   256
176
     0
 40
1.0
176
     0
 90
        2
176
     1
  1
strokes_ogs.tif
176
     1
290
     0
176
     1
 40
1.0
176
     1
 40
1.0
176
     1
  0
VISUALSTYLE
  5
28C
102
{ACAD_REACTORS
330
27F
102
}
330
27F
100
AcDbVisualStyle
  2
Thicken
 70
    13
177
     3
291
     1
 70
    58
 90
        2
176
     1
 90
        2
176
     1
 90
        0
176
     1
 90
        0
176
     1
 40
-0.6
176
     1
 40
-30.0
176
     1
 62
     7
176
     1
 90
        1
176
     1
 90
        4
176
     1
 62
     7
176
     1
 62
   257
176
     1
 90
        1
176
     1
 90
        1
176
     1
 40
1.0
176
     1
 90
       12
176
     1
 62
     7
176
     1
 40
1.0
176
     1
 90
        1
176
     1
 90
        6
176
     1
 90
        2
176
     1
 62
     7
176
     1
 90
        5
176
     1
 90
        0
176
     1
 90
        0
176
     1
290
     0
176
     1
 90
        1
176
     1
 40
0.0
176
     1
 90
        0
176
     1
290
     0
176
     1
290
     1
176
     1
290
     1
176
     1
290
     0
176
     1
290
     0
176
     1
290
     0
176
     1
290
     0
176
     1
290
     0
176
     1
290
     0
176
     1
 90
       50
176
     1
 40
0.0
176
     1
 40
1.0
176
     1
 90
        0
176
     1
 62
    18
420
        0
176
     1
 90
       50
176
     1
 90
        3
176
     1
 62
     5
420
      255
176
     1
290
     0
176
     1
 90
       50
176
     1
 90
       50
176
     1
 90
       50
176
     1
290
     0
176
     1
 90
       50
176
     1
 62
   256
176
     0
 40
1.0
176
     0
 90
        2
176
     1
  1
strokes_ogs.tif
176
     1
290
     0
176
     1
 40
1.0
176
     1
 40
1.0
176
     1
  0
VISUALSTYLE
  5
2EF
102
{ACAD_REACTORS
330
27F
102
}
330
27F
100
AcDbVisualStyle
  2
Wireframe
 70
     5
177
     3
291
     0
 70
    58
 90
        0
176
     1
 90
        2
176
     1
 90
        0
176
     1
 90
        0
176
     1
 40
0.6
176
     1
 40
30.0
176
     1
 62
     7
420
 16777215
176
     1
 90
        1
176
     1
 90
        4
176
     1
 62
     7
176
     1
 62
   257
176
     1
 90
        1
176
     1
 90
        1
176
     1
 40
1.0
176
     1
 90
        0
176
     1
 62
   257
176
     1
 40
1.0
176
     1
 90
        1
176
     1
 90
        6
176
     1
 90
        2
176
     1
 62
     7
176
     1
 90
        3
176
     1
 90
        0
176
     1
 90
        0
176
     1
290
     0
176
     1
 90
        1
176
     1
 40
0.0
176
     1
 90
        0
176
     1
290
     0
176
     1
290
     1
176
     1
290
     1
176
     1
290
     0
176
     1
290
     0
176
     1
290
     0
176
     1
290
     0
176
     1
290
     0
176
     1
290
     0
176
     1
 90
       50
176
     1
 40
0.0
176
     1
 40
1.0
176
     1
 90
        0
176
     1
 62
    18
420
        0
176
     1
 90
       50
176
     1
 90
        3
176
     1
 62
     5
420
      255
176
     1
290
     0
176
     1
 90
       50
176
     1
 90
       50
176
     1
 90
       50
176
     1
290
     0
176
     1
 90
       50
176
     1
 62
   256
176
     0
 40
1.0
176
     0
 90
        2
176
     1
  1
strokes_ogs.tif
176
     1
290
     0
176
     1
 40
1.0
176
     1
 40
1.0
176
     1
  0
VISUALSTYLE
  5
2F6
102
{ACAD_REACTORS
330
27F
102
}
330
27F
100
AcDbVisualStyle
  2
X-Ray
 70
    25
177
     3
291
     0
 70
    58
 90
        2
176
     1
 90
        2
176
     1
 90
        1
176
     1
 90
        1
176
     1
 40
0.5
176
     1
 40
30.0
176
     1
 62
     7
420
 16777215
176
     1
 90
        1
176
     1
 90
        0
176
     1
 62
     7
176
     1
 62
   257
176
     1
 90
        1
176
     1
 90
        1
176
     1
 40
1.0
176
     1
 90
        8
176
     1
 62
     7
176
     1
 40
1.0
176
     1
 90
        1
176
     1
 90
        6
176
     1
 90
        2
176
     1
 62
     7
176
     1
 90
        3
176
     1
 90
        0
176
     1
 90
        0
176
     1
290
     0
176
     1
 90
       13
176
     1
 40
0.0
176
     1
 90
        0
176
     1
290
     0
176
     1
290
     1
176
     1
290
     1
176
     1
290
     0
176
     1
290
     0
176
     1
290
     0
176
     1
290
     0
176
     1
290
     0
176
     1
290
     0
176
     1
 90
       50
176
     1
 40
0.0
176
     1
 40
1.0
176
     1
 90
        0
176
     1
 62
    18
420
        0
176
     1
 90
       50
176
     1
 90
        3
176
     1
 62
     5
420
      255
176
     1
290
     0
176
     1
 90
       50
176
     1
 90
       50
176
     1
 90
       50
176
     1
290
     0
176
     1
 90
       50
176
     1
 62
   256
176
     0
 40
1.0
176
     0
 90
        2
176
     1
  1
strokes_ogs.tif
176
     1
290
     0
176
     1
 40
1.0
176
     1
 40
1.0
176
     1
  0
DICTIONARYVAR
  5
33E
102
{ACAD_REACTORS
330
2A8
102
}
330
2A8
100
DictionaryVariables
280
     0
  1
1:1
  0
DICTIONARYVAR
  5
340
102
{ACAD_REACTORS
330
2A8
102
}
330
2A8
100
DictionaryVariables
280
     0
  1
Standard
  0
DICTIONARYVAR
  5
33F
102
{ACAD_REACTORS
330
2A8
102
}
330
2A8
100
DictionaryVariables
280
     0
  1
Standard
  0
DICTIONARYVAR
  5
2AC
102
{ACAD_REACTORS
330
2A8
102
}
330
2A8
100
DictionaryVariables
280
     0
  1
2
  0
DICTIONARYVAR
  5
2AD
102
{ACAD_REACTORS
330
2A8
102
}
330
2A8
100
DictionaryVariables
280
     0
  1
1
  0
DICTIONARYVAR
  5
2AB
102
{ACAD_REACTORS
330
2A8
102
}
330
2A8
100
DictionaryVariables
280
     0
  1
0
  0
DICTIONARY
  5
45A
330
2FA
100
AcDbDictionary
280
     1
281
     1
  3
ACAD_ROUNDTRIP_2008_TABLESTYLE_CELLSTYLEMAP
360
45B
  0
CELLSTYLEMAP
  5
45B
102
{ACAD_REACTORS
330
45A
102
}
330
45A
100
AcDbCellStyleMap
 90
        3
300
CELLSTYLE
  1
TABLEFORMAT_BEGIN
 90
        5
170
     1
 91
        0
 92
    32768
 62
   257
 93
        1
300
CONTENTFORMAT
  1
CONTENTFORMAT_BEGIN
 90
        0
 91
        0
 92
        4
 93
        0
300

 40
0.0
140
1.0
 94
        5
 62
     0
340
11
144
6.0
309
CONTENTFORMAT_END
171
     1
301
MARGIN
  1
CELLMARGIN_BEGIN
 40
1.5
 40
1.5
 40
1.5
 40
1.5
 40
1.5
 40
1.5
309
CELLMARGIN_END
 94
        6
 95
        1
302
GRIDFORMAT
  1
GRIDFORMAT_BEGIN
 90
        0
 91
        1
 62
     0
 92
       -2
340
14
 93
        0
 40
0.045
309
GRIDFORMAT_END
 95
        2
302
GRIDFORMAT
  1
GRIDFORMAT_BEGIN
 90
        0
 91
        1
 62
     0
 92
       -2
340
14
 93
        0
 40
0.045
309
GRIDFORMAT_END
 95
        4
302
GRIDFORMAT
  1
GRIDFORMAT_BEGIN
 90
        0
 91
        1
 62
     0
 92
       -2
340
14
 93
        0
 40
0.045
309
GRIDFORMAT_END
 95
        8
302
GRIDFORMAT
  1
GRIDFORMAT_BEGIN
 90
        0
 91
        1
 62
     0
 92
       -2
340
14
 93
        0
 40
0.045
309
GRIDFORMAT_END
 95
       16
302
GRIDFORMAT
  1
GRIDFORMAT_BEGIN
 90
        0
 91
        1
 62
     0
 92
       -2
340
14
 93
        0
 40
0.045
309
GRIDFORMAT_END
 95
       32
302
GRIDFORMAT
  1
GRIDFORMAT_BEGIN
 90
        0
 91
        1
 62
     0
 92
       -2
340
14
 93
        0
 40
0.045
309
GRIDFORMAT_END
309
TABLEFORMAT_END
  1
CELLSTYLE_BEGIN
 90
        1
 91
        1
300
_TITLE
309
CELLSTYLE_END
300
CELLSTYLE
  1
TABLEFORMAT_BEGIN
 90
        5
170
     1
 91
        0
 92
        0
 62
   257
 93
        1
300
CONTENTFORMAT
  1
CONTENTFORMAT_BEGIN
 90
        0
 91
        0
 92
        4
 93
        0
300

 40
0.0
140
1.0
 94
        5
 62
     0
340
11
144
4.5
309
CONTENTFORMAT_END
171
     1
301
MARGIN
  1
CELLMARGIN_BEGIN
 40
1.5
 40
1.5
 40
1.5
 40
1.5
 40
1.5
 40
1.5
309
CELLMARGIN_END
 94
        6
 95
        1
302
GRIDFORMAT
  1
GRIDFORMAT_BEGIN
 90
        0
 91
        1
 62
     0
 92
       -2
340
14
 93
        0
 40
0.045
309
GRIDFORMAT_END
 95
        2
302
GRIDFORMAT
  1
GRIDFORMAT_BEGIN
 90
        0
 91
        1
 62
     0
 92
       -2
340
14
 93
        0
 40
0.045
309
GRIDFORMAT_END
 95
        4
302
GRIDFORMAT
  1
GRIDFORMAT_BEGIN
 90
        0
 91
        1
 62
     0
 92
       -2
340
14
 93
        0
 40
0.045
309
GRIDFORMAT_END
 95
        8
302
GRIDFORMAT
  1
GRIDFORMAT_BEGIN
 90
        0
 91
        1
 62
     0
 92
       -2
340
14
 93
        0
 40
0.045
309
GRIDFORMAT_END
 95
       16
302
GRIDFORMAT
  1
GRIDFORMAT_BEGIN
 90
        0
 91
        1
 62
     0
 92
       -2
340
14
 93
        0
 40
0.045
309
GRIDFORMAT_END
 95
       32
302
GRIDFORMAT
  1
GRIDFORMAT_BEGIN
 90
        0
 91
        1
 62
     0
 92
       -2
340
14
 93
        0
 40
0.045
309
GRIDFORMAT_END
309
TABLEFORMAT_END
  1
CELLSTYLE_BEGIN
 90
        2
 91
        1
300
_HEADER
309
CELLSTYLE_END
300
CELLSTYLE
  1
TABLEFORMAT_BEGIN
 90
        5
170
     1
 91
        0
 92
        0
 62
   257
 93
        1
300
CONTENTFORMAT
  1
CONTENTFORMAT_BEGIN
 90
        0
 91
        0
 92
        4
 93
        0
300

 40
0.0
140
1.0
 94
        2
 62
     0
340
11
144
4.5
309
CONTENTFORMAT_END
171
     1
301
MARGIN
  1
CELLMARGIN_BEGIN
 40
1.5
 40
1.5
 40
1.5
 40
1.5
 40
1.5
 40
1.5
309
CELLMARGIN_END
 94
        6
 95
        1
302
GRIDFORMAT
  1
GRIDFORMAT_BEGIN
 90
        0
 91
        1
 62
     0
 92
       -2
340
14
 93
        0
 40
0.045
309
GRIDFORMAT_END
 95
        2
302
GRIDFORMAT
  1
GRIDFORMAT_BEGIN
 90
        0
 91
        1
 62
     0
 92
       -2
340
14
 93
        0
 40
0.045
309
GRIDFORMAT_END
 95
        4
302
GRIDFORMAT
  1
GRIDFORMAT_BEGIN
 90
        0
 91
        1
 62
     0
 92
       -2
340
14
 93
        0
 40
0.045
309
GRIDFORMAT_END
 95
        8
302
GRIDFORMAT
  1
GRIDFORMAT_BEGIN
 90
        0
 91
        1
 62
     0
 92
       -2
340
14
 93
        0
 40
0.045
309
GRIDFORMAT_END
 95
       16
302
GRIDFORMAT
  1
GRIDFORMAT_BEGIN
 90
        0
 91
        1
 62
     0
 92
       -2
340
14
 93
        0
 40
0.045
309
GRIDFORMAT_END
 95
       32
302
GRIDFORMAT
  1
GRIDFORMAT_BEGIN
 90
        0
 91
        1
 62
     0
 92
       -2
340
14
 93
        0
 40
0.045
309
GRIDFORMAT_END
309
TABLEFORMAT_END
  1
CELLSTYLE_BEGIN
 90
        3
 91
        2
300
_DATA
309
CELLSTYLE_END
  0
ENDSEC
  0
EOF
