  0
SECTION
  2
HEADER
  9
$ACADVER
  1
AC1027
  9
$ACADMAINTVER
 70
   105
  9
$DWGCODEPAGE
  3
ANSI_1252
  9
$REQUIREDVERSIONS
160
                 0
  9
$LASTSAVEDBY
  1
christoph.stuessi
  9
$INSBASE
 10
0.0
 20
0.0
 30
0.0
  9
$EXTMIN
 10
-97.21628968295374
 20
-76.02151446270236
 30
0.0
  9
$EXTMAX
 10
294.9958842300899
 20
89.60978988512394
 30
0.0
  9
$LIMMIN
 10
0.0
 20
0.0
  9
$LIMMAX
 10
420.0
 20
297.0
  9
$ORTHOMODE
 70
     0
  9
$REGENMODE
 70
     1
  9
$FILLMODE
 70
     1
  9
$QTEXTMODE
 70
     0
  9
$MIRRTEXT
 70
     1
  9
$LTSCALE
 40
1.0
  9
$ATTMODE
 70
     1
  9
$TEXTSIZE
 40
3.5
  9
$TRACEWID
 40
1.0
  9
$TEXTSTYLE
  7
STANDARD
  9
$CLAYER
  8
SK2
  9
$CELTYPE
  6
BYLAYER
  9
$CECOLOR
 62
   256
  9
$CELTSCALE
 40
1.0
  9
$DISPSILH
 70
     0
  9
$DIMSCALE
 40
1.0
  9
$DIMASZ
 40
3.5
  9
$DIMEXO
 40
0.0
  9
$DIMDLI
 40
3.75
  9
$DIMRND
 40
0.0
  9
$DIMDLE
 40
0.0
  9
$DIMEXE
 40
1.0
  9
$DIMTP
 40
0.0
  9
$DIMTM
 40
0.0
  9
$DIMTXT
 40
3.5
  9
$DIMCEN
 40
2.5
  9
$DIMTSZ
 40
0.0
  9
$DIMTOL
 70
     0
  9
$DIMLIM
 70
     0
  9
$DIMTIH
 70
     1
  9
$DIMTOH
 70
     1
  9
$DIMSE1
 70
     0
  9
$DIMSE2
 70
     0
  9
$DIMTAD
 70
     1
  9
$DIMZIN
 70
     0
  9
$DIMBLK
  1

  9
$DIMASO
 70
     1
  9
$DIMSHO
 70
     1
  9
$DIMPOST
  1

  9
$DIMAPOST
  1

  9
$DIMALT
 70
     0
  9
$DIMALTD
 70
     3
  9
$DIMALTF
 40
0.0393700787
  9
$DIMLFAC
 40
1.0
  9
$DIMTOFL
 70
     1
  9
$DIMTVP
 40
0.0
  9
$DIMTIX
 70
     0
  9
$DIMSOXD
 70
     0
  9
$DIMSAH
 70
     0
  9
$DIMBLK1
  1

  9
$DIMBLK2
  1

  9
$DIMSTYLE
  2
ISO-25
  9
$DIMCLRD
 70
     0
  9
$DIMCLRE
 70
     0
  9
$DIMCLRT
 70
     0
  9
$DIMTFAC
 40
1.0
  9
$DIMGAP
 40
1.5
  9
$DIMJUST
 70
     0
  9
$DIMSD1
 70
     0
  9
$DIMSD2
 70
     0
  9
$DIMTOLJ
 70
     0
  9
$DIMTZIN
 70
     0
  9
$DIMALTZ
 70
     0
  9
$DIMALTTZ
 70
     0
  9
$DIMUPT
 70
     0
  9
$DIMDEC
 70
     2
  9
$DIMTDEC
 70
     3
  9
$DIMALTU
 70
     2
  9
$DIMALTTD
 70
     3
  9
$DIMTXSTY
  7
STANDARD
  9
$DIMAUNIT
 70
     0
  9
$DIMADEC
 70
     0
  9
$DIMALTRND
 40
0.0
  9
$DIMAZIN
 70
     0
  9
$DIMDSEP
 70
    46
  9
$DIMATFIT
 70
     3
  9
$DIMFRAC
 70
     0
  9
$DIMLDRBLK
  1

  9
$DIMLUNIT
 70
     2
  9
$DIMLWD
 70
    -2
  9
$DIMLWE
 70
    -2
  9
$DIMTMOVE
 70
     2
  9
$DIMFXL
 40
1.0
  9
$DIMFXLON
 70
     0
  9
$DIMJOGANG
 40
0.7853981633974483
  9
$DIMTFILL
 70
     0
  9
$DIMTFILLCLR
 70
     0
  9
$DIMARCSYM
 70
     0
  9
$DIMLTYPE
  6

  9
$DIMLTEX1
  6

  9
$DIMLTEX2
  6

  9
$DIMTXTDIRECTION
 70
     0
  9
$LUNITS
 70
     2
  9
$LUPREC
 70
     2
  9
$SKETCHINC
 40
1.0
  9
$FILLETRAD
 40
10.0
  9
$AUNITS
 70
     0
  9
$AUPREC
 70
     2
  9
$MENU
  1
.
  9
$ELEVATION
 40
0.0
  9
$PELEVATION
 40
0.0
  9
$THICKNESS
 40
0.0
  9
$LIMCHECK
 70
     0
  9
$CHAMFERA
 40
0.0
  9
$CHAMFERB
 40
0.0
  9
$CHAMFERC
 40
0.0
  9
$CHAMFERD
 40
0.0
  9
$SKPOLY
 70
     0
  9
$TDCREATE
 40
2457907.68198081
  9
$TDUCREATE
 40
2457907.598647477
  9
$TDUPDATE
 40
2458369.33991353
  9
$TDUUPDATE
 40
2458369.256580197
  9
$TDINDWG
 40
0.0030355903
  9
$TDUSRTIMER
 40
0.023604537
  9
$USRTIMER
 70
     1
  9
$ANGBASE
 50
0.0
  9
$ANGDIR
 70
     0
  9
$PDMODE
 70
     0
  9
$PDSIZE
 40
-1.0
  9
$PLINEWID
 40
0.0
  9
$SPLFRAME
 70
     0
  9
$SPLINETYPE
 70
     6
  9
$SPLINESEGS
 70
     8
  9
$HANDSEED
  5
57E
  9
$SURFTAB1
 70
     6
  9
$SURFTAB2
 70
     6
  9
$SURFTYPE
 70
     6
  9
$SURFU
 70
     6
  9
$SURFV
 70
     6
  9
$UCSBASE
  2

  9
$UCSNAME
  2

  9
$UCSORG
 10
0.0
 20
0.0
 30
0.0
  9
$UCSXDIR
 10
1.0
 20
0.0
 30
0.0
  9
$UCSYDIR
 10
0.0
 20
1.0
 30
0.0
  9
$UCSORTHOREF
  2

  9
$UCSORTHOVIEW
 70
     0
  9
$UCSORGTOP
 10
0.0
 20
0.0
 30
0.0
  9
$UCSORGBOTTOM
 10
0.0
 20
0.0
 30
0.0
  9
$UCSORGLEFT
 10
0.0
 20
0.0
 30
0.0
  9
$UCSORGRIGHT
 10
0.0
 20
0.0
 30
0.0
  9
$UCSORGFRONT
 10
0.0
 20
0.0
 30
0.0
  9
$UCSORGBACK
 10
0.0
 20
0.0
 30
0.0
  9
$PUCSBASE
  2

  9
$PUCSNAME
  2

  9
$PUCSORG
 10
0.0
 20
0.0
 30
0.0
  9
$PUCSXDIR
 10
1.0
 20
0.0
 30
0.0
  9
$PUCSYDIR
 10
0.0
 20
1.0
 30
0.0
  9
$PUCSORTHOREF
  2

  9
$PUCSORTHOVIEW
 70
     0
  9
$PUCSORGTOP
 10
0.0
 20
0.0
 30
0.0
  9
$PUCSORGBOTTOM
 10
0.0
 20
0.0
 30
0.0
  9
$PUCSORGLEFT
 10
0.0
 20
0.0
 30
0.0
  9
$PUCSORGRIGHT
 10
0.0
 20
0.0
 30
0.0
  9
$PUCSORGFRONT
 10
0.0
 20
0.0
 30
0.0
  9
$PUCSORGBACK
 10
0.0
 20
0.0
 30
0.0
  9
$USERI1
 70
     0
  9
$USERI2
 70
     0
  9
$USERI3
 70
     0
  9
$USERI4
 70
     0
  9
$USERI5
 70
     0
  9
$USERR1
 40
0.0
  9
$USERR2
 40
0.0
  9
$USERR3
 40
0.0
  9
$USERR4
 40
0.0
  9
$USERR5
 40
0.0
  9
$WORLDVIEW
 70
     1
  9
$SHADEDGE
 70
     3
  9
$SHADEDIF
 70
    70
  9
$TILEMODE
 70
     1
  9
$MAXACTVP
 70
    64
  9
$PINSBASE
 10
0.0
 20
0.0
 30
0.0
  9
$PLIMCHECK
 70
     0
  9
$PEXTMIN
 10
1.000000000000000E+20
 20
1.000000000000000E+20
 30
1.000000000000000E+20
  9
$PEXTMAX
 10
-1.000000000000000E+20
 20
-1.000000000000000E+20
 30
-1.000000000000000E+20
  9
$PLIMMIN
 10
0.0
 20
0.0
  9
$PLIMMAX
 10
0.0
 20
0.0
  9
$UNITMODE
 70
     0
  9
$VISRETAIN
 70
     1
  9
$PLINEGEN
 70
     0
  9
$PSLTSCALE
 70
     1
  9
$TREEDEPTH
 70
  3020
  9
$CMLSTYLE
  2
STANDARD
  9
$CMLJUST
 70
     0
  9
$CMLSCALE
 40
20.0
  9
$PROXYGRAPHICS
 70
     1
  9
$MEASUREMENT
 70
     1
  9
$CELWEIGHT
370
    -1
  9
$ENDCAPS
280
     0
  9
$JOINSTYLE
280
     0
  9
$LWDISPLAY
290
     0
  9
$INSUNITS
 70
     0
  9
$HYPERLINKBASE
  1

  9
$STYLESHEET
  1

  9
$XEDIT
290
     1
  9
$CEPSNTYPE
380
     0
  9
$PSTYLEMODE
290
     1
  9
$FINGERPRINTGUID
  2
{B48B6702-A905-48E2-8DC0-33226672416D}
  9
$VERSIONGUID
  2
{FAEB1C32-E019-11D5-929B-00C0DF256EC4}
  9
$EXTNAMES
290
     1
  9
$PSVPSCALE
 40
0.0
  9
$OLESTARTUP
290
     0
  9
$SORTENTS
280
   127
  9
$INDEXCTL
280
     0
  9
$HIDETEXT
280
     1
  9
$XCLIPFRAME
280
     2
  9
$HALOGAP
280
     0
  9
$OBSCOLOR
 70
   257
  9
$OBSLTYPE
280
     0
  9
$INTERSECTIONDISPLAY
280
     0
  9
$INTERSECTIONCOLOR
 70
   257
  9
$DIMASSOC
280
     2
  9
$PROJECTNAME
  1

  9
$CAMERADISPLAY
290
     0
  9
$LENSLENGTH
 40
50.0
  9
$CAMERAHEIGHT
 40
0.0
  9
$STEPSPERSEC
 40
2.0
  9
$STEPSIZE
 40
6.0
  9
$3DDWFPREC
 40
2.0
  9
$PSOLWIDTH
 40
0.25
  9
$PSOLHEIGHT
 40
4.0
  9
$LOFTANG1
 40
1.570796326794897
  9
$LOFTANG2
 40
1.570796326794897
  9
$LOFTMAG1
 40
0.0
  9
$LOFTMAG2
 40
0.0
  9
$LOFTPARAM
 70
     7
  9
$LOFTNORMALS
280
     1
  9
$LATITUDE
 40
37.795
  9
$LONGITUDE
 40
-122.394
  9
$NORTHDIRECTION
 40
0.0
  9
$TIMEZONE
 70
 -8000
  9
$LIGHTGLYPHDISPLAY
280
     1
  9
$TILEMODELIGHTSYNCH
280
     1
  9
$SOLIDHIST
280
     0
  9
$SHOWHIST
280
     1
  9
$DWFFRAME
280
     2
  9
$DGNFRAME
280
     2
  9
$REALWORLDSCALE
290
     1
  9
$INTERFERECOLOR
 62
   256
  9
$CSHADOW
280
     0
  9
$SHADOWPLANELOCATION
 40
0.0
  0
ENDSEC
  0
SECTION
  2
CLASSES
  0
CLASS
  1
ACDBDICTIONARYWDFLT
  2
AcDbDictionaryWithDefault
  3
ObjectDBX Classes
 90
        0
 91
        5
280
     0
281
     0
  0
CLASS
  1
VISUALSTYLE
  2
AcDbVisualStyle
  3
ObjectDBX Classes
 90
     4095
 91
        5
280
     0
281
     0
  0
CLASS
  1
MATERIAL
  2
AcDbMaterial
  3
ObjectDBX Classes
 90
     1153
 91
        5
280
     0
281
     0
  0
CLASS
  1
SCALE
  2
AcDbScale
  3
ObjectDBX Classes
 90
     1153
 91
        5
280
     0
281
     0
  0
CLASS
  1
TABLESTYLE
  2
AcDbTableStyle
  3
ObjectDBX Classes
 90
     4095
 91
        5
280
     0
281
     0
  0
CLASS
  1
MLEADERSTYLE
  2
AcDbMLeaderStyle
  3
ACDB_MLEADERSTYLE_CLASS
 90
     4095
 91
        5
280
     0
281
     0
  0
CLASS
  1
SUN
  2
AcDbSun
  3
SCENEOE
 90
     1153
 91
        5
280
     0
281
     0
  0
CLASS
  1
XRECORD
  2
AcDbXrecord
  3
ObjectDBX Classes
 90
        0
 91
        1
280
     0
281
     0
  0
CLASS
  1
LWPOLYLINE
  2
AcDbPolyline
  3
ObjectDBX Classes
 90
        0
 91
        1
280
     0
281
     1
  0
CLASS
  1
HATCH
  2
AcDbHatch
  3
ObjectDBX Classes
 90
        0
 91
        1
280
     0
281
     1
  0
CLASS
  1
DICTIONARYVAR
  2
AcDbDictionaryVar
  3
ObjectDBX Classes
 90
        0
 91
        5
280
     0
281
     0
  0
CLASS
  1
ACDBPLACEHOLDER
  2
AcDbPlaceHolder
  3
ObjectDBX Classes
 90
        0
 91
        1
280
     0
281
     0
  0
CLASS
  1
LAYOUT
  2
AcDbLayout
  3
ObjectDBX Classes
 90
        0
 91
        1
280
     0
281
     0
  0
CLASS
  1
CELLSTYLEMAP
  2
AcDbCellStyleMap
  3
ObjectDBX Classes
 90
     1152
 91
        5
280
     0
281
     0
  0
ENDSEC
  0
SECTION
  2
TABLES
  0
TABLE
  2
VPORT
  5
8
330
0
100
AcDbSymbolTable
 70
     1
  0
VPORT
  5
29
330
8
100
AcDbSymbolTableRecord
100
AcDbViewportTableRecord
  2
*ACTIVE
 70
     0
 10
0.0
 20
0.0
 11
1.0
 21
1.0
 12
103.543427131489
 22
-13.78232004417804
 13
0.0
 23
0.0
 14
10.0
 24
10.0
 15
10.0
 25
10.0
 16
0.0
 26
0.0
 36
1.0
 17
0.0
 27
0.0
 37
0.0
 40
237.5999999999998
 41
2.246376811594203
 42
50.0
 43
0.0
 44
0.0
 50
0.0
 51
0.0
 71
    16
 72
  2000
 73
     1
 74
     3
 75
     0
 76
     0
 77
     0
 78
     0
281
     0
 65
     1
110
0.0
120
0.0
130
0.0
111
1.0
121
0.0
131
0.0
112
0.0
122
1.0
132
0.0
 79
     0
146
0.0
348
4B5
 60
     3
 61
     5
292
     1
282
     1
141
0.0
142
0.0
 63
   256
  0
ENDTAB
  0
TABLE
  2
LTYPE
  5
5
330
0
100
AcDbSymbolTable
 70
     9
  0
LTYPE
  5
14
330
5
100
AcDbSymbolTableRecord
100
AcDbLinetypeTableRecord
  2
BYBLOCK
 70
     0
  3

 72
    65
 73
     0
 40
0.0
  0
LTYPE
  5
15
330
5
100
AcDbSymbolTableRecord
100
AcDbLinetypeTableRecord
  2
BYLAYER
 70
     0
  3

 72
    65
 73
     0
 40
0.0
  0
LTYPE
  5
16
330
5
100
AcDbSymbolTableRecord
100
AcDbLinetypeTableRecord
  2
CONTINUOUS
 70
     0
  3
Solid line
 72
    65
 73
     0
 40
0.0
  0
LTYPE
  5
6E
330
5
100
AcDbSymbolTableRecord
100
AcDbLinetypeTableRecord
  2
HIDDEN
 70
     0
  3
Hidden __ __ __ __ __ __ __ __ __ __ __ __ __ __
 72
    65
 73
     2
 40
1.905
 49
1.27
 74
     0
 49
-0.635
 74
     0
  0
LTYPE
  5
6F
330
5
100
AcDbSymbolTableRecord
100
AcDbLinetypeTableRecord
  2
PHANTOM
 70
     0
  3
Phantom ______  __  __  ______  __  __  ______
 72
    65
 73
     6
 40
12.7
 49
6.35
 74
     0
 49
-1.27
 74
     0
 49
1.27
 74
     0
 49
-1.27
 74
     0
 49
1.27
 74
     0
 49
-1.27
 74
     0
  0
LTYPE
  5
70
330
5
100
AcDbSymbolTableRecord
100
AcDbLinetypeTableRecord
  2
CENTER
 70
     0
  3
Center ____ _ ____ _ ____ _ ____ _ ____ _ ____
 72
    65
 73
     4
 40
10.16
 49
6.35
 74
     0
 49
-1.27
 74
     0
 49
1.27
 74
     0
 49
-1.27
 74
     0
  0
LTYPE
  5
71
330
5
100
AcDbSymbolTableRecord
100
AcDbLinetypeTableRecord
  2
CENTERX2
 70
     0
  3
Center (2x) ________  __  ________  __  _____
 72
    65
 73
     4
 40
20.32
 49
12.7
 74
     0
 49
-2.54
 74
     0
 49
2.54
 74
     0
 49
-2.54
 74
     0
  0
LTYPE
  5
72
330
5
100
AcDbSymbolTableRecord
100
AcDbLinetypeTableRecord
  2
DOT2
 70
     0
  3
Dot (.5x) ........................................
 72
    65
 73
     2
 40
0.635
 49
0.0
 74
     0
 49
-0.635
 74
     0
  0
LTYPE
  5
50C
330
5
100
AcDbSymbolTableRecord
100
AcDbLinetypeTableRecord
  2
DASH
 70
     0
  3
DASH _ _ _ _ _
 72
    65
 73
     2
 40
0.75
 49
0.4
 74
     0
 49
-0.35
 74
     0
  0
LTYPE
  5
50D
330
5
100
AcDbSymbolTableRecord
100
AcDbLinetypeTableRecord
  2
LONGDASH_DASH
 70
     0
  3
LONGDASH_DASH __ . __ . __
 72
    65
 73
     4
 40
0.85
 49
0.4
 74
     0
 49
-0.2
 74
     0
 49
0.05
 74
     0
 49
-0.2
 74
     0
  0
LTYPE
  5
50E
330
5
100
AcDbSymbolTableRecord
100
AcDbLinetypeTableRecord
  2
LONGDASH_DASH_DASH
 70
     0
  3
LONGDASH_DASH_DASH __ . . __ . . __
 72
    65
 73
     6
 40
1.1
 49
0.4
 74
     0
 49
-0.2
 74
     0
 49
0.05
 74
     0
 49
-0.2
 74
     0
 49
0.05
 74
     0
 49
-0.2
 74
     0
  0
ENDTAB
  0
TABLE
  2
LAYER
  5
2
102
{ACAD_XDICTIONARY
360
533
102
}
330
0
100
AcDbSymbolTable
 70
    16
  0
LAYER
  5
4C6
330
2
100
AcDbSymbolTableRecord
100
AcDbLayerTableRecord
  2
200
 70
     0
 62
     2
  6
CONTINUOUS
370
    50
390
51F
347
4C4
348
0
  0
LAYER
  5
4C9
330
2
100
AcDbSymbolTableRecord
100
AcDbLayerTableRecord
  2
Defpoints
 70
     0
 62
     7
  6
CONTINUOUS
290
     0
370
    -3
390
51F
347
4C4
348
0
  0
LAYER
  5
50F
330
2
100
AcDbSymbolTableRecord
100
AcDbLayerTableRecord
  2
0
 70
     0
 62
     1
  6
CONTINUOUS
370
    -3
390
0
347
4C4
348
0
  0
LAYER
  5
510
330
2
100
AcDbSymbolTableRecord
100
AcDbLayerTableRecord
  2
1
 70
     0
 62
     4
  6
CONTINUOUS
370
    50
390
0
347
4C4
348
0
  0
LAYER
  5
511
330
2
100
AcDbSymbolTableRecord
100
AcDbLayerTableRecord
  2
2
 70
     0
 62
     7
  6
CONTINUOUS
370
    25
390
0
347
4C4
348
0
  0
LAYER
  5
512
330
2
100
AcDbSymbolTableRecord
100
AcDbLayerTableRecord
  2
3
 70
     0
 62
     1
  6
DASH
370
    35
390
0
347
4C4
348
0
  0
LAYER
  5
513
330
2
100
AcDbSymbolTableRecord
100
AcDbLayerTableRecord
  2
4
 70
     0
 62
     2
  6
LONGDASH_DASH
370
    25
390
0
347
4C4
348
0
  0
LAYER
  5
514
330
2
100
AcDbSymbolTableRecord
100
AcDbLayerTableRecord
  2
6
 70
     0
 62
     5
  6
CONTINUOUS
370
    -3
390
0
347
4C4
348
0
  0
LAYER
  5
515
330
2
100
AcDbSymbolTableRecord
100
AcDbLayerTableRecord
  2
CUT
 70
     0
 62
     1
  6
CONTINUOUS
370
    25
390
0
347
4C4
348
0
  0
LAYER
  5
516
330
2
100
AcDbSymbolTableRecord
100
AcDbLayerTableRecord
  2
NOCUT
 70
     0
 62
     7
  6
CONTINUOUS
370
    25
390
0
347
4C4
348
0
  0
LAYER
  5
517
330
2
100
AcDbSymbolTableRecord
100
AcDbLayerTableRecord
  2
SK1
 70
     0
 62
     4
  6
CONTINUOUS
370
    50
390
0
347
4C4
348
0
  0
LAYER
  5
518
330
2
100
AcDbSymbolTableRecord
100
AcDbLayerTableRecord
  2
SK2
 70
     0
 62
     7
  6
CONTINUOUS
370
    25
390
0
347
4C4
348
0
  0
LAYER
  5
519
330
2
100
AcDbSymbolTableRecord
100
AcDbLayerTableRecord
  2
SK3
 70
     0
 62
     1
  6
DASH
370
    35
390
0
347
4C4
348
0
  0
LAYER
  5
51A
330
2
100
AcDbSymbolTableRecord
100
AcDbLayerTableRecord
  2
SK4
 70
     0
 62
     2
  6
LONGDASH_DASH
370
    25
390
0
347
4C4
348
0
  0
LAYER
  5
51B
330
2
100
AcDbSymbolTableRecord
100
AcDbLayerTableRecord
  2
SK6
 70
     0
 62
     5
  6
CONTINUOUS
370
    -3
390
0
347
4C4
348
0
  0
LAYER
  5
51C
330
2
100
AcDbSymbolTableRecord
100
AcDbLayerTableRecord
  2
INFTOTAL
 70
     0
 62
     9
  6
CONTINUOUS
370
    18
390
0
347
4C4
348
0
  0
ENDTAB
  0
TABLE
  2
STYLE
  5
3
330
0
100
AcDbSymbolTable
 70
     3
  0
STYLE
  5
11
330
3
100
AcDbSymbolTableRecord
100
AcDbTextStyleTableRecord
  2
STANDARD
 70
     0
 40
0.0
 41
1.0
 50
0.0
 71
     0
 42
3.5
  3
txt
  4

  0
STYLE
  5
452
330
3
100
AcDbSymbolTableRecord
100
AcDbTextStyleTableRecord
  2
SLDTEXTSTYLE0
 70
     0
 40
0.0
 41
0.605
 50
0.0
 71
     0
 42
3.5
  3
TXT
  4

  0
STYLE
  5
4C5
330
3
100
AcDbSymbolTableRecord
100
AcDbTextStyleTableRecord
  2
BMG_Text
 70
     0
 40
3.5
 41
1.0
 50
0.0
 71
     0
 42
3.5
  3
monos.ttf
  4

1001
ACAD
1000
Monospac821 BT
1071
       49
  0
ENDTAB
  0
TABLE
  2
VIEW
  5
6
330
0
100
AcDbSymbolTable
 70
     0
  0
ENDTAB
  0
TABLE
  2
UCS
  5
7
330
0
100
AcDbSymbolTable
 70
     0
  0
ENDTAB
  0
TABLE
  2
APPID
  5
9
330
0
100
AcDbSymbolTable
 70
     4
  0
APPID
  5
12
330
9
100
AcDbSymbolTableRecord
100
AcDbRegAppTableRecord
  2
ACAD
 70
     0
  0
APPID
  5
4DF
330
9
100
AcDbSymbolTableRecord
100
AcDbRegAppTableRecord
  2
ACAD_DSTYLE_DIM_LINETYPE
 70
     0
  0
APPID
  5
4E0
330
9
100
AcDbSymbolTableRecord
100
AcDbRegAppTableRecord
  2
ACAD_DSTYLE_DIM_EXT1_LINETYPE
 70
     0
  0
APPID
  5
4E1
330
9
100
AcDbSymbolTableRecord
100
AcDbRegAppTableRecord
  2
ACAD_DSTYLE_DIM_EXT2_LINETYPE
 70
     0
  0
ENDTAB
  0
TABLE
  2
DIMSTYLE
  5
A
330
0
100
AcDbSymbolTable
 70
     3
100
AcDbDimStyleTable
  0
DIMSTYLE
105
27
330
A
100
AcDbSymbolTableRecord
100
AcDbDimStyleTableRecord
  2
ISO-25
 70
     0
 41
2.5
 42
0.625
 43
3.75
 44
1.25
 73
     0
 74
     0
 77
     1
 78
     8
140
2.5
141
2.5
143
0.0393700787
147
0.625
171
     3
172
     1
178
     0
271
     2
272
     2
274
     3
283
     0
284
     8
340
11
  0
DIMSTYLE
105
453
102
{ACAD_REACTORS
330
451
102
}
330
A
100
AcDbSymbolTableRecord
100
AcDbDimStyleTableRecord
  2
SLDDIMSTYLE0
 70
     0
 41
3.5
 44
0.0
 45
0.000000001
 73
     0
 74
     0
 77
     1
 78
    12
140
3.5
147
0.875
173
     1
178
     0
271
     0
272
     3
284
    12
340
452
  0
DIMSTYLE
105
460
102
{ACAD_REACTORS
330
45F
330
46A
330
474
330
47F
102
}
330
A
100
AcDbSymbolTableRecord
100
AcDbDimStyleTableRecord
  2
SLDDIMSTYLE1
 70
     0
 41
3.5
 44
0.0
 45
0.000000001
 73
     0
 74
     0
 77
     1
 78
    12
140
3.5
147
0.875
173
     1
178
     0
271
     2
272
     3
284
    12
340
452
  0
ENDTAB
  0
TABLE
  2
BLOCK_RECORD
  5
1
330
0
100
AcDbSymbolTable
 70
     5
  0
BLOCK_RECORD
  5
1F
330
1
100
AcDbSymbolTableRecord
100
AcDbBlockTableRecord
  2
*MODEL_SPACE
340
4AE
 70
     0
280
     1
281
     0
  0
BLOCK_RECORD
  5
1B
330
1
100
AcDbSymbolTableRecord
100
AcDbBlockTableRecord
  2
*PAPER_SPACE
340
4AF
 70
     0
280
     1
281
     0
  0
BLOCK_RECORD
  5
454
330
1
100
AcDbSymbolTableRecord
100
AcDbBlockTableRecord
  2
_D
340
0
 70
     0
280
     1
281
     0
  0
BLOCK_RECORD
  5
461
330
1
100
AcDbSymbolTableRecord
100
AcDbBlockTableRecord
  2
_D_1
340
0
 70
     0
280
     1
281
     0
  0
BLOCK_RECORD
  5
46B
330
1
100
AcDbSymbolTableRecord
100
AcDbBlockTableRecord
  2
_D_2
340
0
 70
     0
280
     1
281
     0
  0
BLOCK_RECORD
  5
475
330
1
100
AcDbSymbolTableRecord
100
AcDbBlockTableRecord
  2
_D_3
340
0
 70
     0
280
     1
281
     0
  0
BLOCK_RECORD
  5
480
330
1
100
AcDbSymbolTableRecord
100
AcDbBlockTableRecord
  2
_D_4
340
0
 70
     0
280
     1
281
     0
  0
ENDTAB
  0
ENDSEC
  0
SECTION
  2
BLOCKS
  0
BLOCK
  5
20
330
1F
100
AcDbEntity
  8
0
100
AcDbBlockBegin
  2
*MODEL_SPACE
 70
     0
 10
0.0
 20
0.0
 30
0.0
  3
*MODEL_SPACE
  1

  0
ENDBLK
  5
21
330
1F
100
AcDbEntity
  8
0
100
AcDbBlockEnd
  0
BLOCK
  5
1C
330
1B
100
AcDbEntity
 67
     1
  8
0
100
AcDbBlockBegin
  2
*PAPER_SPACE
 70
     0
 10
0.0
 20
0.0
 30
0.0
  3
*PAPER_SPACE
  1

  0
ENDBLK
  5
1D
330
1B
100
AcDbEntity
 67
     1
  8
0
100
AcDbBlockEnd
  0
BLOCK
  5
455
330
454
100
AcDbEntity
  8
0
100
AcDbBlockBegin
  2
_D
 70
     0
 10
0.0
 20
0.0
 30
0.0
  3
_D
  1

  0
LINE
  5
457
330
454
100
AcDbEntity
  8
2
  6
Continuous
370
    -2
100
AcDbLine
 10
224.1235759043
 20
26.48784688035424
 30
0.0
 11
236.0011700463651
 21
26.48784654858633
 31
0.0
  0
LINE
  5
458
330
454
100
AcDbEntity
  8
2
  6
Continuous
370
    -2
100
AcDbLine
 10
224.1235744246
 20
-26.48784620304576
 30
0.0
 11
236.0011685666348
 21
-26.48784653481368
 31
0.0
  0
LINE
  5
459
330
454
100
AcDbEntity
  8
2
  6
Continuous
370
    -2
100
AcDbLine
 10
236.0011699486023
 20
22.98784654858633
 30
0.0
 11
236.0011686643977
 21
-22.98784653481368
 31
0.0
  0
SOLID
  5
45A
330
454
100
AcDbEntity
  8
2
100
AcDbTrace
 10
236.5845032819356
 20
22.98784653229252
 30
0.0
 11
235.4178366152689
 21
22.98784656488014
 31
0.0
 12
236.0011700463651
 22
26.48784654858633
 32
0.0
 13
236.0011700463651
 23
26.48784654858633
 33
0.0
  0
SOLID
  5
45B
330
454
100
AcDbEntity
  8
2
100
AcDbTrace
 10
235.4178353310644
 20
-22.98784651851987
 30
0.0
 11
236.5845019977311
 21
-22.98784655110749
 31
0.0
 12
236.0011685666348
 22
-26.48784653481368
 32
0.0
 13
236.0011685666348
 23
-26.48784653481368
 33
0.0
  0
MTEXT
  5
45C
330
454
100
AcDbEntity
  8
2
370
    25
100
AcDbMText
 10
233.2641693065
 20
0.0000000833505674
 30
0.0
 40
3.5
 41
0.0
 46
0.0
 71
     5
 72
     1
  1
\A1;%%c53 - 70
  7
BMG_Text
 11
2.793224969075659E-8
 21
0.9999999999999996
 31
0.0
 73
     1
 44
1.0
  0
POINT
  5
45D
330
454
100
AcDbEntity
  8
Defpoints
 62
     0
100
AcDbPoint
 10
224.0610759043
 20
26.4878468821
 30
0.0
  0
POINT
  5
45E
330
454
100
AcDbEntity
  8
Defpoints
 62
     0
100
AcDbPoint
 10
224.0610744246
 20
-26.4878462013
 30
0.0
  0
POINT
  5
4CA
330
454
100
AcDbEntity
  8
Defpoints
 62
     0
100
AcDbPoint
 10
236.0011685666348
 20
-26.48784653481369
 30
0.0
  0
ENDBLK
  5
456
330
454
100
AcDbEntity
  8
0
100
AcDbBlockEnd
  0
BLOCK
  5
462
330
461
100
AcDbEntity
  8
0
100
AcDbBlockBegin
  2
_D_1
 70
     0
 10
0.0
 20
0.0
 30
0.0
  3
_D_1
  1

  0
LINE
  5
464
330
461
100
AcDbEntity
  8
2
  6
Continuous
370
    -2
100
AcDbLine
 10
200.9955309802
 20
-25.0592688087
 30
0.0
 11
200.9955309802
 21
-36.1998356208
 31
0.0
  0
LINE
  5
465
330
461
100
AcDbEntity
  8
2
  6
Continuous
370
    -2
100
AcDbLine
 10
0.0
 20
-24.0625002086
 30
0.0
 11
0.0
 21
-36.1998356208
 31
0.0
  0
LINE
  5
466
330
461
100
AcDbEntity
  8
2
  6
Continuous
370
    -2
100
AcDbLine
 10
197.4955309802
 20
-36.1998356208
 30
0.0
 11
3.5
 21
-36.1998356208
 31
0.0
  0
SOLID
  5
467
330
461
100
AcDbEntity
  8
2
100
AcDbTrace
 10
197.4955309802
 20
-36.78316895413334
 30
0.0
 11
197.4955309802
 21
-35.61650228746667
 31
0.0
 12
200.9955309802
 22
-36.1998356208
 32
0.0
 13
200.9955309802
 23
-36.1998356208
 33
0.0
  0
SOLID
  5
468
330
461
100
AcDbEntity
  8
2
100
AcDbTrace
 10
3.5
 20
-35.61650228746667
 30
0.0
 11
3.5
 21
-36.78316895413334
 31
0.0
 12
0.0
 22
-36.1998356208
 32
0.0
 13
0.0
 23
-36.1998356208
 33
0.0
  0
MTEXT
  5
469
330
461
100
AcDbEntity
  8
2
370
    25
100
AcDbMText
 10
100.4977654901
 20
-33.5135856208
 30
0.0
 40
3.5
 41
0.0
 46
0.0
 71
     5
 72
     1
  1
\A1;201
  7
BMG_Text
 73
     1
 44
1.0
  0
POINT
  5
4CB
330
461
100
AcDbEntity
  8
Defpoints
 62
     0
100
AcDbPoint
 10
200.9955309802
 20
-24.9967688087
 30
0.0
  0
POINT
  5
4CC
330
461
100
AcDbEntity
  8
Defpoints
 62
     0
100
AcDbPoint
 10
0.0
 20
-24.0000002086
 30
0.0
  0
POINT
  5
4CD
330
461
100
AcDbEntity
  8
Defpoints
 62
     0
100
AcDbPoint
 10
0.0
 20
-36.1998356208
 30
0.0
  0
ENDBLK
  5
463
330
461
100
AcDbEntity
  8
0
100
AcDbBlockEnd
  0
BLOCK
  5
46C
330
46B
100
AcDbEntity
  8
0
100
AcDbBlockBegin
  2
_D_2
 70
     0
 10
0.0
 20
0.0
 30
0.0
  3
_D_2
  1

  0
LINE
  5
46E
330
46B
100
AcDbEntity
  8
2
  6
Continuous
370
    -2
100
AcDbLine
 10
224.9999935032
 20
20.1268822903
 30
0.0
 11
224.9999935032
 21
35.8790512197
 31
0.0
  0
LINE
  5
46F
330
46B
100
AcDbEntity
  8
2
  6
Continuous
370
    -2
100
AcDbLine
 10
0.0
 20
24.0625002086
 30
0.0
 11
0.0
 21
35.8790512197
 31
0.0
  0
LINE
  5
470
330
46B
100
AcDbEntity
  8
2
  6
Continuous
370
    -2
100
AcDbLine
 10
221.4999935032
 20
35.8790512197
 30
0.0
 11
3.5
 21
35.8790512197
 31
0.0
  0
SOLID
  5
471
330
46B
100
AcDbEntity
  8
2
100
AcDbTrace
 10
221.4999935032
 20
35.29571788636667
 30
0.0
 11
221.4999935032
 21
36.46238455303334
 31
0.0
 12
224.9999935032
 22
35.8790512197
 32
0.0
 13
224.9999935032
 23
35.8790512197
 33
0.0
  0
SOLID
  5
472
330
46B
100
AcDbEntity
  8
2
100
AcDbTrace
 10
3.5
 20
36.46238455303334
 30
0.0
 11
3.5
 21
35.29571788636667
 31
0.0
 12
0.0
 22
35.8790512197
 32
0.0
 13
0.0
 23
35.8790512197
 33
0.0
  0
MTEXT
  5
473
330
46B
100
AcDbEntity
  8
2
370
    25
100
AcDbMText
 10
112.4999967516
 20
38.5653012197
 30
0.0
 40
3.5
 41
0.0
 46
0.0
 71
     5
 72
     1
  1
\A1;225
  7
BMG_Text
 73
     1
 44
1.0
  0
POINT
  5
4CE
330
46B
100
AcDbEntity
  8
Defpoints
 62
     0
100
AcDbPoint
 10
224.9999935032
 20
20.0643822903
 30
0.0
  0
POINT
  5
4CF
330
46B
100
AcDbEntity
  8
Defpoints
 62
     0
100
AcDbPoint
 10
0.0
 20
24.0000002086
 30
0.0
  0
POINT
  5
4D0
330
46B
100
AcDbEntity
  8
Defpoints
 62
     0
100
AcDbPoint
 10
0.0
 20
35.8790512197
 30
0.0
  0
ENDBLK
  5
46D
330
46B
100
AcDbEntity
  8
0
100
AcDbBlockEnd
  0
BLOCK
  5
476
330
475
100
AcDbEntity
  8
0
100
AcDbBlockBegin
  2
_D_3
 70
     0
 10
0.0
 20
0.0
 30
0.0
  3
_D_3
  1

  0
LINE
  5
478
330
475
100
AcDbEntity
  8
SK2
  6
ByBlock
370
    -2
100
AcDbLine
 10
-25.5625150019
 20
13.9999997437
 30
0.0
 11
-36.753857264
 21
13.9999997437
 31
0.0
  0
LINE
  5
479
330
475
100
AcDbEntity
  8
SK2
  6
ByBlock
370
    -2
100
AcDbLine
 10
-25.5625150019
 20
-14.0000011205
 30
0.0
 11
-36.753857264
 21
-14.0000011205
 31
0.0
  0
LINE
  5
47A
330
475
100
AcDbEntity
  8
SK2
  6
ByBlock
370
    -2
100
AcDbLine
 10
-36.753857264
 20
10.4999997437
 30
0.0
 11
-36.753857264
 21
-10.5000011205
 31
0.0
  0
SOLID
  5
47B
330
475
100
AcDbEntity
  8
SK2
100
AcDbTrace
 10
-36.17052393066666
 20
10.4999997437
 30
0.0
 11
-37.33719059733333
 21
10.4999997437
 31
0.0
 12
-36.753857264
 22
13.9999997437
 32
0.0
 13
-36.753857264
 23
13.9999997437
 33
0.0
  0
SOLID
  5
47C
330
475
100
AcDbEntity
  8
SK2
100
AcDbTrace
 10
-37.33719059733333
 20
-10.5000011205
 30
0.0
 11
-36.17052393066666
 21
-10.5000011205
 31
0.0
 12
-36.753857264
 22
-14.0000011205
 32
0.0
 13
-36.753857264
 23
-14.0000011205
 33
0.0
  0
MTEXT
  5
47D
330
475
100
AcDbEntity
  8
SK2
100
AcDbMText
 10
-39.490857264
 20
-0.0000006884
 30
0.0
 40
3.5
 41
0.0
 46
0.0
 71
     5
 72
     1
  1
\A1;%%c28
  7
BMG_Text
 11
0.0
 21
1.0
 31
0.0
 73
     1
 44
1.0
  0
POINT
  5
47E
330
475
100
AcDbEntity
  8
Defpoints
 62
     0
100
AcDbPoint
 10
-25.5000150019
 20
13.9999997437
 30
0.0
  0
POINT
  5
4D1
330
475
100
AcDbEntity
  8
Defpoints
 62
     0
100
AcDbPoint
 10
-25.5000150019
 20
-14.0000011205
 30
0.0
  0
POINT
  5
4D2
330
475
100
AcDbEntity
  8
Defpoints
 62
     0
100
AcDbPoint
 10
-36.753857264
 20
-14.0000011205
 30
0.0
  0
ENDBLK
  5
477
330
475
100
AcDbEntity
  8
0
100
AcDbBlockEnd
  0
BLOCK
  5
481
330
480
100
AcDbEntity
  8
0
100
AcDbBlockBegin
  2
_D_4
 70
     0
 10
0.0
 20
0.0
 30
0.0
  3
_D_4
  1

  0
LINE
  5
483
330
480
100
AcDbEntity
  8
2
  6
Continuous
370
    -2
100
AcDbLine
 10
0.9374871254
 20
25.0000003725
 30
0.0
 11
-46.16990197
 21
25.0000003725
 31
0.0
  0
LINE
  5
484
330
480
100
AcDbEntity
  8
2
  6
Continuous
370
    -2
100
AcDbLine
 10
0.9374871254
 20
-25.0000003725
 30
0.0
 11
-46.16990197
 21
-25.0000003725
 31
0.0
  0
LINE
  5
485
330
480
100
AcDbEntity
  8
2
  6
Continuous
370
    -2
100
AcDbLine
 10
-46.16990197
 20
21.5000003725
 30
0.0
 11
-46.16990197
 21
-21.5000003725
 31
0.0
  0
SOLID
  5
486
330
480
100
AcDbEntity
  8
2
100
AcDbTrace
 10
-45.58656863666666
 20
21.5000003725
 30
0.0
 11
-46.75323530333333
 21
21.5000003725
 31
0.0
 12
-46.16990197
 22
25.0000003725
 32
0.0
 13
-46.16990197
 23
25.0000003725
 33
0.0
  0
SOLID
  5
487
330
480
100
AcDbEntity
  8
2
100
AcDbTrace
 10
-46.75323530333333
 20
-21.5000003725
 30
0.0
 11
-45.58656863666666
 21
-21.5000003725
 31
0.0
 12
-46.16990197
 22
-25.0000003725
 32
0.0
 13
-46.16990197
 23
-25.0000003725
 33
0.0
  0
MTEXT
  5
488
330
480
100
AcDbEntity
  8
2
370
    25
100
AcDbMText
 10
-48.90690197
 20
0.0
 30
0.0
 40
3.5
 41
0.0
 46
0.0
 71
     5
 72
     1
  1
\A1;%%c50
  7
BMG_Text
 11
0.0
 21
1.0
 31
0.0
 73
     1
 44
1.0
  0
POINT
  5
489
330
480
100
AcDbEntity
  8
Defpoints
 62
     0
100
AcDbPoint
 10
0.9999871254
 20
25.0000003725
 30
0.0
  0
POINT
  5
4D3
330
480
100
AcDbEntity
  8
Defpoints
 62
     0
100
AcDbPoint
 10
0.9999871254
 20
-25.0000003725
 30
0.0
  0
POINT
  5
4D4
330
480
100
AcDbEntity
  8
Defpoints
 62
     0
100
AcDbPoint
 10
-46.16990197
 20
-25.0000003725
 30
0.0
  0
ENDBLK
  5
482
330
480
100
AcDbEntity
  8
0
100
AcDbBlockEnd
  0
ENDSEC
  0
SECTION
  2
ENTITIES
  0
LINE
  5
79
330
1F
100
AcDbEntity
  8
1
100
AcDbLine
 10
200.9955309802
 20
24.9945689092
 30
0.0
 11
200.9955309802
 21
-24.9967688087
 31
0.0
  0
LINE
  5
7A
330
1F
100
AcDbEntity
  8
1
100
AcDbLine
 10
200.9955309802
 20
24.9945689092
 30
0.0
 11
200.4999928177
 21
25.0000003725
 31
0.0
  0
LINE
  5
7B
330
1F
100
AcDbEntity
  8
1
100
AcDbLine
 10
200.9955309802
 20
-24.9967688087
 30
0.0
 11
198.6389021769
 21
-25.0000003725
 31
0.0
  0
LINE
  5
7C
330
1F
100
AcDbEntity
  8
4
100
AcDbLine
 10
-33.1131043073
 20
0.0
 30
0.0
 11
226.7170387548
 21
0.0
 31
0.0
  0
LINE
  5
7D
330
1F
100
AcDbEntity
  8
1
100
AcDbLine
 10
220.2999927104
 20
4.9999998882
 30
0.0
 11
216.5999934077
 21
4.9999998882
 31
0.0
  0
LINE
  5
7E
330
1F
100
AcDbEntity
  8
SK1
100
AcDbLine
 10
-2.0000040531
 20
13.6561868712
 30
0.0
 11
-2.0000040531
 21
13.8320503756
 31
0.0
  0
LINE
  5
7F
330
1F
100
AcDbEntity
  8
SK1
100
AcDbLine
 10
-13.0000114441
 20
13.8320503756
 30
0.0
 11
-13.0000114441
 21
13.6599196121
 31
0.0
  0
LINE
  5
80
330
1F
100
AcDbEntity
  8
SK1
100
AcDbLine
 10
-2.0000040531
 20
-13.8320503756
 30
0.0
 11
-2.0000040531
 21
-13.6556960642
 31
0.0
  0
LINE
  5
81
330
1F
100
AcDbEntity
  8
SK1
100
AcDbLine
 10
-13.0000114441
 20
-13.6565333232
 30
0.0
 11
-13.0000114441
 21
-13.8320503756
 31
0.0
  0
LINE
  5
82
330
1F
100
AcDbEntity
  8
SK1
100
AcDbLine
 10
-2.1339816295
 20
14.3320508076
 30
0.0
 11
-3.0969679355
 21
16.00000076
 31
0.0
  0
LINE
  5
83
330
1F
100
AcDbEntity
  8
SK1
100
AcDbLine
 10
-11.9030475616
 20
16.00000076
 30
0.0
 11
-12.8660324371
 21
14.3320508076
 31
0.0
  0
LINE
  5
84
330
1F
100
AcDbEntity
  8
SK1
100
AcDbLine
 10
-12.8660324371
 20
-14.3320508076
 30
0.0
 11
-11.9030475616
 21
-16.00000076
 31
0.0
  0
LINE
  5
85
330
1F
100
AcDbEntity
  8
SK1
100
AcDbLine
 10
-3.0969679355
 20
-16.00000076
 30
0.0
 11
-2.1339816295
 21
-14.3320508076
 31
0.0
  0
LINE
  5
86
330
1F
100
AcDbEntity
  8
1
  6
Continuous
370
    50
100
AcDbLine
 10
0.9999871254
 20
-25.0000003725
 30
0.0
 11
172.8999929692
 21
-25.0000003725
 31
0.0
  0
LINE
  5
87
330
1F
100
AcDbEntity
  8
1
  6
Continuous
370
    50
100
AcDbLine
 10
172.8999929692
 20
25.0000003725
 30
0.0
 11
0.9999871254
 21
25.0000003725
 31
0.0
  0
LINE
  5
88
330
1F
100
AcDbEntity
  8
1
  6
Continuous
370
    50
100
AcDbLine
 10
0.9999871254
 20
25.0000003725
 30
0.0
 11
0.0
 21
24.0000002086
 31
0.0
  0
LINE
  5
89
330
1F
100
AcDbEntity
  8
1
  6
Continuous
370
    50
100
AcDbLine
 10
0.0
 20
-24.0000002086
 30
0.0
 11
0.9999871254
 21
-25.0000003725
 31
0.0
  0
LINE
  5
8A
330
1F
100
AcDbEntity
  8
1
  6
Continuous
370
    50
100
AcDbLine
 10
172.8999929692
 20
-25.0000003725
 30
0.0
 11
172.9999929667
 21
-24.9000005424
 31
0.0
  0
LINE
  5
8B
330
1F
100
AcDbEntity
  8
1
  6
Continuous
370
    50
100
AcDbLine
 10
172.9999929667
 20
24.9000005424
 30
0.0
 11
172.8999929692
 21
25.0000003725
 31
0.0
  0
LINE
  5
8C
330
1F
100
AcDbEntity
  8
SK1
100
AcDbLine
 10
-25.5000150019
 20
-14.0000011205
 30
0.0
 11
-13.9941429907
 21
-14.0000011205
 31
0.0
  0
LINE
  5
8D
330
1F
100
AcDbEntity
  8
SK1
100
AcDbLine
 10
-13.9999991471
 20
13.9999997437
 30
0.0
 11
-25.5000150019
 21
13.9999997437
 31
0.0
  0
LINE
  5
8E
330
1F
100
AcDbEntity
  8
SK1
100
AcDbLine
 10
-1.0078400373
 20
-13.9720244333
 30
0.0
 11
-0.4294165559
 21
-13.8170370869
 31
0.0
  0
LINE
  5
8F
330
1F
100
AcDbEntity
  8
SK1
100
AcDbLine
 10
-0.4294165559
 20
13.8170370869
 30
0.0
 11
-1.0078400373
 21
13.9720244333
 31
0.0
  0
LINE
  5
90
330
1F
100
AcDbEntity
  8
SK1
100
AcDbLine
 10
-25.5000150019
 20
13.9999997437
 30
0.0
 11
-27.519986611
 21
13.7161084086
 31
0.0
  0
LINE
  5
91
330
1F
100
AcDbEntity
  8
SK1
100
AcDbLine
 10
-27.519986611
 20
-13.7161097854
 30
0.0
 11
-25.5000150019
 21
-14.0000011205
 31
0.0
  0
LINE
  5
92
330
1F
100
AcDbEntity
  8
SK1
100
AcDbLine
 10
-29.061094504
 20
-13.9878464296
 30
0.0
 11
-27.519986611
 21
-13.7161097854
 31
0.0
  0
LINE
  5
93
330
1F
100
AcDbEntity
  8
SK1
100
AcDbLine
 10
-27.519986611
 20
13.7161084086
 30
0.0
 11
-29.061094504
 21
13.9878450528
 31
0.0
  0
LINE
  5
94
330
1F
100
AcDbEntity
  8
1
  6
Continuous
370
    50
100
AcDbLine
 10
173.0999929641
 20
-25.0000003725
 30
0.0
 11
183.8667429984
 21
-25.0000003725
 31
0.0
  0
LINE
  5
95
330
1F
100
AcDbEntity
  8
1
  6
Continuous
370
    50
100
AcDbLine
 10
183.8667429984
 20
25.0000003725
 30
0.0
 11
173.0999929641
 21
25.0000003725
 31
0.0
  0
LINE
  5
96
330
1F
100
AcDbEntity
  8
1
  6
Continuous
370
    50
100
AcDbLine
 10
173.0999929641
 20
25.0000003725
 30
0.0
 11
172.9999929667
 21
24.9000005424
 31
0.0
  0
LINE
  5
97
330
1F
100
AcDbEntity
  8
1
  6
Continuous
370
    50
100
AcDbLine
 10
172.9999929667
 20
-24.9000005424
 30
0.0
 11
173.0999929641
 21
-25.0000003725
 31
0.0
  0
LINE
  5
98
330
1F
100
AcDbEntity
  8
1
100
AcDbLine
 10
221.2999947369
 20
0.5000000238
 30
0.0
 11
221.2999947369
 21
0.3000000143
 31
0.0
  0
LINE
  5
99
330
1F
100
AcDbEntity
  8
1
100
AcDbLine
 10
221.2999929667
 20
4.0
 30
0.0
 11
221.2999947369
 21
0.5000000238
 31
0.0
  0
LINE
  5
9A
330
1F
100
AcDbEntity
  8
1
100
AcDbLine
 10
218.5182708261
 20
-24.6274264792
 30
0.0
 11
221.1961324272
 21
-25.1066142956
 31
0.0
  0
LINE
  5
9B
330
1F
100
AcDbEntity
  8
1
100
AcDbLine
 10
221.1961324272
 20
-25.1066142956
 30
0.0
 11
223.2699344811
 21
-25.4775284121
 31
0.0
  0
LINE
  5
9C
330
1F
100
AcDbEntity
  8
1
100
AcDbLine
 10
218.5182708261
 20
-21.4550568054
 30
0.0
 11
218.5182708261
 21
-24.6274264792
 31
0.0
  0
LINE
  5
9D
330
1F
100
AcDbEntity
  8
1
100
AcDbLine
 10
218.518270826
 20
-0.0000003015
 30
0.0
 11
218.518270826
 21
-16.2564868371
 31
0.0
  0
LINE
  5
9E
330
1F
100
AcDbEntity
  8
1
100
AcDbLine
 10
221.7190327998
 20
-4.2530627253
 30
0.0
 11
221.6200816389
 21
-4.5702209028
 31
0.0
  0
LINE
  5
9F
330
1F
100
AcDbEntity
  8
1
100
AcDbLine
 10
221.6200816389
 20
-4.5702209028
 30
0.0
 11
221.5510706361
 21
-4.7192357743
 31
0.0
  0
LINE
  5
A0
330
1F
100
AcDbEntity
  8
1
100
AcDbLine
 10
221.5510706361
 20
-4.7192357743
 30
0.0
 11
221.4546899255
 21
-4.853291277
 31
0.0
  0
LINE
  5
A1
330
1F
100
AcDbEntity
  8
1
100
AcDbLine
 10
221.4546899255
 20
-4.853291277
 30
0.0
 11
221.4022825416
 21
-4.8955132516
 31
0.0
  0
LINE
  5
A2
330
1F
100
AcDbEntity
  8
1
100
AcDbLine
 10
221.4022825416
 20
-4.8955132516
 30
0.0
 11
221.3391723987
 21
-4.9206468539
 31
0.0
  0
LINE
  5
A3
330
1F
100
AcDbEntity
  8
1
100
AcDbLine
 10
221.3391723987
 20
-4.9206468539
 30
0.0
 11
221.287063038
 21
-4.9212708401
 31
0.0
  0
LINE
  5
A4
330
1F
100
AcDbEntity
  8
1
100
AcDbLine
 10
221.287063038
 20
-4.9212708401
 30
0.0
 11
221.2375800069
 21
-4.9053987751
 31
0.0
  0
LINE
  5
A5
330
1F
100
AcDbEntity
  8
1
100
AcDbLine
 10
221.2375800069
 20
-4.9053987751
 30
0.0
 11
221.1711543557
 21
-4.8587641942
 31
0.0
  0
LINE
  5
A6
330
1F
100
AcDbEntity
  8
1
100
AcDbLine
 10
197.6999927609
 20
14.5798944599
 30
0.0
 11
197.6999927609
 21
13.648594237
 31
0.0
  0
LINE
  5
A7
330
1F
100
AcDbEntity
  8
1
100
AcDbLine
 10
197.6999938488
 20
19.5000004023
 30
0.0
 11
197.6999929667
 21
19.4620206843
 31
0.0
  0
LINE
  5
A8
330
1F
100
AcDbEntity
  8
1
100
AcDbLine
 10
209.599994123
 20
19.5000004023
 30
0.0
 11
197.6999938488
 21
19.5000004023
 31
0.0
  0
LINE
  5
A9
330
1F
100
AcDbEntity
  8
1
100
AcDbLine
 10
210.5999924243
 20
18.5000002384
 30
0.0
 11
210.2586701513
 21
18.8413225114
 31
0.0
  0
LINE
  5
AA
330
1F
100
AcDbEntity
  8
1
100
AcDbLine
 10
210.2586701513
 20
18.8413225114
 30
0.0
 11
209.9252901971
 21
19.1747024655
 31
0.0
  0
LINE
  5
AB
330
1F
100
AcDbEntity
  8
1
100
AcDbLine
 10
209.9252901971
 20
19.1747024655
 30
0.0
 11
209.599994123
 21
19.5000004023
 31
0.0
  0
LINE
  5
AC
330
1F
100
AcDbEntity
  8
1
100
AcDbLine
 10
210.5999924243
 20
13.0710676312
 30
0.0
 11
210.5999924243
 21
18.5000002384
 31
0.0
  0
LINE
  5
AD
330
1F
100
AcDbEntity
  8
1
100
AcDbLine
 10
221.6002867061
 20
-0.0000003015
 30
0.0
 11
219.6456157106
 21
1.9546697627
 31
0.0
  0
LINE
  5
AE
330
1F
100
AcDbEntity
  8
1
100
AcDbLine
 10
219.6456157106
 20
1.9546697627
 30
0.0
 11
217.7029140728
 21
3.8973720989
 31
0.0
  0
LINE
  5
AF
330
1F
100
AcDbEntity
  8
1
100
AcDbLine
 10
217.7029140728
 20
3.8973720989
 30
0.0
 11
215.7840729195
 21
5.8162125538
 31
0.0
  0
LINE
  5
B0
330
1F
100
AcDbEntity
  8
1
100
AcDbLine
 10
215.7840729195
 20
5.8162125538
 30
0.0
 11
213.9008455413
 21
7.6994431915
 31
0.0
  0
LINE
  5
B1
330
1F
100
AcDbEntity
  8
1
100
AcDbLine
 10
213.9008455413
 20
7.6994431915
 30
0.0
 11
212.0647542614
 21
9.5355340058
 31
0.0
  0
LINE
  5
B2
330
1F
100
AcDbEntity
  8
1
100
AcDbLine
 10
212.7349960563
 20
-24.6274264792
 30
0.0
 11
218.5182708261
 21
-24.6274264792
 31
0.0
  0
LINE
  5
B3
330
1F
100
AcDbEntity
  8
1
100
AcDbLine
 10
212.534996396
 20
-24.948751394
 30
0.0
 11
212.534996396
 21
-24.6615128855
 31
0.0
  0
LINE
  5
B4
330
1F
100
AcDbEntity
  8
1
100
AcDbLine
 10
212.3640936945
 20
-24.9998035294
 30
0.0
 11
201.1882631787
 21
-24.999802737
 31
0.0
  0
LINE
  5
B5
330
1F
100
AcDbEntity
  8
1
100
AcDbLine
 10
197.6999938359
 20
-24.7259231653
 30
0.0
 11
197.6999929538
 21
-24.8932076703
 31
0.0
  0
LINE
  5
B6
330
1F
100
AcDbEntity
  8
1
100
AcDbLine
 10
200.948069178
 20
-24.3722927203
 30
0.0
 11
201.0774165392
 21
-24.3475381285
 31
0.0
  0
LINE
  5
B7
330
1F
100
AcDbEntity
  8
1
100
AcDbLine
 10
201.0774165392
 20
-24.3475381285
 30
0.0
 11
201.1632863432
 21
-24.3138894439
 31
0.0
  0
LINE
  5
B8
330
1F
100
AcDbEntity
  8
1
100
AcDbLine
 10
201.1632863432
 20
-24.3138894439
 30
0.0
 11
201.1977285147
 21
-24.2738779634
 31
0.0
  0
LINE
  5
B9
330
1F
100
AcDbEntity
  8
1
100
AcDbLine
 10
201.1977285147
 20
-24.2738779634
 30
0.0
 11
201.1745441705
 21
-24.2313481867
 31
0.0
  0
LINE
  5
BA
330
1F
100
AcDbEntity
  8
1
100
AcDbLine
 10
201.1745441705
 20
-24.2313481867
 30
0.0
 11
201.0939791799
 21
-24.1917800158
 31
0.0
  0
LINE
  5
BB
330
1F
100
AcDbEntity
  8
1
100
AcDbLine
 10
201.0939791799
 20
-24.1917800158
 30
0.0
 11
200.9661607444
 21
-24.1610687226
 31
0.0
  0
LINE
  5
BC
330
1F
100
AcDbEntity
  8
1
100
AcDbLine
 10
200.9661607444
 20
-24.1610687226
 30
0.0
 11
200.9480688721
 21
-24.1581536829
 31
0.0
  0
LINE
  5
BD
330
1F
100
AcDbEntity
  8
1
100
AcDbLine
 10
197.6999936681
 20
-23.0449726529
 30
0.0
 11
197.6999927859
 21
-23.5790660046
 31
0.0
  0
LINE
  5
BE
330
1F
100
AcDbEntity
  8
1
100
AcDbLine
 10
200.9480692268
 20
-22.1631408432
 30
0.0
 11
201.0781765472
 21
-22.1063477674
 31
0.0
  0
LINE
  5
BF
330
1F
100
AcDbEntity
  8
1
100
AcDbLine
 10
201.0781765472
 20
-22.1063477674
 30
0.0
 11
201.1620384198
 21
-22.0326596626
 31
0.0
  0
LINE
  5
C0
330
1F
100
AcDbEntity
  8
1
100
AcDbLine
 10
201.1620384198
 20
-22.0326596626
 30
0.0
 11
201.1977490526
 21
-21.9414980837
 31
0.0
  0
LINE
  5
C1
330
1F
100
AcDbEntity
  8
1
100
AcDbLine
 10
201.1977490526
 20
-21.9414980837
 30
0.0
 11
201.1695392918
 21
-21.8397957959
 31
0.0
  0
LINE
  5
C2
330
1F
100
AcDbEntity
  8
1
100
AcDbLine
 10
201.1695392918
 20
-21.8397957959
 30
0.0
 11
201.0696977865
 21
-21.7453447857
 31
0.0
  0
LINE
  5
C3
330
1F
100
AcDbEntity
  8
1
100
AcDbLine
 10
201.0696977865
 20
-21.7453447857
 30
0.0
 11
200.9480689209
 21
-21.689172996
 31
0.0
  0
LINE
  5
C4
330
1F
100
AcDbEntity
  8
1
100
AcDbLine
 10
197.6999935633
 20
-19.4620217754
 30
0.0
 11
197.6999926812
 21
-20.5005574442
 31
0.0
  0
LINE
  5
C5
330
1F
100
AcDbEntity
  8
1
100
AcDbLine
 10
197.6999936877
 20
-12.428587085
 30
0.0
 11
197.6999928056
 21
-14.5798967742
 31
0.0
  0
LINE
  5
C6
330
1F
100
AcDbEntity
  8
1
100
AcDbLine
 10
200.832044106
 20
-8.5293631889
 30
0.0
 11
209.6999924222
 21
-8.5293634715
 31
0.0
  0
LINE
  5
C7
330
1F
100
AcDbEntity
  8
1
100
AcDbLine
 10
209.6999925158
 20
8.5293590845
 30
0.0
 11
200.8320438534
 21
8.5293596299
 31
0.0
  0
LINE
  5
C8
330
1F
100
AcDbEntity
  8
1
100
AcDbLine
 10
197.6999927609
 20
13.4805948204
 30
0.0
 11
197.6999918788
 21
12.4285848505
 31
0.0
  0
LINE
  5
C9
330
1F
100
AcDbEntity
  8
1
100
AcDbLine
 10
221.6002867061
 20
-0.0000003015
 30
0.0
 11
221.6002867061
 21
-2.5000002456
 31
0.0
  0
LINE
  5
CA
330
1F
100
AcDbEntity
  8
1
100
AcDbLine
 10
209.6999925158
 20
8.5293590845
 30
0.0
 11
209.6999924222
 21
-8.5293634715
 31
0.0
  0
LINE
  5
CB
330
1F
100
AcDbEntity
  8
1
100
AcDbLine
 10
224.6499928169
 20
-10.8664506561
 30
0.0
 11
224.6499926654
 21
-13.764973452
 31
0.0
  0
LINE
  5
CC
330
1F
100
AcDbEntity
  8
1
100
AcDbLine
 10
224.6499926654
 20
-13.764973452
 30
0.0
 11
224.49233838
 21
-13.9105987751
 31
0.0
  0
LINE
  5
CD
330
1F
100
AcDbEntity
  8
1
100
AcDbLine
 10
224.2295750288
 20
-13.8640307837
 30
0.0
 11
224.49233838
 21
-13.9105987751
 31
0.0
  0
LINE
  5
CE
330
1F
100
AcDbEntity
  8
1
100
AcDbLine
 10
224.208556867
 20
-24.678178273
 30
0.0
 11
224.2085559299
 21
-14.0634222871
 31
0.0
  0
LINE
  5
CF
330
1F
100
AcDbEntity
  8
1
100
AcDbLine
 10
224.208556867
 20
-24.678178273
 30
0.0
 11
224.208415306
 21
-24.6931353135
 31
0.0
  0
LINE
  5
D0
330
1F
100
AcDbEntity
  8
1
100
AcDbLine
 10
200.8320431748
 20
5.949998003
 30
0.0
 11
200.8320431748
 21
5.0499976692
 31
0.0
  0
LINE
  5
D1
330
1F
100
AcDbEntity
  8
1
100
AcDbLine
 10
200.8320438534
 20
8.5293596299
 30
0.0
 11
200.8320438534
 21
6.0499978331
 31
0.0
  0
LINE
  5
D2
330
1F
100
AcDbEntity
  8
1
100
AcDbLine
 10
200.8320431748
 20
-4.0500022391
 30
0.0
 11
200.832044106
 21
-8.5293631889
 31
0.0
  0
LINE
  5
D3
330
1F
100
AcDbEntity
  8
1
100
AcDbLine
 10
200.8320431748
 20
-3.0500020752
 30
0.0
 11
200.8320431748
 21
-3.9500019434
 31
0.0
  0
LINE
  5
D4
330
1F
100
AcDbEntity
  8
1
100
AcDbLine
 10
200.8320431748
 20
-2.0500021442
 30
0.0
 11
200.8320431748
 21
-2.9500022451
 31
0.0
  0
LINE
  5
D5
330
1F
100
AcDbEntity
  8
1
100
AcDbLine
 10
200.8320431748
 20
-1.0500020967
 30
0.0
 11
200.8320431748
 21
-1.9500020812
 31
0.0
  0
LINE
  5
D6
330
1F
100
AcDbEntity
  8
1
100
AcDbLine
 10
200.8320431748
 20
-0.0500021328
 30
0.0
 11
200.8320431748
 21
-0.9500021501
 31
0.0
  0
LINE
  5
D7
330
1F
100
AcDbEntity
  8
1
100
AcDbLine
 10
200.8320431748
 20
0.9499978819
 30
0.0
 11
200.8320431748
 21
0.0499978646
 31
0.0
  0
LINE
  5
D8
330
1F
100
AcDbEntity
  8
1
100
AcDbLine
 10
200.8320431748
 20
1.949997813
 30
0.0
 11
200.8320431748
 21
1.0499978285
 31
0.0
  0
LINE
  5
D9
330
1F
100
AcDbEntity
  8
1
100
AcDbLine
 10
200.8320431748
 20
2.9499979769
 30
0.0
 11
200.8320431748
 21
2.049997876
 31
0.0
  0
LINE
  5
DA
330
1F
100
AcDbEntity
  8
1
100
AcDbLine
 10
200.8320431748
 20
3.9499976752
 30
0.0
 11
200.8320431748
 21
3.049997807
 31
0.0
  0
LINE
  5
DB
330
1F
100
AcDbEntity
  8
1
100
AcDbLine
 10
200.8320431748
 20
4.9499978391
 30
0.0
 11
200.8320431748
 21
4.049997971
 31
0.0
  0
LINE
  5
DC
330
1F
100
AcDbEntity
  8
1
100
AcDbLine
 10
200.8320431748
 20
4.049997971
 30
0.0
 11
200.8147243002
 21
4.049997971
 31
0.0
  0
LINE
  5
DD
330
1F
100
AcDbEntity
  8
1
100
AcDbLine
 10
200.8147243002
 20
4.049997971
 30
0.0
 11
200.8147243002
 21
3.9499976752
 31
0.0
  0
LINE
  5
DE
330
1F
100
AcDbEntity
  8
1
100
AcDbLine
 10
200.8147243002
 20
3.9499976752
 30
0.0
 11
200.8320431748
 21
3.9499976752
 31
0.0
  0
LINE
  5
DF
330
1F
100
AcDbEntity
  8
1
100
AcDbLine
 10
200.8320431748
 20
3.049997807
 30
0.0
 11
200.8147243002
 21
3.049997807
 31
0.0
  0
LINE
  5
E0
330
1F
100
AcDbEntity
  8
1
100
AcDbLine
 10
200.8147243002
 20
3.049997807
 30
0.0
 11
200.8147243002
 21
2.9499979769
 31
0.0
  0
LINE
  5
E1
330
1F
100
AcDbEntity
  8
1
100
AcDbLine
 10
200.8147243002
 20
2.9499979769
 30
0.0
 11
200.8320431748
 21
2.9499979769
 31
0.0
  0
LINE
  5
E2
330
1F
100
AcDbEntity
  8
1
100
AcDbLine
 10
200.8320431748
 20
2.049997876
 30
0.0
 11
200.8147243002
 21
2.049997876
 31
0.0
  0
LINE
  5
E3
330
1F
100
AcDbEntity
  8
1
100
AcDbLine
 10
200.8147243002
 20
2.049997876
 30
0.0
 11
200.8147243002
 21
1.949997813
 31
0.0
  0
LINE
  5
E4
330
1F
100
AcDbEntity
  8
1
100
AcDbLine
 10
200.8147243002
 20
1.949997813
 30
0.0
 11
200.8320431748
 21
1.949997813
 31
0.0
  0
LINE
  5
E5
330
1F
100
AcDbEntity
  8
1
100
AcDbLine
 10
200.8320431748
 20
1.0499978285
 30
0.0
 11
200.8147243002
 21
1.0499978285
 31
0.0
  0
LINE
  5
E6
330
1F
100
AcDbEntity
  8
1
100
AcDbLine
 10
200.8147243002
 20
1.0499978285
 30
0.0
 11
200.8147243002
 21
0.9499978819
 31
0.0
  0
LINE
  5
E7
330
1F
100
AcDbEntity
  8
1
100
AcDbLine
 10
200.8147243002
 20
0.9499978819
 30
0.0
 11
200.8320431748
 21
0.9499978819
 31
0.0
  0
LINE
  5
E8
330
1F
100
AcDbEntity
  8
1
100
AcDbLine
 10
200.8320431748
 20
0.0499978646
 30
0.0
 11
200.8147243002
 21
0.0499978646
 31
0.0
  0
LINE
  5
E9
330
1F
100
AcDbEntity
  8
1
100
AcDbLine
 10
200.8147243002
 20
0.0499978646
 30
0.0
 11
200.8147243002
 21
-0.0500021328
 31
0.0
  0
LINE
  5
EA
330
1F
100
AcDbEntity
  8
1
100
AcDbLine
 10
200.8147243002
 20
-0.0500021328
 30
0.0
 11
200.8320431748
 21
-0.0500021328
 31
0.0
  0
LINE
  5
EB
330
1F
100
AcDbEntity
  8
1
100
AcDbLine
 10
200.8320431748
 20
-0.9500021501
 30
0.0
 11
200.8147243002
 21
-0.9500021501
 31
0.0
  0
LINE
  5
EC
330
1F
100
AcDbEntity
  8
1
100
AcDbLine
 10
200.8147243002
 20
-0.9500021501
 30
0.0
 11
200.8147243002
 21
-1.0500020967
 31
0.0
  0
LINE
  5
ED
330
1F
100
AcDbEntity
  8
1
100
AcDbLine
 10
200.8147243002
 20
-1.0500020967
 30
0.0
 11
200.8320431748
 21
-1.0500020967
 31
0.0
  0
LINE
  5
EE
330
1F
100
AcDbEntity
  8
1
100
AcDbLine
 10
200.8320431748
 20
-1.9500020812
 30
0.0
 11
200.8147243002
 21
-1.9500020812
 31
0.0
  0
LINE
  5
EF
330
1F
100
AcDbEntity
  8
1
100
AcDbLine
 10
200.8147243002
 20
-1.9500020812
 30
0.0
 11
200.8147243002
 21
-2.0500021442
 31
0.0
  0
LINE
  5
F0
330
1F
100
AcDbEntity
  8
1
100
AcDbLine
 10
200.8147243002
 20
-2.0500021442
 30
0.0
 11
200.8320431748
 21
-2.0500021442
 31
0.0
  0
LINE
  5
F1
330
1F
100
AcDbEntity
  8
1
100
AcDbLine
 10
200.8320431748
 20
-2.9500022451
 30
0.0
 11
200.8147243002
 21
-2.9500022451
 31
0.0
  0
LINE
  5
F2
330
1F
100
AcDbEntity
  8
1
100
AcDbLine
 10
200.8147243002
 20
-2.9500022451
 30
0.0
 11
200.8147243002
 21
-3.0500020752
 31
0.0
  0
LINE
  5
F3
330
1F
100
AcDbEntity
  8
1
100
AcDbLine
 10
200.8147243002
 20
-3.0500020752
 30
0.0
 11
200.8320431748
 21
-3.0500020752
 31
0.0
  0
LINE
  5
F4
330
1F
100
AcDbEntity
  8
1
100
AcDbLine
 10
200.8320431748
 20
-3.9500019434
 30
0.0
 11
200.8147243002
 21
-3.9500019434
 31
0.0
  0
LINE
  5
F5
330
1F
100
AcDbEntity
  8
1
100
AcDbLine
 10
200.8147243002
 20
-3.9500019434
 30
0.0
 11
200.8147243002
 21
-4.0500022391
 31
0.0
  0
LINE
  5
F6
330
1F
100
AcDbEntity
  8
1
100
AcDbLine
 10
200.8147243002
 20
-4.0500022391
 30
0.0
 11
200.8320431748
 21
-4.0500022391
 31
0.0
  0
LINE
  5
F7
330
1F
100
AcDbEntity
  8
1
100
AcDbLine
 10
200.8320438534
 20
6.0499978331
 30
0.0
 11
200.8147243002
 21
6.0499978331
 31
0.0
  0
LINE
  5
F8
330
1F
100
AcDbEntity
  8
1
100
AcDbLine
 10
200.8147243002
 20
6.0499978331
 30
0.0
 11
200.8147243002
 21
5.949998003
 31
0.0
  0
LINE
  5
F9
330
1F
100
AcDbEntity
  8
1
100
AcDbLine
 10
200.8147243002
 20
5.949998003
 30
0.0
 11
200.8320431748
 21
5.949998003
 31
0.0
  0
LINE
  5
FA
330
1F
100
AcDbEntity
  8
1
100
AcDbLine
 10
200.8320431748
 20
5.0499976692
 30
0.0
 11
200.8147243002
 21
5.0499976692
 31
0.0
  0
LINE
  5
FB
330
1F
100
AcDbEntity
  8
1
100
AcDbLine
 10
200.8147243002
 20
5.0499976692
 30
0.0
 11
200.8147243002
 21
4.9499978391
 31
0.0
  0
LINE
  5
FC
330
1F
100
AcDbEntity
  8
1
100
AcDbLine
 10
200.8147243002
 20
4.9499978391
 30
0.0
 11
200.8320431748
 21
4.9499978391
 31
0.0
  0
LINE
  5
FD
330
1F
100
AcDbEntity
  8
1
100
AcDbLine
 10
197.6899922191
 20
13.6431683517
 30
0.0
 11
197.6899922191
 21
13.4751689351
 31
0.0
  0
LINE
  5
FE
330
1F
100
AcDbEntity
  8
1
100
AcDbLine
 10
197.3999914079
 20
13.3674978009
 30
0.0
 11
197.3999914079
 21
12.7261127076
 31
0.0
  0
LINE
  5
FF
330
1F
100
AcDbEntity
  8
1
100
AcDbLine
 10
197.6499919145
 20
14.4534599698
 30
0.0
 11
197.4177740811
 21
13.6029864392
 31
0.0
  0
LINE
  5
100
330
1F
100
AcDbEntity
  8
1
100
AcDbLine
 10
197.4177740811
 20
13.6029864392
 30
0.0
 11
197.3999914079
 21
13.3674978009
 31
0.0
  0
LINE
  5
101
330
1F
100
AcDbEntity
  8
1
100
AcDbLine
 10
197.6999927609
 20
14.5798944599
 30
0.0
 11
197.6499919145
 21
14.4534599698
 31
0.0
  0
LINE
  5
102
330
1F
100
AcDbEntity
  8
1
100
AcDbLine
 10
197.6899922191
 20
13.6431683517
 30
0.0
 11
197.6999927609
 21
13.648594237
 31
0.0
  0
LINE
  5
103
330
1F
100
AcDbEntity
  8
1
100
AcDbLine
 10
197.6999927609
 20
13.4805948204
 30
0.0
 11
197.6899922191
 21
13.4751689351
 31
0.0
  0
LINE
  5
104
330
1F
100
AcDbEntity
  8
1
100
AcDbLine
 10
197.3999923347
 20
-12.7261148453
 30
0.0
 11
197.3999923347
 21
-13.3674999386
 31
0.0
  0
LINE
  5
105
330
1F
100
AcDbEntity
  8
1
100
AcDbLine
 10
197.6499928413
 20
-14.4534621075
 30
0.0
 11
197.6999928056
 21
-14.5798967742
 31
0.0
  0
LINE
  5
106
330
1F
100
AcDbEntity
  8
1
100
AcDbLine
 10
197.3999923347
 20
-13.3674999386
 30
0.0
 11
197.4331921218
 21
-13.7018717513
 31
0.0
  0
LINE
  5
107
330
1F
100
AcDbEntity
  8
1
100
AcDbLine
 10
197.4331921218
 20
-13.7018717513
 30
0.0
 11
197.6499928413
 21
-14.4534621075
 31
0.0
  0
LINE
  5
108
330
1F
100
AcDbEntity
  8
1
100
AcDbLine
 10
197.6499930024
 20
19.4210670888
 30
0.0
 11
197.6999929667
 21
19.4620206843
 31
0.0
  0
LINE
  5
109
330
1F
100
AcDbEntity
  8
1
100
AcDbLine
 10
197.5578498095
 20
19.3578563631
 30
0.0
 11
197.5854802877
 21
19.3739328533
 31
0.0
  0
LINE
  5
10A
330
1F
100
AcDbEntity
  8
1
100
AcDbLine
 10
197.5854802877
 20
19.3739328533
 30
0.0
 11
197.6499930024
 21
19.4210670888
 31
0.0
  0
LINE
  5
10B
330
1F
100
AcDbEntity
  8
1
100
AcDbLine
 10
197.5578498095
 20
19.3578563631
 30
0.0
 11
197.6999938488
 21
19.5000004023
 31
0.0
  0
LINE
  5
10C
330
1F
100
AcDbEntity
  8
1
100
AcDbLine
 10
197.3999922103
 20
-19.6004088594
 30
0.0
 11
197.3999922103
 21
-19.7972755506
 31
0.0
  0
LINE
  5
10D
330
1F
100
AcDbEntity
  8
1
100
AcDbLine
 10
197.6499927169
 20
-20.4193152114
 30
0.0
 11
197.6999926812
 21
-20.5005574442
 31
0.0
  0
LINE
  5
10E
330
1F
100
AcDbEntity
  8
1
100
AcDbLine
 10
197.3999924958
 20
19.200000912
 30
0.0
 11
197.410389781
 21
19.2103981972
 31
0.0
  0
LINE
  5
10F
330
1F
100
AcDbEntity
  8
1
100
AcDbLine
 10
197.410389781
 20
19.2103981972
 30
0.0
 11
197.4411513657
 21
19.2411579192
 31
0.0
  0
LINE
  5
110
330
1F
100
AcDbEntity
  8
1
100
AcDbLine
 10
197.4411513657
 20
19.2411579192
 30
0.0
 11
197.4909957498
 21
19.2910023034
 31
0.0
  0
LINE
  5
111
330
1F
100
AcDbEntity
  8
1
100
AcDbLine
 10
197.4909957498
 20
19.2910023034
 30
0.0
 11
197.5578498095
 21
19.3578563631
 31
0.0
  0
LINE
  5
112
330
1F
100
AcDbEntity
  8
1
100
AcDbLine
 10
197.3999924958
 20
19.200000912
 30
0.0
 11
197.3999924958
 21
18.5000002384
 31
0.0
  0
LINE
  5
113
330
1F
100
AcDbEntity
  8
1
100
AcDbLine
 10
197.6499928217
 20
-23.5158325828
 30
0.0
 11
197.6999927859
 21
-23.5790660046
 31
0.0
  0
LINE
  5
114
330
1F
100
AcDbEntity
  8
1
100
AcDbLine
 10
197.6499929895
 20
-24.8402933027
 30
0.0
 11
197.6999929538
 21
-24.8932076703
 31
0.0
  0
LINE
  5
115
330
1F
100
AcDbEntity
  8
1
100
AcDbLine
 10
197.550283732
 20
-24.7325560447
 30
0.0
 11
197.6499929895
 21
-24.8402933027
 31
0.0
  0
LINE
  5
116
330
1F
100
AcDbEntity
  8
1
100
AcDbLine
 10
224.2374239129
 20
-14.2164946243
 30
0.0
 11
224.2085566383
 21
-14.2114049464
 31
0.0
  0
LINE
  5
117
330
1F
100
AcDbEntity
  8
CUT
100
AcDbLine
 10
224.4155375843
 20
-25.6999999156
 30
0.0
 11
224.4155390712
 21
-14.4287653392
 31
0.0
  0
LINE
  5
118
330
1F
100
AcDbEntity
  8
CUT
100
AcDbLine
 10
216.8758325279
 20
-24.6274229139
 30
0.0
 11
224.1625638851
 21
-25.9122708687
 31
0.0
  0
LINE
  5
119
330
1F
100
AcDbEntity
  8
CUT
100
AcDbLine
 10
224.9999910213
 20
-14.4287653392
 30
0.0
 11
224.9999920942
 21
-25.6999999156
 31
0.0
  0
LINE
  5
11A
330
1F
100
AcDbEntity
  8
CUT
100
AcDbLine
 10
224.0610744246
 20
-26.4878462013
 30
0.0
 11
213.5100960732
 21
-24.6274229139
 31
0.0
  0
LINE
  5
11B
330
1F
100
AcDbEntity
  8
1
100
AcDbLine
 10
212.2999926253
 20
23.7427709589
 30
0.0
 11
212.2999926253
 21
12.4715354258
 31
0.0
  0
LINE
  5
11C
330
1F
100
AcDbEntity
  8
CUT
100
AcDbLine
 10
224.0610759043
 20
26.4878468821
 30
0.0
 11
212.9610747309
 21
24.53061767
 31
0.0
  0
LINE
  5
11D
330
1F
100
AcDbEntity
  8
CUT
100
AcDbLine
 10
224.9999940396
 20
14.4287645817
 30
0.0
 11
224.9999929667
 21
25.6999999989
 31
0.0
  0
LINE
  5
11E
330
1F
100
AcDbEntity
  8
1
100
AcDbLine
 10
213.2389104702
 20
11.6836879707
 30
0.0
 11
224.3389121384
 21
13.6409178763
 31
0.0
  0
LINE
  5
11F
330
1F
100
AcDbEntity
  8
1
100
AcDbLine
 10
214.9569913745
 20
18.8557673246
 30
0.0
 11
214.9732708931
 21
18.518621102
 31
0.0
  0
LINE
  5
120
330
1F
100
AcDbEntity
  8
1
100
AcDbLine
 10
201.3879679073
 20
19.5000011097
 30
0.0
 11
201.3879679073
 21
24.9997999143
 31
0.0
  0
LINE
  5
121
330
1F
100
AcDbEntity
  8
1
100
AcDbLine
 10
212.3637981642
 20
24.9997999143
 30
0.0
 11
201.3879679073
 21
24.9997999143
 31
0.0
  0
LINE
  5
122
330
1F
100
AcDbEntity
  8
1
100
AcDbLine
 10
212.3637981642
 20
24.0558448802
 30
0.0
 11
212.3637981642
 21
24.9997999143
 31
0.0
  0
LINE
  5
123
330
1F
100
AcDbEntity
  8
1
100
AcDbLine
 10
211.313277483
 20
14.3870925531
 30
0.0
 11
212.2999913991
 21
15.5630139634
 31
0.0
  0
LINE
  5
124
330
1F
100
AcDbEntity
  8
1
100
AcDbLine
 10
216.2834256888
 20
12.2205186635
 30
0.0
 11
215.2967085188
 21
11.0445968224
 31
0.0
  0
LINE
  5
125
330
1F
100
AcDbEntity
  8
1
100
AcDbLine
 10
224.6502870658
 20
13.764973106
 30
0.0
 11
224.6455633977
 21
13.7641349156
 31
0.0
  0
LINE
  5
126
330
1F
100
AcDbEntity
  8
1
100
AcDbLine
 10
224.6502870658
 20
10.8664504533
 30
0.0
 11
224.6502870658
 21
13.764973106
 31
0.0
  0
LINE
  5
127
330
1F
100
AcDbEntity
  8
1
100
AcDbLine
 10
221.6002867061
 20
-0.0000003015
 30
0.0
 11
221.6002873081
 21
2.4999996985
 31
0.0
  0
LINE
  5
128
330
1F
100
AcDbEntity
  8
1
100
AcDbLine
 10
224.6502870658
 20
13.764973106
 30
0.0
 11
224.6488193015
 21
13.7663291116
 31
0.0
  0
LINE
  5
129
330
1F
100
AcDbEntity
  8
1
100
AcDbLine
 10
212.5349934853
 20
24.9487391624
 30
0.0
 11
212.5349934853
 21
24.3088404599
 31
0.0
  0
LINE
  5
12A
330
1F
100
AcDbEntity
  8
1
100
AcDbLine
 10
212.7346992493
 20
24.627422914
 30
0.0
 11
213.5100960732
 21
24.6274229139
 31
0.0
  0
LINE
  5
12B
330
1F
100
AcDbEntity
  8
SK1
100
AcDbLine
 10
-3.9629979486
 20
16.5
 30
0.0
 11
-11.0370161181
 21
16.5
 31
0.0
  0
LINE
  5
12C
330
1F
100
AcDbEntity
  8
SK1
100
AcDbLine
 10
-3.9629979486
 20
-16.5
 30
0.0
 11
-11.0370161181
 21
-16.5
 31
0.0
  0
LINE
  5
12D
330
1F
100
AcDbEntity
  8
1
  6
Continuous
370
    50
100
AcDbLine
 10
62.2652620077
 20
6.1263577081
 30
0.0
 11
60.3781789541
 21
6.1263577081
 31
0.0
  0
LINE
  5
12E
330
1F
100
AcDbEntity
  8
1
  6
Continuous
370
    50
100
AcDbLine
 10
60.5042725801
 20
6.4058448188
 30
0.0
 11
60.9245970845
 21
6.3709090464
 31
0.0
  0
LINE
  5
12F
330
1F
100
AcDbEntity
  8
1
  6
Continuous
370
    50
100
AcDbLine
 10
72.6142898202
 20
7.0346910507
 30
0.0
 11
72.492338717
 21
6.5740873106
 31
0.0
  0
LINE
  5
130
330
1F
100
AcDbEntity
  8
1
  6
Continuous
370
    50
100
AcDbLine
 10
72.492338717
 20
6.5740873106
 30
0.0
 11
72.3697394133
 21
6.1110733077
 31
0.0
  0
LINE
  5
131
330
1F
100
AcDbEntity
  8
1
  6
Continuous
370
    50
100
AcDbLine
 10
71.2201297284
 20
5.671099294
 30
0.0
 11
71.3391676545
 21
6.1278492212
 31
0.0
  0
LINE
  5
132
330
1F
100
AcDbEntity
  8
1
  6
Continuous
370
    50
100
AcDbLine
 10
71.3391676545
 20
6.1278492212
 30
0.0
 11
71.457631886
 21
6.5824333578
 31
0.0
  0
LINE
  5
133
330
1F
100
AcDbEntity
  8
1
  6
Continuous
370
    50
100
AcDbLine
 10
71.457631886
 20
6.5824333578
 30
0.0
 11
71.5754926205
 21
7.0346910507
 31
0.0
  0
LINE
  5
134
330
1F
100
AcDbEntity
  8
1
  6
Continuous
370
    50
100
AcDbLine
 10
71.5754926205
 20
7.0346910507
 30
0.0
 11
71.147531271
 21
7.0346910507
 31
0.0
  0
LINE
  5
135
330
1F
100
AcDbEntity
  8
1
  6
Continuous
370
    50
100
AcDbLine
 10
71.147531271
 20
7.0346910507
 30
0.0
 11
71.0206851363
 21
6.5626818687
 31
0.0
  0
LINE
  5
136
330
1F
100
AcDbEntity
  8
1
  6
Continuous
370
    50
100
AcDbLine
 10
71.0206851363
 20
6.5626818687
 30
0.0
 11
70.8931535483
 21
6.0881464742
 31
0.0
  0
LINE
  5
137
330
1F
100
AcDbEntity
  8
1
  6
Continuous
370
    50
100
AcDbLine
 10
70.0104758143
 20
5.2529601381
 30
0.0
 11
69.8576718569
 21
5.2760238759
 31
0.0
  0
LINE
  5
138
330
1F
100
AcDbEntity
  8
1
  6
Continuous
370
    50
100
AcDbLine
 10
69.8576718569
 20
5.2760238759
 30
0.0
 11
69.7929337621
 21
5.3091500886
 31
0.0
  0
LINE
  5
139
330
1F
100
AcDbEntity
  8
1
  6
Continuous
370
    50
100
AcDbLine
 10
69.7929337621
 20
5.3091500886
 30
0.0
 11
69.7427988053
 21
5.3621577099
 31
0.0
  0
LINE
  5
13A
330
1F
100
AcDbEntity
  8
1
  6
Continuous
370
    50
100
AcDbLine
 10
69.7427988053
 20
5.3621577099
 30
0.0
 11
69.7193741799
 21
5.4196394049
 31
0.0
  0
LINE
  5
13B
330
1F
100
AcDbEntity
  8
1
  6
Continuous
370
    50
100
AcDbLine
 10
69.7193741799
 20
5.4196394049
 30
0.0
 11
69.7146132589
 21
5.4658506997
 31
0.0
  0
LINE
  5
13C
330
1F
100
AcDbEntity
  8
1
  6
Continuous
370
    50
100
AcDbLine
 10
69.7599202394
 20
5.7000303641
 30
0.0
 11
69.8765665293
 21
6.1470498331
 31
0.0
  0
LINE
  5
13D
330
1F
100
AcDbEntity
  8
1
  6
Continuous
370
    50
100
AcDbLine
 10
69.8765665293
 20
6.1470498331
 30
0.0
 11
69.9926689267
 21
6.5919868648
 31
0.0
  0
LINE
  5
13E
330
1F
100
AcDbEntity
  8
1
  6
Continuous
370
    50
100
AcDbLine
 10
69.9926689267
 20
6.5919868648
 30
0.0
 11
70.1081901789
 21
7.0346910507
 31
0.0
  0
LINE
  5
13F
330
1F
100
AcDbEntity
  8
1
  6
Continuous
370
    50
100
AcDbLine
 10
70.1081901789
 20
7.0346910507
 30
0.0
 11
69.6802213788
 21
7.0346910507
 31
0.0
  0
LINE
  5
140
330
1F
100
AcDbEntity
  8
1
  6
Continuous
370
    50
100
AcDbLine
 10
69.6802213788
 20
7.0346910507
 30
0.0
 11
69.5012509823
 21
6.4112688415
 31
0.0
  0
LINE
  5
141
330
1F
100
AcDbEntity
  8
1
  6
Continuous
370
    50
100
AcDbLine
 10
69.5012509823
 20
6.4112688415
 30
0.0
 11
69.3210363388
 21
5.7835490443
 31
0.0
  0
LINE
  5
142
330
1F
100
AcDbEntity
  8
1
  6
Continuous
370
    50
100
AcDbLine
 10
69.2631751299
 20
5.4871398024
 30
0.0
 11
69.2989975214
 21
5.2933460102
 31
0.0
  0
LINE
  5
143
330
1F
100
AcDbEntity
  8
1
  6
Continuous
370
    50
100
AcDbLine
 10
69.2989975214
 20
5.2933460102
 30
0.0
 11
69.369584322
 21
5.18203713
 31
0.0
  0
LINE
  5
144
330
1F
100
AcDbEntity
  8
1
  6
Continuous
370
    50
100
AcDbLine
 10
69.369584322
 20
5.18203713
 30
0.0
 11
69.4727897644
 21
5.0985356793
 31
0.0
  0
LINE
  5
145
330
1F
100
AcDbEntity
  8
1
  6
Continuous
370
    50
100
AcDbLine
 10
69.4727897644
 20
5.0985356793
 30
0.0
 11
69.6447044611
 21
5.0333365798
 31
0.0
  0
LINE
  5
146
330
1F
100
AcDbEntity
  8
1
  6
Continuous
370
    50
100
AcDbLine
 10
69.6447044611
 20
5.0333365798
 30
0.0
 11
69.8936581612
 21
5.0084087998
 31
0.0
  0
LINE
  5
147
330
1F
100
AcDbEntity
  8
1
  6
Continuous
370
    50
100
AcDbLine
 10
72.1819624305
 20
5.4008918814
 30
0.0
 11
72.0875263214
 21
5.0433445722
 31
0.0
  0
LINE
  5
148
330
1F
100
AcDbEntity
  8
1
  6
Continuous
370
    50
100
AcDbLine
 10
72.0875263214
 20
5.0433445722
 30
0.0
 11
72.5160315633
 21
5.0433445722
 31
0.0
  0
LINE
  5
149
330
1F
100
AcDbEntity
  8
1
  6
Continuous
370
    50
100
AcDbLine
 10
72.5160315633
 20
5.0433445722
 30
0.0
 11
72.692796588
 21
5.7115713134
 31
0.0
  0
LINE
  5
14A
330
1F
100
AcDbEntity
  8
1
  6
Continuous
370
    50
100
AcDbLine
 10
72.692796588
 20
5.7115713134
 30
0.0
 11
72.868436575
 21
6.3755190931
 31
0.0
  0
LINE
  5
14B
330
1F
100
AcDbEntity
  8
1
  6
Continuous
370
    50
100
AcDbLine
 10
72.868436575
 20
6.3755190931
 30
0.0
 11
73.0428025127
 21
7.0346910507
 31
0.0
  0
LINE
  5
14C
330
1F
100
AcDbEntity
  8
1
  6
Continuous
370
    50
100
AcDbLine
 10
73.0428025127
 20
7.0346910507
 30
0.0
 11
72.6142898202
 21
7.0346910507
 31
0.0
  0
LINE
  5
14D
330
1F
100
AcDbEntity
  8
1
  6
Continuous
370
    50
100
AcDbLine
 10
79.8376500607
 20
7.0346910507
 30
0.0
 11
79.6183720231
 21
6.1344825663
 31
0.0
  0
LINE
  5
14E
330
1F
100
AcDbEntity
  8
1
  6
Continuous
370
    50
100
AcDbLine
 10
79.6183720231
 20
6.1344825663
 30
0.0
 11
79.397007823
 21
5.2257273346
 31
0.0
  0
LINE
  5
14F
330
1F
100
AcDbEntity
  8
1
  6
Continuous
370
    50
100
AcDbLine
 10
79.397007823
 20
5.2257273346
 30
0.0
 11
79.1738703847
 21
4.3096910231
 31
0.0
  0
LINE
  5
150
330
1F
100
AcDbEntity
  8
1
  6
Continuous
370
    50
100
AcDbLine
 10
79.1738703847
 20
4.3096910231
 30
0.0
 11
79.5930996537
 21
4.3096910231
 31
0.0
  0
LINE
  5
151
330
1F
100
AcDbEntity
  8
1
  6
Continuous
370
    50
100
AcDbLine
 10
79.5930996537
 20
4.3096910231
 30
0.0
 11
79.7388851643
 21
4.8348330893
 31
0.0
  0
LINE
  5
152
330
1F
100
AcDbEntity
  8
1
  6
Continuous
370
    50
100
AcDbLine
 10
79.7388851643
 20
4.8348330893
 30
0.0
 11
79.8840522766
 21
5.3577679209
 31
0.0
  0
LINE
  5
153
330
1F
100
AcDbEntity
  8
1
  6
Continuous
370
    50
100
AcDbLine
 10
80.1804587245
 20
6.7508369684
 30
0.0
 11
80.2568793297
 21
7.0346910507
 31
0.0
  0
LINE
  5
154
330
1F
100
AcDbEntity
  8
1
  6
Continuous
370
    50
100
AcDbLine
 10
80.2568793297
 20
7.0346910507
 30
0.0
 11
79.8376500607
 21
7.0346910507
 31
0.0
  0
LINE
  5
155
330
1F
100
AcDbEntity
  8
1
  6
Continuous
370
    50
100
AcDbLine
 10
91.0343304277
 20
7.0346910507
 30
0.0
 11
90.9319370985
 21
6.6455346532
 31
0.0
  0
LINE
  5
156
330
1F
100
AcDbEntity
  8
1
  6
Continuous
370
    50
100
AcDbLine
 10
90.9319370985
 20
6.6455346532
 30
0.0
 11
90.8290818334
 21
6.2546376139
 31
0.0
  0
LINE
  5
157
330
1F
100
AcDbEntity
  8
1
  6
Continuous
370
    50
100
AcDbLine
 10
90.8290818334
 20
6.2546376139
 30
0.0
 11
90.7088965178
 21
5.8942195028
 31
0.0
  0
LINE
  5
158
330
1F
100
AcDbEntity
  8
1
  6
Continuous
370
    50
100
AcDbLine
 10
90.7088965178
 20
5.8942195028
 30
0.0
 11
90.5167236924
 21
5.5605401285
 31
0.0
  0
LINE
  5
159
330
1F
100
AcDbEntity
  8
1
  6
Continuous
370
    50
100
AcDbLine
 10
90.5167236924
 20
5.5605401285
 30
0.0
 11
90.2968645096
 21
5.3676902317
 31
0.0
  0
LINE
  5
15A
330
1F
100
AcDbEntity
  8
1
  6
Continuous
370
    50
100
AcDbLine
 10
90.2968645096
 20
5.3676902317
 30
0.0
 11
90.0942310691
 21
5.2726268768
 31
0.0
  0
LINE
  5
15B
330
1F
100
AcDbEntity
  8
1
  6
Continuous
370
    50
100
AcDbLine
 10
90.0942310691
 20
5.2726268768
 30
0.0
 11
89.9562314153
 21
5.252960138
 31
0.0
  0
LINE
  5
15C
330
1F
100
AcDbEntity
  8
1
  6
Continuous
370
    50
100
AcDbLine
 10
89.710585773
 20
5.3577679209
 30
0.0
 11
89.5337238908
 21
5.0433445722
 31
0.0
  0
LINE
  5
15D
330
1F
100
AcDbEntity
  8
1
  6
Continuous
370
    50
100
AcDbLine
 10
90.6298384071
 20
5.385607481
 30
0.0
 11
90.5102938414
 21
5.0433445722
 31
0.0
  0
LINE
  5
15E
330
1F
100
AcDbEntity
  8
1
  6
Continuous
370
    50
100
AcDbLine
 10
90.5102938414
 20
5.0433445722
 30
0.0
 11
90.9382551909
 21
5.0433445722
 31
0.0
  0
LINE
  5
15F
330
1F
100
AcDbEntity
  8
1
  6
Continuous
370
    50
100
AcDbLine
 10
90.9382551909
 20
5.0433445722
 30
0.0
 11
91.1141037941
 21
5.7115713134
 31
0.0
  0
LINE
  5
160
330
1F
100
AcDbEntity
  8
1
  6
Continuous
370
    50
100
AcDbLine
 10
91.1141037941
 20
5.7115713134
 30
0.0
 11
91.2888273597
 21
6.3755190931
 31
0.0
  0
LINE
  5
161
330
1F
100
AcDbEntity
  8
1
  6
Continuous
370
    50
100
AcDbLine
 10
91.2888273597
 20
6.3755190931
 30
0.0
 11
91.4622992277
 21
7.0346910507
 31
0.0
  0
LINE
  5
162
330
1F
100
AcDbEntity
  8
1
  6
Continuous
370
    50
100
AcDbLine
 10
91.4622992277
 20
7.0346910507
 30
0.0
 11
91.0343304277
 21
7.0346910507
 31
0.0
  0
LINE
  5
163
330
1F
100
AcDbEntity
  8
1
  6
Continuous
370
    50
100
AcDbLine
 10
101.2872904539
 20
7.0346910507
 30
0.0
 11
101.1653319001
 21
6.5740873106
 31
0.0
  0
LINE
  5
164
330
1F
100
AcDbEntity
  8
1
  6
Continuous
370
    50
100
AcDbLine
 10
101.1653319001
 20
6.5740873106
 30
0.0
 11
101.042740047
 21
6.1110733077
 31
0.0
  0
LINE
  5
165
330
1F
100
AcDbEntity
  8
1
  6
Continuous
370
    50
100
AcDbLine
 10
99.893130362
 20
5.671099294
 30
0.0
 11
100.0121608377
 21
6.1278492212
 31
0.0
  0
LINE
  5
166
330
1F
100
AcDbEntity
  8
1
  6
Continuous
370
    50
100
AcDbLine
 10
100.0121608377
 20
6.1278492212
 30
0.0
 11
100.1306250692
 21
6.5824333578
 31
0.0
  0
LINE
  5
167
330
1F
100
AcDbEntity
  8
1
  6
Continuous
370
    50
100
AcDbLine
 10
100.1306250692
 20
6.5824333578
 30
0.0
 11
100.2484932542
 21
7.0346910507
 31
0.0
  0
LINE
  5
168
330
1F
100
AcDbEntity
  8
1
  6
Continuous
370
    50
100
AcDbLine
 10
100.2484932542
 20
7.0346910507
 30
0.0
 11
99.8205244541
 21
7.0346910507
 31
0.0
  0
LINE
  5
169
330
1F
100
AcDbEntity
  8
1
  6
Continuous
370
    50
100
AcDbLine
 10
99.8205244541
 20
7.0346910507
 30
0.0
 11
99.6936783195
 21
6.5626818687
 31
0.0
  0
LINE
  5
16A
330
1F
100
AcDbEntity
  8
1
  6
Continuous
370
    50
100
AcDbLine
 10
99.6936783195
 20
6.5626818687
 30
0.0
 11
99.5661467314
 21
6.0881464742
 31
0.0
  0
LINE
  5
16B
330
1F
100
AcDbEntity
  8
1
  6
Continuous
370
    50
100
AcDbLine
 10
98.6834689975
 20
5.2529601381
 30
0.0
 11
98.53066504
 21
5.2760238759
 31
0.0
  0
LINE
  5
16C
330
1F
100
AcDbEntity
  8
1
  6
Continuous
370
    50
100
AcDbLine
 10
98.53066504
 20
5.2760238759
 30
0.0
 11
98.4659343958
 21
5.3091500886
 31
0.0
  0
LINE
  5
16D
330
1F
100
AcDbEntity
  8
1
  6
Continuous
370
    50
100
AcDbLine
 10
98.4659343958
 20
5.3091500886
 30
0.0
 11
98.4157919884
 21
5.3621577099
 31
0.0
  0
LINE
  5
16E
330
1F
100
AcDbEntity
  8
1
  6
Continuous
370
    50
100
AcDbLine
 10
98.4157919884
 20
5.3621577099
 30
0.0
 11
98.392367363
 21
5.4196394049
 31
0.0
  0
LINE
  5
16F
330
1F
100
AcDbEntity
  8
1
  6
Continuous
370
    50
100
AcDbLine
 10
98.392367363
 20
5.4196394049
 30
0.0
 11
98.387606442
 21
5.4658506997
 31
0.0
  0
LINE
  5
170
330
1F
100
AcDbEntity
  8
1
  6
Continuous
370
    50
100
AcDbLine
 10
98.4329134226
 20
5.7000303641
 30
0.0
 11
98.5495597124
 21
6.1470498331
 31
0.0
  0
LINE
  5
171
330
1F
100
AcDbEntity
  8
1
  6
Continuous
370
    50
100
AcDbLine
 10
98.5495597124
 20
6.1470498331
 30
0.0
 11
98.6656621099
 21
6.5919868648
 31
0.0
  0
LINE
  5
172
330
1F
100
AcDbEntity
  8
1
  6
Continuous
370
    50
100
AcDbLine
 10
98.6656621099
 20
6.5919868648
 30
0.0
 11
98.781183362
 21
7.0346910507
 31
0.0
  0
LINE
  5
173
330
1F
100
AcDbEntity
  8
1
  6
Continuous
370
    50
100
AcDbLine
 10
98.781183362
 20
7.0346910507
 30
0.0
 11
98.353214562
 21
7.0346910507
 31
0.0
  0
LINE
  5
174
330
1F
100
AcDbEntity
  8
1
  6
Continuous
370
    50
100
AcDbLine
 10
98.353214562
 20
7.0346910507
 30
0.0
 11
98.1742441654
 21
6.4112688415
 31
0.0
  0
LINE
  5
175
330
1F
100
AcDbEntity
  8
1
  6
Continuous
370
    50
100
AcDbLine
 10
98.1742441654
 20
6.4112688415
 30
0.0
 11
97.9940369725
 21
5.7835490443
 31
0.0
  0
LINE
  5
176
330
1F
100
AcDbEntity
  8
1
  6
Continuous
370
    50
100
AcDbLine
 10
97.9361683131
 20
5.4871398025
 30
0.0
 11
97.9719907046
 21
5.2933460102
 31
0.0
  0
LINE
  5
177
330
1F
100
AcDbEntity
  8
1
  6
Continuous
370
    50
100
AcDbLine
 10
97.9719907046
 20
5.2933460102
 30
0.0
 11
98.0425775051
 21
5.18203713
 31
0.0
  0
LINE
  5
178
330
1F
100
AcDbEntity
  8
1
  6
Continuous
370
    50
100
AcDbLine
 10
98.0425775051
 20
5.18203713
 30
0.0
 11
98.1457829476
 21
5.0985356793
 31
0.0
  0
LINE
  5
179
330
1F
100
AcDbEntity
  8
1
  6
Continuous
370
    50
100
AcDbLine
 10
98.1457829476
 20
5.0985356793
 30
0.0
 11
98.3177050948
 21
5.0333365798
 31
0.0
  0
LINE
  5
17A
330
1F
100
AcDbEntity
  8
1
  6
Continuous
370
    50
100
AcDbLine
 10
98.3177050948
 20
5.0333365798
 30
0.0
 11
98.5666513443
 21
5.0084087998
 31
0.0
  0
LINE
  5
17B
330
1F
100
AcDbEntity
  8
1
  6
Continuous
370
    50
100
AcDbLine
 10
100.8549556136
 20
5.4008918814
 30
0.0
 11
100.7605195046
 21
5.0433445722
 31
0.0
  0
LINE
  5
17C
330
1F
100
AcDbEntity
  8
1
  6
Continuous
370
    50
100
AcDbLine
 10
100.7605195046
 20
5.0433445722
 30
0.0
 11
101.189032197
 21
5.0433445722
 31
0.0
  0
LINE
  5
17D
330
1F
100
AcDbEntity
  8
1
  6
Continuous
370
    50
100
AcDbLine
 10
101.189032197
 20
5.0433445722
 30
0.0
 11
101.3657972217
 21
5.7115713134
 31
0.0
  0
LINE
  5
17E
330
1F
100
AcDbEntity
  8
1
  6
Continuous
370
    50
100
AcDbLine
 10
101.3657972217
 20
5.7115713134
 30
0.0
 11
101.5414297581
 21
6.3755190931
 31
0.0
  0
LINE
  5
17F
330
1F
100
AcDbEntity
  8
1
  6
Continuous
370
    50
100
AcDbLine
 10
101.5414297581
 20
6.3755190931
 30
0.0
 11
101.7157956958
 21
7.0346910507
 31
0.0
  0
LINE
  5
180
330
1F
100
AcDbEntity
  8
1
  6
Continuous
370
    50
100
AcDbLine
 10
101.7157956958
 20
7.0346910507
 30
0.0
 11
101.2872904539
 21
7.0346910507
 31
0.0
  0
LINE
  5
181
330
1F
100
AcDbEntity
  8
1
  6
Continuous
370
    50
100
AcDbLine
 10
52.4549707771
 20
-1.1794556631
 30
0.0
 11
52.3997247219
 21
-1.3755972031
 31
0.0
  0
LINE
  5
182
330
1F
100
AcDbEntity
  8
1
  6
Continuous
370
    50
100
AcDbLine
 10
57.2954490781
 20
-6.5562375821
 30
0.0
 11
77.8578296304
 21
-6.5562375821
 31
0.0
  0
LINE
  5
183
330
1F
100
AcDbEntity
  8
1
  6
Continuous
370
    50
100
AcDbLine
 10
77.8578296304
 20
-6.5562375821
 30
0.0
 11
78.4056782723
 21
-4.5608812943
 31
0.0
  0
LINE
  5
184
330
1F
100
AcDbEntity
  8
1
  6
Continuous
370
    50
100
AcDbLine
 10
78.4056782723
 20
-4.5608812943
 30
0.0
 11
78.9619237185
 21
-2.5349566713
 31
0.0
  0
LINE
  5
185
330
1F
100
AcDbEntity
  8
1
  6
Continuous
370
    50
100
AcDbLine
 10
78.9619237185
 20
-2.5349566713
 30
0.0
 11
79.5228332281
 21
-0.492042629
 31
0.0
  0
LINE
  5
186
330
1F
100
AcDbEntity
  8
1
  6
Continuous
370
    50
100
AcDbLine
 10
79.5228332281
 20
-0.492042629
 30
0.0
 11
80.084644258
 21
1.5541692264
 31
0.0
  0
LINE
  5
187
330
1F
100
AcDbEntity
  8
1
  6
Continuous
370
    50
100
AcDbLine
 10
80.084644258
 20
1.5541692264
 30
0.0
 11
80.643594265
 21
3.5899647046
 31
0.0
  0
LINE
  5
188
330
1F
100
AcDbEntity
  8
1
  6
Continuous
370
    50
100
AcDbLine
 10
80.643594265
 20
3.5899647046
 30
0.0
 11
59.673473239
 21
3.5899647046
 31
0.0
  0
LINE
  5
189
330
1F
100
AcDbEntity
  8
1
  6
Continuous
370
    50
100
AcDbLine
 10
52.7871474624
 20
8.9648356661
 30
0.0
 11
52.0906895399
 21
6.927899085
 31
0.0
  0
LINE
  5
18A
330
1F
100
AcDbEntity
  8
1
  6
Continuous
370
    50
100
AcDbLine
 10
52.0906895399
 20
6.927899085
 30
0.0
 11
51.3767451048
 21
4.8397914507
 31
0.0
  0
LINE
  5
18B
330
1F
100
AcDbEntity
  8
1
  6
Continuous
370
    50
100
AcDbLine
 10
51.3767451048
 20
4.8397914507
 30
0.0
 11
50.6505742669
 21
2.7159366291
 31
0.0
  0
LINE
  5
18C
330
1F
100
AcDbEntity
  8
1
  6
Continuous
370
    50
100
AcDbLine
 10
50.6505742669
 20
2.7159366291
 30
0.0
 11
49.9175414443
 21
0.5720211193
 31
0.0
  0
LINE
  5
18D
330
1F
100
AcDbEntity
  8
1
  6
Continuous
370
    50
100
AcDbLine
 10
49.9175414443
 20
0.5720211193
 30
0.0
 11
49.1830706597
 21
-1.5761194518
 31
0.0
  0
LINE
  5
18E
330
1F
100
AcDbEntity
  8
1
  6
Continuous
370
    50
100
AcDbLine
 10
49.1830706597
 20
-1.5761194518
 30
0.0
 11
48.4525710344
 21
-3.7126184907
 31
0.0
  0
LINE
  5
18F
330
1F
100
AcDbEntity
  8
1
  6
Continuous
370
    50
100
AcDbLine
 10
48.4525710344
 20
-3.7126184907
 30
0.0
 11
48.3968108893
 21
-1.3315106044
 31
0.0
  0
LINE
  5
190
330
1F
100
AcDbEntity
  8
1
  6
Continuous
370
    50
100
AcDbLine
 10
48.3968108893
 20
-1.3315106044
 30
0.0
 11
48.3407601714
 21
1.0618005181
 31
0.0
  0
LINE
  5
191
330
1F
100
AcDbEntity
  8
1
  6
Continuous
370
    50
100
AcDbLine
 10
48.3407601714
 20
1.0618005181
 30
0.0
 11
48.284932971
 21
3.4453801345
 31
0.0
  0
LINE
  5
192
330
1F
100
AcDbEntity
  8
1
  6
Continuous
370
    50
100
AcDbLine
 10
48.284932971
 20
3.4453801345
 30
0.0
 11
48.2298508287
 21
5.7973829098
 31
0.0
  0
LINE
  5
193
330
1F
100
AcDbEntity
  8
1
  6
Continuous
370
    50
100
AcDbLine
 10
47.0182597637
 20
5.9770201333
 30
0.0
 11
46.2110489607
 21
3.5290478263
 31
0.0
  0
LINE
  5
194
330
1F
100
AcDbEntity
  8
1
  6
Continuous
370
    50
100
AcDbLine
 10
46.2110489607
 20
3.5290478263
 30
0.0
 11
45.3922599554
 21
1.0459660552
 31
0.0
  0
LINE
  5
195
330
1F
100
AcDbEntity
  8
1
  6
Continuous
370
    50
100
AcDbLine
 10
45.3922599554
 20
1.0459660552
 30
0.0
 11
44.5700436831
 21
-1.4475216158
 31
0.0
  0
LINE
  5
196
330
1F
100
AcDbEntity
  8
1
  6
Continuous
370
    50
100
AcDbLine
 10
44.5700436831
 20
-1.4475216158
 30
0.0
 11
44.4966703654
 21
0.3058594011
 31
0.0
  0
LINE
  5
197
330
1F
100
AcDbEntity
  8
1
  6
Continuous
370
    50
100
AcDbLine
 10
44.4966703654
 20
0.3058594011
 30
0.0
 11
44.4233417511
 21
2.0577351097
 31
0.0
  0
LINE
  5
198
330
1F
100
AcDbEntity
  8
1
  6
Continuous
370
    50
100
AcDbLine
 10
44.4233417511
 20
2.0577351097
 30
0.0
 11
44.3504452706
 21
3.7994836457
 31
0.0
  0
LINE
  5
199
330
1F
100
AcDbEntity
  8
1
  6
Continuous
370
    50
100
AcDbLine
 10
43.152064085
 20
4.0017059073
 30
0.0
 11
42.5814092159
 21
2.5595917832
 31
0.0
  0
LINE
  5
19A
330
1F
100
AcDbEntity
  8
1
  6
Continuous
370
    50
100
AcDbLine
 10
42.5814092159
 20
2.5595917832
 30
0.0
 11
42.007341981
 21
1.1088112369
 31
0.0
  0
LINE
  5
19B
330
1F
100
AcDbEntity
  8
1
  6
Continuous
370
    50
100
AcDbLine
 10
42.007341981
 20
1.1088112369
 30
0.0
 11
41.4317846298
 21
-0.3457234707
 31
0.0
  0
LINE
  5
19C
330
1F
100
AcDbEntity
  8
1
  6
Continuous
370
    50
100
AcDbLine
 10
41.4317846298
 20
-0.3457234707
 30
0.0
 11
41.3350760937
 21
0.5390293081
 31
0.0
  0
LINE
  5
19D
330
1F
100
AcDbEntity
  8
1
  6
Continuous
370
    50
100
AcDbLine
 10
41.3350760937
 20
0.5390293081
 30
0.0
 11
41.2384420633
 21
1.4231069945
 31
0.0
  0
LINE
  5
19E
330
1F
100
AcDbEntity
  8
1
  6
Continuous
370
    50
100
AcDbLine
 10
41.2384420633
 20
1.4231069945
 30
0.0
 11
41.1420017481
 21
2.3054021876
 31
0.0
  0
LINE
  5
19F
330
1F
100
AcDbEntity
  8
1
  6
Continuous
370
    50
100
AcDbLine
 10
40.0005877018
 20
2.571904799
 30
0.0
 11
39.5868122578
 21
1.9228491001
 31
0.0
  0
LINE
  5
1A0
330
1F
100
AcDbEntity
  8
1
  6
Continuous
370
    50
100
AcDbLine
 10
39.5868122578
 20
1.9228491001
 30
0.0
 11
39.1721874476
 21
1.272486872
 31
0.0
  0
LINE
  5
1A1
330
1F
100
AcDbEntity
  8
1
  6
Continuous
370
    50
100
AcDbLine
 10
39.1721874476
 20
1.272486872
 30
0.0
 11
38.7570261955
 21
0.6212598528
 31
0.0
  0
LINE
  5
1A2
330
1F
100
AcDbEntity
  8
1
  6
Continuous
370
    50
100
AcDbLine
 10
38.7570261955
 20
0.6212598528
 30
0.0
 11
28.1212478876
 21
0.6212598528
 31
0.0
  0
LINE
  5
1A3
330
1F
100
AcDbEntity
  8
1
  6
Continuous
370
    50
100
AcDbLine
 10
28.1212478876
 20
-0.6214336026
 30
0.0
 11
39.09753263
 21
-0.6214336026
 31
0.0
  0
LINE
  5
1A4
330
1F
100
AcDbEntity
  8
1
  6
Continuous
370
    50
100
AcDbLine
 10
39.621859789
 20
-0.33425726
 30
0.0
 11
39.8603975773
 21
0.0401362195
 31
0.0
  0
LINE
  5
1A5
330
1F
100
AcDbEntity
  8
1
  6
Continuous
370
    50
100
AcDbLine
 10
39.8603975773
 20
0.0401362195
 30
0.0
 11
40.0989204645
 21
0.4145207058
 31
0.0
  0
LINE
  5
1A6
330
1F
100
AcDbEntity
  8
1
  6
Continuous
370
    50
100
AcDbLine
 10
40.0989204645
 20
0.4145207058
 30
0.0
 11
40.2226299048
 21
-0.7176667568
 31
0.0
  0
LINE
  5
1A7
330
1F
100
AcDbEntity
  8
1
  6
Continuous
370
    50
100
AcDbLine
 10
40.2226299048
 20
-0.7176667568
 30
0.0
 11
40.3461754322
 21
-1.8483822932
 31
0.0
  0
LINE
  5
1A8
330
1F
100
AcDbEntity
  8
1
  6
Continuous
370
    50
100
AcDbLine
 10
40.3461754322
 20
-1.8483822932
 30
0.0
 11
40.4693186283
 21
-2.9753067065
 31
0.0
  0
LINE
  5
1A9
330
1F
100
AcDbEntity
  8
1
  6
Continuous
370
    50
100
AcDbLine
 10
41.6649281979
 20
-3.1361810397
 30
0.0
 11
42.1853959561
 21
-1.8200392369
 31
0.0
  0
LINE
  5
1AA
330
1F
100
AcDbEntity
  8
1
  6
Continuous
370
    50
100
AcDbLine
 10
42.1853959561
 20
-1.8200392369
 30
0.0
 11
42.7078902722
 21
-0.498802925
 31
0.0
  0
LINE
  5
1AB
330
1F
100
AcDbEntity
  8
1
  6
Continuous
370
    50
100
AcDbLine
 10
42.7078902722
 20
-0.498802925
 30
0.0
 11
43.2309359312
 21
0.8238294977
 31
0.0
  0
LINE
  5
1AC
330
1F
100
AcDbEntity
  8
1
  6
Continuous
370
    50
100
AcDbLine
 10
43.2309359312
 20
0.8238294977
 30
0.0
 11
43.3116257191
 21
-1.0967485141
 31
0.0
  0
LINE
  5
1AD
330
1F
100
AcDbEntity
  8
1
  6
Continuous
370
    50
100
AcDbLine
 10
43.3116257191
 20
-1.0967485141
 30
0.0
 11
43.3920472861
 21
-3.0108534265
 31
0.0
  0
LINE
  5
1AE
330
1F
100
AcDbEntity
  8
1
  6
Continuous
370
    50
100
AcDbLine
 10
43.3920472861
 20
-3.0108534265
 30
0.0
 11
43.471723795
 21
-4.9071884714
 31
0.0
  0
LINE
  5
1AF
330
1F
100
AcDbEntity
  8
1
  6
Continuous
370
    50
100
AcDbLine
 10
44.6826219559
 20
-5.0757071003
 30
0.0
 11
45.4731881619
 21
-2.6782515924
 31
0.0
  0
LINE
  5
1B0
330
1F
100
AcDbEntity
  8
1
  6
Continuous
370
    50
100
AcDbLine
 10
45.4731881619
 20
-2.6782515924
 30
0.0
 11
46.272084117
 21
-0.2555574174
 31
0.0
  0
LINE
  5
1B1
330
1F
100
AcDbEntity
  8
1
  6
Continuous
370
    50
100
AcDbLine
 10
46.272084117
 20
-0.2555574174
 30
0.0
 11
47.0717698336
 21
2.1695450414
 31
0.0
  0
LINE
  5
1B2
330
1F
100
AcDbEntity
  8
1
  6
Continuous
370
    50
100
AcDbLine
 10
47.0717698336
 20
2.1695450414
 30
0.0
 11
47.1271425486
 21
-0.2035666403
 31
0.0
  0
LINE
  5
1B3
330
1F
100
AcDbEntity
  8
1
  6
Continuous
370
    50
100
AcDbLine
 10
47.1271425486
 20
-0.2035666403
 30
0.0
 11
47.1824705601
 21
-2.574841259
 31
0.0
  0
LINE
  5
1B4
330
1F
100
AcDbEntity
  8
1
  6
Continuous
370
    50
100
AcDbLine
 10
47.1824705601
 20
-2.574841259
 30
0.0
 11
47.2372621298
 21
-4.9228789285
 31
0.0
  0
LINE
  5
1B5
330
1F
100
AcDbEntity
  8
1
  6
Continuous
370
    50
100
AcDbLine
 10
47.2372621298
 20
-4.9228789285
 30
0.0
 11
47.2910106182
 21
-7.2264894843
 31
0.0
  0
LINE
  5
1B6
330
1F
100
AcDbEntity
  8
1
  6
Continuous
370
    50
100
AcDbLine
 10
48.5005229712
 20
-7.4130757712
 30
0.0
 11
49.172192812
 21
-5.4489504546
 31
0.0
  0
LINE
  5
1B7
330
1F
100
AcDbEntity
  8
1
  6
Continuous
370
    50
100
AcDbLine
 10
49.172192812
 20
-5.4489504546
 30
0.0
 11
49.8561784625
 21
-3.4488043748
 31
0.0
  0
LINE
  5
1B8
330
1F
100
AcDbEntity
  8
1
  6
Continuous
370
    50
100
AcDbLine
 10
49.8561784625
 20
-3.4488043748
 30
0.0
 11
50.5479574204
 21
-1.4258595183
 31
0.0
  0
LINE
  5
1B9
330
1F
100
AcDbEntity
  8
1
  6
Continuous
370
    50
100
AcDbLine
 10
50.5479574204
 20
-1.4258595183
 30
0.0
 11
51.2429624796
 21
0.6065111375
 31
0.0
  0
LINE
  5
1BA
330
1F
100
AcDbEntity
  8
1
  6
Continuous
370
    50
100
AcDbLine
 10
51.2429624796
 20
0.6065111375
 30
0.0
 11
51.936596632
 21
2.6348724496
 31
0.0
  0
LINE
  5
1BB
330
1F
100
AcDbEntity
  8
1
  6
Continuous
370
    50
100
AcDbLine
 10
51.936596632
 20
2.6348724496
 30
0.0
 11
52.6242777705
 21
4.6458155848
 31
0.0
  0
LINE
  5
1BC
330
1F
100
AcDbEntity
  8
1
  6
Continuous
370
    50
100
AcDbLine
 10
52.6242777705
 20
4.6458155848
 30
0.0
 11
53.3014535904
 21
6.6260467283
 31
0.0
  0
LINE
  5
1BD
330
1F
100
AcDbEntity
  8
1
  6
Continuous
370
    50
100
AcDbLine
 10
53.3014535904
 20
6.6260467283
 30
0.0
 11
53.9636462927
 21
8.5624763742
 31
0.0
  0
LINE
  5
1BE
330
1F
100
AcDbEntity
  8
1
  6
Continuous
370
    50
100
AcDbLine
 10
172.8999929692
 20
-25.0000003725
 30
0.0
 11
172.8999929692
 21
25.0000003725
 31
0.0
  0
LINE
  5
1BF
330
1F
100
AcDbEntity
  8
1
  6
Continuous
370
    50
100
AcDbLine
 10
0.9999871254
 20
-25.0000003725
 30
0.0
 11
0.9999871254
 21
25.0000003725
 31
0.0
  0
LINE
  5
1C0
330
1F
100
AcDbEntity
  8
1
  6
Continuous
370
    50
100
AcDbLine
 10
84.0954482556
 20
-2.8766277246
 30
0.0
 11
102.6905030012
 21
-2.8766277246
 31
0.0
  0
LINE
  5
1C1
330
1F
100
AcDbEntity
  8
1
  6
Continuous
370
    50
100
AcDbLine
 10
101.6620248556
 20
-4.4353366829
 30
0.0
 11
80.034673214
 21
-4.4353366829
 31
0.0
  0
LINE
  5
1C2
330
1F
100
AcDbEntity
  8
1
  6
Continuous
370
    50
100
AcDbLine
 10
80.034673214
 20
-4.4353366829
 30
0.0
 11
79.8264965415
 21
-5.1468294114
 31
0.0
  0
LINE
  5
1C3
330
1F
100
AcDbEntity
  8
1
  6
Continuous
370
    50
100
AcDbLine
 10
79.8264965415
 20
-5.1468294114
 30
0.0
 11
79.6195790172
 21
-5.8539947495
 31
0.0
  0
LINE
  5
1C4
330
1F
100
AcDbEntity
  8
1
  6
Continuous
370
    50
100
AcDbLine
 10
79.6195790172
 20
-5.8539947495
 30
0.0
 11
79.4141069055
 21
-6.5562375821
 31
0.0
  0
LINE
  5
1C5
330
1F
100
AcDbEntity
  8
1
  6
Continuous
370
    50
100
AcDbLine
 10
79.4141069055
 20
-6.5562375821
 30
0.0
 11
101.48794204
 21
-6.5562375821
 31
0.0
  0
LINE
  5
1C6
330
1F
100
AcDbEntity
  8
1
  6
Continuous
370
    50
100
AcDbLine
 10
102.8645858168
 20
-0.7557271747
 30
0.0
 11
84.2695236206
 21
-0.7557271747
 31
0.0
  0
LINE
  5
1C7
330
1F
100
AcDbEntity
  8
1
  6
Continuous
370
    50
100
AcDbLine
 10
83.5224837065
 20
0.3766474838
 30
0.0
 11
83.6927741766
 21
0.7371273823
 31
0.0
  0
LINE
  5
1C8
330
1F
100
AcDbEntity
  8
1
  6
Continuous
370
    50
100
AcDbLine
 10
83.6927741766
 20
0.7371273823
 30
0.0
 11
83.9722007513
 21
1.0211047484
 31
0.0
  0
LINE
  5
1C9
330
1F
100
AcDbEntity
  8
1
  6
Continuous
370
    50
100
AcDbLine
 10
83.9722007513
 20
1.0211047484
 30
0.0
 11
84.4937637448
 21
1.2861996656
 31
0.0
  0
LINE
  5
1CA
330
1F
100
AcDbEntity
  8
1
  6
Continuous
370
    50
100
AcDbLine
 10
84.4937637448
 20
1.2861996656
 30
0.0
 11
85.5672135949
 21
1.4643952018
 31
0.0
  0
LINE
  5
1CB
330
1F
100
AcDbEntity
  8
1
  6
Continuous
370
    50
100
AcDbLine
 10
85.5672135949
 20
1.4643952018
 30
0.0
 11
85.817463696
 21
1.4694116544
 31
0.0
  0
LINE
  5
1CC
330
1F
100
AcDbEntity
  8
1
  6
Continuous
370
    50
100
AcDbLine
 10
85.817463696
 20
1.4694116544
 30
0.0
 11
106.9507226348
 21
1.4694116544
 31
0.0
  0
LINE
  5
1CD
330
1F
100
AcDbEntity
  8
1
  6
Continuous
370
    50
100
AcDbLine
 10
106.9507226348
 20
1.4694116544
 30
0.0
 11
107.1655824781
 21
2.1782135591
 31
0.0
  0
LINE
  5
1CE
330
1F
100
AcDbEntity
  8
1
  6
Continuous
370
    50
100
AcDbLine
 10
107.1655824781
 20
2.1782135591
 30
0.0
 11
107.3799058795
 21
2.8852550313
 31
0.0
  0
LINE
  5
1CF
330
1F
100
AcDbEntity
  8
1
  6
Continuous
370
    50
100
AcDbLine
 10
107.3799058795
 20
2.8852550313
 30
0.0
 11
107.5935214758
 21
3.5899647046
 31
0.0
  0
LINE
  5
1D0
330
1F
100
AcDbEntity
  8
1
  6
Continuous
370
    50
100
AcDbLine
 10
107.5935214758
 20
3.5899647046
 30
0.0
 11
85.9908461571
 21
3.5899647046
 31
0.0
  0
LINE
  5
1D1
330
1F
100
AcDbEntity
  8
1
  6
Continuous
370
    50
100
AcDbLine
 10
118.331450969
 20
3.1365284231
 30
0.0
 11
117.8107485175
 21
1.8200987252
 31
0.0
  0
LINE
  5
1D2
330
1F
100
AcDbEntity
  8
1
  6
Continuous
370
    50
100
AcDbLine
 10
117.8107485175
 20
1.8200987252
 30
0.0
 11
117.2880269587
 21
0.4985720734
 31
0.0
  0
LINE
  5
1D3
330
1F
100
AcDbEntity
  8
1
  6
Continuous
370
    50
100
AcDbLine
 10
117.2880269587
 20
0.4985720734
 30
0.0
 11
116.7647503317
 21
-0.8243506891
 31
0.0
  0
LINE
  5
1D4
330
1F
100
AcDbEntity
  8
1
  6
Continuous
370
    50
100
AcDbLine
 10
116.7647503317
 20
-0.8243506891
 30
0.0
 11
116.6841164231
 21
1.0962832021
 31
0.0
  0
LINE
  5
1D5
330
1F
100
AcDbEntity
  8
1
  6
Continuous
370
    50
100
AcDbLine
 10
116.6841164231
 20
1.0962832021
 30
0.0
 11
116.6037544608
 21
3.0104464386
 31
0.0
  0
LINE
  5
1D6
330
1F
100
AcDbEntity
  8
1
  6
Continuous
370
    50
100
AcDbLine
 10
116.6037544608
 20
3.0104464386
 30
0.0
 11
116.5241338313
 21
4.9068410881
 31
0.0
  0
LINE
  5
1D7
330
1F
100
AcDbEntity
  8
1
  6
Continuous
370
    50
100
AcDbLine
 10
115.3130605817
 20
5.075359717
 30
0.0
 11
114.5226061344
 21
2.6780164335
 31
0.0
  0
LINE
  5
1D8
330
1F
100
AcDbEntity
  8
1
  6
Continuous
370
    50
100
AcDbLine
 10
114.5226061344
 20
2.6780164335
 30
0.0
 11
113.7238331139
 21
0.2554391394
 31
0.0
  0
LINE
  5
1D9
330
1F
100
AcDbEntity
  8
1
  6
Continuous
370
    50
100
AcDbLine
 10
113.7238331139
 20
0.2554391394
 30
0.0
 11
112.9242666066
 21
-2.1695450414
 31
0.0
  0
LINE
  5
1DA
330
1F
100
AcDbEntity
  8
1
  6
Continuous
370
    50
100
AcDbLine
 10
112.9242666066
 20
-2.1695450414
 30
0.0
 11
112.8688044846
 21
0.2034758945
 31
0.0
  0
LINE
  5
1DB
330
1F
100
AcDbEntity
  8
1
  6
Continuous
370
    50
100
AcDbLine
 10
112.8688044846
 20
0.2034758945
 30
0.0
 11
112.8133870661
 21
2.5746608153
 31
0.0
  0
LINE
  5
1DC
330
1F
100
AcDbEntity
  8
1
  6
Continuous
370
    50
100
AcDbLine
 10
112.8133870661
 20
2.5746608153
 30
0.0
 11
112.7585098148
 21
4.9226121046
 31
0.0
  0
LINE
  5
1DD
330
1F
100
AcDbEntity
  8
1
  6
Continuous
370
    50
100
AcDbLine
 10
112.7585098148
 20
4.9226121046
 30
0.0
 11
112.7046719194
 21
7.2261416353
 31
0.0
  0
LINE
  5
1DE
330
1F
100
AcDbEntity
  8
1
  6
Continuous
370
    50
100
AcDbLine
 10
111.4951632917
 20
7.4127283878
 30
0.0
 11
110.8235754073
 21
5.4486398585
 31
0.0
  0
LINE
  5
1DF
330
1F
100
AcDbEntity
  8
1
  6
Continuous
370
    50
100
AcDbLine
 10
110.8235754073
 20
5.4486398585
 30
0.0
 11
110.1396754384
 21
3.4485342912
 31
0.0
  0
LINE
  5
1E0
330
1F
100
AcDbEntity
  8
1
  6
Continuous
370
    50
100
AcDbLine
 10
110.1396754384
 20
3.4485342912
 30
0.0
 11
109.4479858875
 21
1.4256325085
 31
0.0
  0
LINE
  5
1E1
330
1F
100
AcDbEntity
  8
1
  6
Continuous
370
    50
100
AcDbLine
 10
109.4479858875
 20
1.4256325085
 30
0.0
 11
108.7530627847
 21
-0.6066929782
 31
0.0
  0
LINE
  5
1E2
330
1F
100
AcDbEntity
  8
1
  6
Continuous
370
    50
100
AcDbLine
 10
108.7530627847
 20
-0.6066929782
 30
0.0
 11
108.0595180392
 21
-2.6350081898
 31
0.0
  0
LINE
  5
1E3
330
1F
100
AcDbEntity
  8
1
  6
Continuous
370
    50
100
AcDbLine
 10
108.0595180392
 20
-2.6350081898
 30
0.0
 11
107.3719337583
 21
-4.6459049918
 31
0.0
  0
LINE
  5
1E4
330
1F
100
AcDbEntity
  8
1
  6
Continuous
370
    50
100
AcDbLine
 10
107.3719337583
 20
-4.6459049918
 30
0.0
 11
106.6948398948
 21
-6.6260909662
 31
0.0
  0
LINE
  5
1E5
330
1F
100
AcDbEntity
  8
1
  6
Continuous
370
    50
100
AcDbLine
 10
106.6948398948
 20
-6.6260909662
 30
0.0
 11
106.0327291489
 21
-8.5624763742
 31
0.0
  0
LINE
  5
1E6
330
1F
100
AcDbEntity
  8
1
  6
Continuous
370
    50
100
AcDbLine
 10
107.2090566158
 20
-8.9648356661
 30
0.0
 11
107.905484736
 21
-6.927899085
 31
0.0
  0
LINE
  5
1E7
330
1F
100
AcDbEntity
  8
1
  6
Continuous
370
    50
100
AcDbLine
 10
107.905484736
 20
-6.927899085
 30
0.0
 11
108.6194068194
 21
-4.8397914506
 31
0.0
  0
LINE
  5
1E8
330
1F
100
AcDbEntity
  8
1
  6
Continuous
370
    50
100
AcDbLine
 10
108.6194068194
 20
-4.8397914506
 30
0.0
 11
109.3455478549
 21
-2.7159366291
 31
0.0
  0
LINE
  5
1E9
330
1F
100
AcDbEntity
  8
1
  6
Continuous
370
    50
100
AcDbLine
 10
109.3455478549
 20
-2.7159366291
 30
0.0
 11
110.0785508752
 21
-0.5720211193
 31
0.0
  0
LINE
  5
1EA
330
1F
100
AcDbEntity
  8
1
  6
Continuous
370
    50
100
AcDbLine
 10
110.0785508752
 20
-0.5720211193
 30
0.0
 11
110.8129918575
 21
1.5761194518
 31
0.0
  0
LINE
  5
1EB
330
1F
100
AcDbEntity
  8
1
  6
Continuous
370
    50
100
AcDbLine
 10
110.8129918575
 20
1.5761194518
 30
0.0
 11
111.5434579551
 21
3.7126184907
 31
0.0
  0
LINE
  5
1EC
330
1F
100
AcDbEntity
  8
1
  6
Continuous
370
    50
100
AcDbLine
 10
111.5434579551
 20
3.7126184907
 30
0.0
 11
111.5990914405
 21
1.3315106044
 31
0.0
  0
LINE
  5
1ED
330
1F
100
AcDbEntity
  8
1
  6
Continuous
370
    50
100
AcDbLine
 10
111.5990914405
 20
1.3315106044
 30
0.0
 11
111.6550117731
 21
-1.0618005181
 31
0.0
  0
LINE
  5
1EE
330
1F
100
AcDbEntity
  8
1
  6
Continuous
370
    50
100
AcDbLine
 10
111.6550117731
 20
-1.0618005181
 30
0.0
 11
111.7107048631
 21
-3.4453801345
 31
0.0
  0
LINE
  5
1EF
330
1F
100
AcDbEntity
  8
1
  6
Continuous
370
    50
100
AcDbLine
 10
111.7107048631
 20
-3.4453801345
 30
0.0
 11
111.7656603456
 21
-5.7973829098
 31
0.0
  0
LINE
  5
1F0
330
1F
100
AcDbEntity
  8
1
  6
Continuous
370
    50
100
AcDbLine
 10
112.9772551358
 20
-5.9773679823
 30
0.0
 11
113.7844622135
 21
-3.5291691311
 31
0.0
  0
LINE
  5
1F1
330
1F
100
AcDbEntity
  8
1
  6
Continuous
370
    50
100
AcDbLine
 10
113.7844622135
 20
-3.5291691311
 30
0.0
 11
114.6032474935
 21
-1.0458533652
 31
0.0
  0
LINE
  5
1F2
330
1F
100
AcDbEntity
  8
1
  6
Continuous
370
    50
100
AcDbLine
 10
114.6032474935
 20
-1.0458533652
 30
0.0
 11
115.4254637659
 21
1.4478691155
 31
0.0
  0
LINE
  5
1F3
330
1F
100
AcDbEntity
  8
1
  6
Continuous
370
    50
100
AcDbLine
 10
115.4254637659
 20
1.4478691155
 30
0.0
 11
115.4991947115
 21
-0.3055687994
 31
0.0
  0
LINE
  5
1F4
330
1F
100
AcDbEntity
  8
1
  6
Continuous
370
    50
100
AcDbLine
 10
115.4991947115
 20
-0.3055687994
 30
0.0
 11
115.5728623271
 21
-2.0575027447
 31
0.0
  0
LINE
  5
1F5
330
1F
100
AcDbEntity
  8
1
  6
Continuous
370
    50
100
AcDbLine
 10
115.5728623271
 20
-2.0575027447
 30
0.0
 11
115.6461015344
 21
-3.799309954
 31
0.0
  0
LINE
  5
1F6
330
1F
100
AcDbEntity
  8
1
  6
Continuous
370
    50
100
AcDbLine
 10
116.8444938957
 20
-4.0018795989
 30
0.0
 11
117.4149662256
 21
-2.5597084314
 31
0.0
  0
LINE
  5
1F7
330
1F
100
AcDbEntity
  8
1
  6
Continuous
370
    50
100
AcDbLine
 10
117.4149662256
 20
-2.5597084314
 30
0.0
 11
117.9888658226
 21
-1.1088699102
 31
0.0
  0
LINE
  5
1F8
330
1F
100
AcDbEntity
  8
1
  6
Continuous
370
    50
100
AcDbLine
 10
117.9888658226
 20
-1.1088699102
 30
0.0
 11
118.5642518103
 21
0.3457234707
 31
0.0
  0
LINE
  5
1F9
330
1F
100
AcDbEntity
  8
1
  6
Continuous
370
    50
100
AcDbLine
 10
118.5642518103
 20
0.3457234707
 30
0.0
 11
118.6609603465
 21
-0.5390293081
 31
0.0
  0
LINE
  5
1FA
330
1F
100
AcDbEntity
  8
1
  6
Continuous
370
    50
100
AcDbLine
 10
118.6609603465
 20
-0.5390293081
 30
0.0
 11
118.7575943768
 21
-1.4231069945
 31
0.0
  0
LINE
  5
1FB
330
1F
100
AcDbEntity
  8
1
  6
Continuous
370
    50
100
AcDbLine
 10
118.7575943768
 20
-1.4231069945
 30
0.0
 11
118.8540346921
 21
-2.3054021876
 31
0.0
  0
LINE
  5
1FC
330
1F
100
AcDbEntity
  8
1
  6
Continuous
370
    50
100
AcDbLine
 10
119.9956163764
 20
-2.5720784906
 30
0.0
 11
120.409514755
 21
-1.9230229082
 31
0.0
  0
LINE
  5
1FD
330
1F
100
AcDbEntity
  8
1
  6
Continuous
370
    50
100
AcDbLine
 10
120.409514755
 20
-1.9230229082
 30
0.0
 11
120.8242438734
 21
-1.2726606801
 31
0.0
  0
LINE
  5
1FE
330
1F
100
AcDbEntity
  8
1
  6
Continuous
370
    50
100
AcDbLine
 10
120.8242438734
 20
-1.2726606801
 30
0.0
 11
121.2395243347
 21
-0.6214336026
 31
0.0
  0
LINE
  5
1FF
330
1F
100
AcDbEntity
  8
1
  6
Continuous
370
    50
100
AcDbLine
 10
121.2395243347
 20
-0.6214336026
 30
0.0
 11
131.8744309247
 21
-0.6214336026
 31
0.0
  0
LINE
  5
200
330
1F
100
AcDbEntity
  8
1
  6
Continuous
370
    50
100
AcDbLine
 10
131.8744309247
 20
0.6212598528
 30
0.0
 11
120.898667723
 21
0.6212598528
 31
0.0
  0
LINE
  5
201
330
1F
100
AcDbEntity
  8
1
  6
Continuous
370
    50
100
AcDbLine
 10
120.3746944666
 20
0.33425726
 30
0.0
 11
120.1360747218
 21
-0.0401362195
 31
0.0
  0
LINE
  5
202
330
1F
100
AcDbEntity
  8
1
  6
Continuous
370
    50
100
AcDbLine
 10
120.1360747218
 20
-0.0401362195
 30
0.0
 11
119.8974587023
 21
-0.4145207058
 31
0.0
  0
LINE
  5
203
330
1F
100
AcDbEntity
  8
1
  6
Continuous
370
    50
100
AcDbLine
 10
119.8974587023
 20
-0.4145207058
 30
0.0
 11
119.7736337781
 21
0.7176667568
 31
0.0
  0
LINE
  5
204
330
1F
100
AcDbEntity
  8
1
  6
Continuous
370
    50
100
AcDbLine
 10
119.7736337781
 20
0.7176667568
 30
0.0
 11
119.6499690414
 21
1.8483822933
 31
0.0
  0
LINE
  5
205
330
1F
100
AcDbEntity
  8
1
  6
Continuous
370
    50
100
AcDbLine
 10
119.6499690414
 20
1.8483822933
 30
0.0
 11
119.5267178118
 21
2.9753067065
 31
0.0
  0
LINE
  5
206
330
1F
100
AcDbEntity
  8
1
  6
Continuous
370
    50
100
AcDbLine
 10
104.8206314445
 20
7.0696268231
 30
0.0
 11
104.4974923134
 21
7.045136299
 31
0.0
  0
LINE
  5
207
330
1F
100
AcDbEntity
  8
1
  6
Continuous
370
    50
100
AcDbLine
 10
104.4974923134
 20
7.045136299
 30
0.0
 11
104.0805578232
 21
6.9044739939
 31
0.0
  0
LINE
  5
208
330
1F
100
AcDbEntity
  8
1
  6
Continuous
370
    50
100
AcDbLine
 10
104.0805578232
 20
6.9044739939
 30
0.0
 11
103.9215698838
 21
6.7803016864
 31
0.0
  0
LINE
  5
209
330
1F
100
AcDbEntity
  8
1
  6
Continuous
370
    50
100
AcDbLine
 10
103.9215698838
 20
6.7803016864
 30
0.0
 11
103.8132980466
 21
6.6117318347
 31
0.0
  0
LINE
  5
20A
330
1F
100
AcDbEntity
  8
1
  6
Continuous
370
    50
100
AcDbLine
 10
103.8132980466
 20
6.6117318347
 30
0.0
 11
103.7856563926
 21
6.4686201513
 31
0.0
  0
LINE
  5
20B
330
1F
100
AcDbEntity
  8
1
  6
Continuous
370
    50
100
AcDbLine
 10
105.0782874226
 20
5.5056996644
 30
0.0
 11
105.0641387701
 21
5.4434491321
 31
0.0
  0
LINE
  5
20C
330
1F
100
AcDbEntity
  8
1
  6
Continuous
370
    50
100
AcDbLine
 10
105.0641387701
 20
5.4434491321
 30
0.0
 11
105.0266996026
 21
5.3906384856
 31
0.0
  0
LINE
  5
20D
330
1F
100
AcDbEntity
  8
1
  6
Continuous
370
    50
100
AcDbLine
 10
105.0266996026
 20
5.3906384856
 30
0.0
 11
104.933090508
 21
5.3189760074
 31
0.0
  0
LINE
  5
20E
330
1F
100
AcDbEntity
  8
1
  6
Continuous
370
    50
100
AcDbLine
 10
104.933090508
 20
5.3189760074
 30
0.0
 11
104.7868058086
 21
5.2681844682
 31
0.0
  0
LINE
  5
20F
330
1F
100
AcDbEntity
  8
1
  6
Continuous
370
    50
100
AcDbLine
 10
104.7868058086
 20
5.2681844682
 30
0.0
 11
104.6142950654
 21
5.252960138
 31
0.0
  0
LINE
  5
210
330
1F
100
AcDbEntity
  8
1
  6
Continuous
370
    50
100
AcDbLine
 10
104.6142950654
 20
5.252960138
 30
0.0
 11
104.3404266238
 21
5.2868127823
 31
0.0
  0
LINE
  5
211
330
1F
100
AcDbEntity
  8
1
  6
Continuous
370
    50
100
AcDbLine
 10
104.3404266238
 20
5.2868127823
 30
0.0
 11
104.205057025
 21
5.3460318595
 31
0.0
  0
LINE
  5
212
330
1F
100
AcDbEntity
  8
1
  6
Continuous
370
    50
100
AcDbLine
 10
104.205057025
 20
5.3460318595
 30
0.0
 11
104.0956228972
 21
5.445654504
 31
0.0
  0
LINE
  5
213
330
1F
100
AcDbEntity
  8
1
  6
Continuous
370
    50
100
AcDbLine
 10
104.0956228972
 20
5.445654504
 30
0.0
 11
104.04176265
 21
5.5608679541
 31
0.0
  0
LINE
  5
214
330
1F
100
AcDbEntity
  8
1
  6
Continuous
370
    50
100
AcDbLine
 10
104.04176265
 20
5.5608679541
 30
0.0
 11
104.0302067995
 21
5.6372550316
 31
0.0
  0
LINE
  5
215
330
1F
100
AcDbEntity
  8
1
  6
Continuous
370
    50
100
AcDbLine
 10
104.0302067995
 20
5.6372550316
 30
0.0
 11
103.6109775305
 21
5.6023192592
 31
0.0
  0
LINE
  5
216
330
1F
100
AcDbEntity
  8
1
  6
Continuous
370
    50
100
AcDbLine
 10
103.6109775305
 20
5.6023192592
 30
0.0
 11
103.6482155323
 21
5.4241819307
 31
0.0
  0
LINE
  5
217
330
1F
100
AcDbEntity
  8
1
  6
Continuous
370
    50
100
AcDbLine
 10
103.6482155323
 20
5.4241819307
 30
0.0
 11
103.7499979139
 21
5.2697504871
 31
0.0
  0
LINE
  5
218
330
1F
100
AcDbEntity
  8
1
  6
Continuous
370
    50
100
AcDbLine
 10
103.7499979139
 20
5.2697504871
 30
0.0
 11
103.9285957813
 21
5.136590451
 31
0.0
  0
LINE
  5
219
330
1F
100
AcDbEntity
  8
1
  6
Continuous
370
    50
100
AcDbLine
 10
103.9285957813
 20
5.136590451
 30
0.0
 11
104.2334288359
 21
5.0372886471
 31
0.0
  0
LINE
  5
21A
330
1F
100
AcDbEntity
  8
1
  6
Continuous
370
    50
100
AcDbLine
 10
104.2334288359
 20
5.0372886471
 30
0.0
 11
104.593552649
 21
5.0084087998
 31
0.0
  0
LINE
  5
21B
330
1F
100
AcDbEntity
  8
1
  6
Continuous
370
    50
100
AcDbLine
 10
104.593552649
 20
5.0084087998
 30
0.0
 11
105.0598919392
 21
5.075306166
 31
0.0
  0
LINE
  5
21C
330
1F
100
AcDbEntity
  8
1
  6
Continuous
370
    50
100
AcDbLine
 10
105.0598919392
 20
5.075306166
 30
0.0
 11
105.2626594901
 21
5.1770927385
 31
0.0
  0
LINE
  5
21D
330
1F
100
AcDbEntity
  8
1
  6
Continuous
370
    50
100
AcDbLine
 10
105.2626594901
 20
5.1770927385
 30
0.0
 11
105.4239943624
 21
5.3360820748
 31
0.0
  0
LINE
  5
21E
330
1F
100
AcDbEntity
  8
1
  6
Continuous
370
    50
100
AcDbLine
 10
105.4239943624
 20
5.3360820748
 30
0.0
 11
105.4837927222
 21
5.465793889
 31
0.0
  0
LINE
  5
21F
330
1F
100
AcDbEntity
  8
1
  6
Continuous
370
    50
100
AcDbLine
 10
105.4837927222
 20
5.465793889
 30
0.0
 11
105.4975166917
 21
5.5744796991
 31
0.0
  0
LINE
  5
220
330
1F
100
AcDbEntity
  8
1
  6
Continuous
370
    50
100
AcDbLine
 10
104.2048856616
 20
6.5193865448
 30
0.0
 11
104.2192727328
 21
6.5929158591
 31
0.0
  0
LINE
  5
221
330
1F
100
AcDbEntity
  8
1
  6
Continuous
370
    50
100
AcDbLine
 10
104.2192727328
 20
6.5929158591
 30
0.0
 11
104.2587757111
 21
6.6574020311
 31
0.0
  0
LINE
  5
222
330
1F
100
AcDbEntity
  8
1
  6
Continuous
370
    50
100
AcDbLine
 10
104.2587757111
 20
6.6574020311
 30
0.0
 11
104.3478399515
 21
6.7321727984
 31
0.0
  0
LINE
  5
223
330
1F
100
AcDbEntity
  8
1
  6
Continuous
370
    50
100
AcDbLine
 10
104.3478399515
 20
6.7321727984
 30
0.0
 11
104.4988632202
 21
6.7944223993
 31
0.0
  0
LINE
  5
224
330
1F
100
AcDbEntity
  8
1
  6
Continuous
370
    50
100
AcDbLine
 10
104.4988632202
 20
6.7944223993
 30
0.0
 11
104.7884300351
 21
6.8250754848
 31
0.0
  0
LINE
  5
225
330
1F
100
AcDbEntity
  8
1
  6
Continuous
370
    50
100
AcDbLine
 10
104.7884300351
 20
6.8250754848
 30
0.0
 11
105.1408052445
 21
6.7639527842
 31
0.0
  0
LINE
  5
226
330
1F
100
AcDbEntity
  8
1
  6
Continuous
370
    50
100
AcDbLine
 10
105.1408052445
 20
6.7639527842
 30
0.0
 11
105.2695736289
 21
6.6956360824
 31
0.0
  0
LINE
  5
227
330
1F
100
AcDbEntity
  8
1
  6
Continuous
370
    50
100
AcDbLine
 10
105.2695736289
 20
6.6956360824
 30
0.0
 11
105.3526699543
 21
6.613814272
 31
0.0
  0
LINE
  5
228
330
1F
100
AcDbEntity
  8
1
  6
Continuous
370
    50
100
AcDbLine
 10
105.3526699543
 20
6.613814272
 30
0.0
 11
105.4029911757
 21
6.5098982304
 31
0.0
  0
LINE
  5
229
330
1F
100
AcDbEntity
  8
1
  6
Continuous
370
    50
100
AcDbLine
 10
105.4029911757
 20
6.5098982304
 30
0.0
 11
105.4276451469
 21
6.3359728083
 31
0.0
  0
LINE
  5
22A
330
1F
100
AcDbEntity
  8
1
  6
Continuous
370
    50
100
AcDbLine
 10
105.4276451469
 20
6.3359728083
 30
0.0
 11
105.8468744159
 21
6.3709090464
 31
0.0
  0
LINE
  5
22B
330
1F
100
AcDbEntity
  8
1
  6
Continuous
370
    50
100
AcDbLine
 10
93.6893671752
 20
6.3834637404
 30
0.0
 11
93.5790985823
 21
5.891086068
 31
0.0
  0
LINE
  5
22C
330
1F
100
AcDbEntity
  8
1
  6
Continuous
370
    50
100
AcDbLine
 10
95.5933704973
 20
5.6023192592
 30
0.0
 11
95.1741412282
 21
5.6372550316
 31
0.0
  0
LINE
  5
22D
330
1F
100
AcDbEntity
  8
1
  6
Continuous
370
    50
100
AcDbLine
 10
95.1222851873
 20
5.8981822804
 30
0.0
 11
95.4999402166
 21
6.0086785816
 31
0.0
  0
LINE
  5
22E
330
1F
100
AcDbEntity
  8
1
  6
Continuous
370
    50
100
AcDbLine
 10
95.4999402166
 20
6.0086785816
 30
0.0
 11
95.6712365151
 21
6.126889959
 31
0.0
  0
LINE
  5
22F
330
1F
100
AcDbEntity
  8
1
  6
Continuous
370
    50
100
AcDbLine
 10
95.6712365151
 20
6.126889959
 30
0.0
 11
95.7942306996
 21
6.2936227769
 31
0.0
  0
LINE
  5
230
330
1F
100
AcDbEntity
  8
1
  6
Continuous
370
    50
100
AcDbLine
 10
95.7942306996
 20
6.2936227769
 30
0.0
 11
95.8366021514
 21
6.4745265991
 31
0.0
  0
LINE
  5
231
330
1F
100
AcDbEntity
  8
1
  6
Continuous
370
    50
100
AcDbLine
 10
95.8366021514
 20
6.4745265991
 30
0.0
 11
95.8379283548
 21
6.5013724379
 31
0.0
  0
LINE
  5
232
330
1F
100
AcDbEntity
  8
1
  6
Continuous
370
    50
100
AcDbLine
 10
94.1227898002
 20
7.0346910507
 30
0.0
 11
93.7008336186
 21
7.0346910506
 31
0.0
  0
LINE
  5
233
330
1F
100
AcDbEntity
  8
1
  6
Continuous
370
    50
100
AcDbLine
 10
87.5058993698
 20
6.4342301339
 30
0.0
 11
87.3491317034
 21
5.862693768
 31
0.0
  0
LINE
  5
234
330
1F
100
AcDbEntity
  8
1
  6
Continuous
370
    50
100
AcDbLine
 10
87.3491317034
 20
5.862693768
 30
0.0
 11
87.191477418
 21
5.2878959104
 31
0.0
  0
LINE
  5
235
330
1F
100
AcDbEntity
  8
1
  6
Continuous
370
    50
100
AcDbLine
 10
87.191477418
 20
5.2878959104
 30
0.0
 11
86.7373049259
 21
5.2878959104
 31
0.0
  0
LINE
  5
236
330
1F
100
AcDbEntity
  8
1
  6
Continuous
370
    50
100
AcDbLine
 10
86.7373049259
 20
5.2878959104
 30
0.0
 11
86.6674333811
 21
5.0433445722
 31
0.0
  0
LINE
  5
237
330
1F
100
AcDbEntity
  8
1
  6
Continuous
370
    50
100
AcDbLine
 10
86.6674333811
 20
5.0433445722
 30
0.0
 11
87.1216058731
 21
5.0433445722
 31
0.0
  0
LINE
  5
238
330
1F
100
AcDbEntity
  8
1
  6
Continuous
370
    50
100
AcDbLine
 10
87.1216058731
 20
5.0433445722
 30
0.0
 11
87.0343893767
 21
4.6770395711
 31
0.0
  0
LINE
  5
239
330
1F
100
AcDbEntity
  8
1
  6
Continuous
370
    50
100
AcDbLine
 10
87.0343893767
 20
4.6770395711
 30
0.0
 11
86.9469195604
 21
4.3096910231
 31
0.0
  0
LINE
  5
23A
330
1F
100
AcDbEntity
  8
1
  6
Continuous
370
    50
100
AcDbLine
 10
86.9469195604
 20
4.3096910231
 30
0.0
 11
87.4163731933
 21
4.5471456833
 31
0.0
  0
LINE
  5
23B
330
1F
100
AcDbEntity
  8
1
  6
Continuous
370
    50
100
AcDbLine
 10
87.4163731933
 20
4.5471456833
 30
0.0
 11
87.5408351422
 21
5.0433445722
 31
0.0
  0
LINE
  5
23C
330
1F
100
AcDbEntity
  8
1
  6
Continuous
370
    50
100
AcDbLine
 10
87.5408351422
 20
5.0433445722
 30
0.0
 11
87.8552570939
 21
5.0433445722
 31
0.0
  0
LINE
  5
23D
330
1F
100
AcDbEntity
  8
1
  6
Continuous
370
    50
100
AcDbLine
 10
87.8552570939
 20
5.0433445722
 30
0.0
 11
87.9251286388
 21
5.2878959104
 31
0.0
  0
LINE
  5
23E
330
1F
100
AcDbEntity
  8
1
  6
Continuous
370
    50
100
AcDbLine
 10
87.9251286388
 20
5.2878959104
 30
0.0
 11
87.610706687
 21
5.2878959104
 31
0.0
  0
LINE
  5
23F
330
1F
100
AcDbEntity
  8
1
  6
Continuous
370
    50
100
AcDbLine
 10
87.610706687
 20
5.2878959104
 30
0.0
 11
87.7683758736
 21
5.8742268011
 31
0.0
  0
LINE
  5
240
330
1F
100
AcDbEntity
  8
1
  6
Continuous
370
    50
100
AcDbLine
 10
87.7683758736
 20
5.8742268011
 30
0.0
 11
87.9251286388
 21
6.4571569674
 31
0.0
  0
LINE
  5
241
330
1F
100
AcDbEntity
  8
1
  6
Continuous
370
    50
100
AcDbLine
 10
87.1881991625
 20
7.042333018
 30
0.0
 11
87.1166884899
 21
6.7693963647
 31
0.0
  0
LINE
  5
242
330
1F
100
AcDbEntity
  8
1
  6
Continuous
370
    50
100
AcDbLine
 10
87.372161448
 20
6.8250754848
 30
0.0
 11
87.4464735389
 21
6.819197908
 31
0.0
  0
LINE
  5
243
330
1F
100
AcDbEntity
  8
1
  6
Continuous
370
    50
100
AcDbLine
 10
87.4464735389
 20
6.819197908
 30
0.0
 11
87.4937027693
 21
6.8048159592
 31
0.0
  0
LINE
  5
244
330
1F
100
AcDbEntity
  8
1
  6
Continuous
370
    50
100
AcDbLine
 10
87.4937027693
 20
6.8048159592
 30
0.0
 11
87.5249579549
 21
6.7825061269
 31
0.0
  0
LINE
  5
245
330
1F
100
AcDbEntity
  8
1
  6
Continuous
370
    50
100
AcDbLine
 10
87.5249579549
 20
6.7825061269
 30
0.0
 11
87.5467658043
 21
6.7515396513
 31
0.0
  0
LINE
  5
246
330
1F
100
AcDbEntity
  8
1
  6
Continuous
370
    50
100
AcDbLine
 10
87.5467658043
 20
6.7515396513
 30
0.0
 11
87.5558257103
 21
6.7157815211
 31
0.0
  0
LINE
  5
247
330
1F
100
AcDbEntity
  8
1
  6
Continuous
370
    50
100
AcDbLine
 10
87.5558257103
 20
6.7157815211
 30
0.0
 11
87.5572115183
 21
6.6962493584
 31
0.0
  0
LINE
  5
248
330
1F
100
AcDbEntity
  8
1
  6
Continuous
370
    50
100
AcDbLine
 10
75.2698779107
 20
6.3834637404
 30
0.0
 11
75.1596093178
 21
5.891086068
 31
0.0
  0
LINE
  5
249
330
1F
100
AcDbEntity
  8
1
  6
Continuous
370
    50
100
AcDbLine
 10
77.1738812328
 20
5.6023192592
 30
0.0
 11
76.7546519637
 21
5.6372550316
 31
0.0
  0
LINE
  5
24A
330
1F
100
AcDbEntity
  8
1
  6
Continuous
370
    50
100
AcDbLine
 10
76.7027959228
 20
5.8981822804
 30
0.0
 11
77.0804435015
 21
6.0086785816
 31
0.0
  0
LINE
  5
24B
330
1F
100
AcDbEntity
  8
1
  6
Continuous
370
    50
100
AcDbLine
 10
77.0804435015
 20
6.0086785816
 30
0.0
 11
77.2517398
 21
6.126889959
 31
0.0
  0
LINE
  5
24C
330
1F
100
AcDbEntity
  8
1
  6
Continuous
370
    50
100
AcDbLine
 10
77.2517398
 20
6.126889959
 30
0.0
 11
77.3747414351
 21
6.2936227769
 31
0.0
  0
LINE
  5
24D
330
1F
100
AcDbEntity
  8
1
  6
Continuous
370
    50
100
AcDbLine
 10
77.3747414351
 20
6.2936227769
 30
0.0
 11
77.4171128869
 21
6.4745265991
 31
0.0
  0
LINE
  5
24E
330
1F
100
AcDbEntity
  8
1
  6
Continuous
370
    50
100
AcDbLine
 10
77.4171128869
 20
6.4745265991
 30
0.0
 11
77.4184316397
 21
6.5013724379
 31
0.0
  0
LINE
  5
24F
330
1F
100
AcDbEntity
  8
1
  6
Continuous
370
    50
100
AcDbLine
 10
75.7033005357
 20
7.0346910506
 30
0.0
 11
75.2813369036
 21
7.0346910507
 31
0.0
  0
LINE
  5
250
330
1F
100
AcDbEntity
  8
1
  6
Continuous
370
    50
100
AcDbLine
 10
66.3570389152
 20
5.3031803109
 30
0.0
 11
66.2828013301
 21
5.0433445722
 31
0.0
  0
LINE
  5
251
330
1F
100
AcDbEntity
  8
1
  6
Continuous
370
    50
100
AcDbLine
 10
66.2828013301
 20
5.0433445722
 30
0.0
 11
66.7107626796
 21
5.0433445722
 31
0.0
  0
LINE
  5
252
330
1F
100
AcDbEntity
  8
1
  6
Continuous
370
    50
100
AcDbLine
 10
66.7107626796
 20
5.0433445722
 30
0.0
 11
66.9576972723
 21
5.960538052
 31
0.0
  0
LINE
  5
253
330
1F
100
AcDbEntity
  8
1
  6
Continuous
370
    50
100
AcDbLine
 10
66.9576972723
 20
5.960538052
 30
0.0
 11
67.2023668885
 21
6.8692998029
 31
0.0
  0
LINE
  5
254
330
1F
100
AcDbEntity
  8
1
  6
Continuous
370
    50
100
AcDbLine
 10
67.2023668885
 20
6.8692998029
 30
0.0
 11
67.4444139004
 21
7.7683445998
 31
0.0
  0
LINE
  5
255
330
1F
100
AcDbEntity
  8
1
  6
Continuous
370
    50
100
AcDbLine
 10
67.4444139004
 20
7.7683445998
 30
0.0
 11
67.0164525509
 21
7.7683445998
 31
0.0
  0
LINE
  5
256
330
1F
100
AcDbEntity
  8
1
  6
Continuous
370
    50
100
AcDbLine
 10
67.0164525509
 20
7.7683445998
 30
0.0
 11
66.8741762638
 21
7.2460444644
 31
0.0
  0
LINE
  5
257
330
1F
100
AcDbEntity
  8
1
  6
Continuous
370
    50
100
AcDbLine
 10
66.8741762638
 20
7.2460444644
 30
0.0
 11
66.7309612036
 21
6.7202677019
 31
0.0
  0
LINE
  5
258
330
1F
100
AcDbEntity
  8
1
  6
Continuous
370
    50
100
AcDbLine
 10
57.9158365727
 20
7.0346910507
 30
0.0
 11
57.8134357929
 21
6.6455346532
 31
0.0
  0
LINE
  5
259
330
1F
100
AcDbEntity
  8
1
  6
Continuous
370
    50
100
AcDbLine
 10
57.8134357929
 20
6.6455346532
 30
0.0
 11
57.7105879784
 21
6.2546376139
 31
0.0
  0
LINE
  5
25A
330
1F
100
AcDbEntity
  8
1
  6
Continuous
370
    50
100
AcDbLine
 10
57.7105879784
 20
6.2546376139
 30
0.0
 11
57.5904026628
 21
5.8942195028
 31
0.0
  0
LINE
  5
25B
330
1F
100
AcDbEntity
  8
1
  6
Continuous
370
    50
100
AcDbLine
 10
57.5904026628
 20
5.8942195028
 30
0.0
 11
57.3982298374
 21
5.5605401285
 31
0.0
  0
LINE
  5
25C
330
1F
100
AcDbEntity
  8
1
  6
Continuous
370
    50
100
AcDbLine
 10
57.3982298374
 20
5.5605401285
 30
0.0
 11
57.1783706546
 21
5.3676902317
 31
0.0
  0
LINE
  5
25D
330
1F
100
AcDbEntity
  8
1
  6
Continuous
370
    50
100
AcDbLine
 10
57.1783706546
 20
5.3676902317
 30
0.0
 11
56.9757372141
 21
5.2726268768
 31
0.0
  0
LINE
  5
25E
330
1F
100
AcDbEntity
  8
1
  6
Continuous
370
    50
100
AcDbLine
 10
56.9757372141
 20
5.2726268768
 30
0.0
 11
56.8377375603
 21
5.252960138
 31
0.0
  0
LINE
  5
25F
330
1F
100
AcDbEntity
  8
1
  6
Continuous
370
    50
100
AcDbLine
 10
56.592091918
 20
5.357767921
 30
0.0
 11
56.4152300358
 21
5.0433445722
 31
0.0
  0
LINE
  5
260
330
1F
100
AcDbEntity
  8
1
  6
Continuous
370
    50
100
AcDbLine
 10
57.511344552
 20
5.385607481
 30
0.0
 11
57.3917925358
 21
5.0433445722
 31
0.0
  0
LINE
  5
261
330
1F
100
AcDbEntity
  8
1
  6
Continuous
370
    50
100
AcDbLine
 10
57.3917925358
 20
5.0433445722
 30
0.0
 11
57.8197613359
 21
5.0433445722
 31
0.0
  0
LINE
  5
262
330
1F
100
AcDbEntity
  8
1
  6
Continuous
370
    50
100
AcDbLine
 10
57.8197613359
 20
5.0433445722
 30
0.0
 11
57.9956099391
 21
5.7115713134
 31
0.0
  0
LINE
  5
263
330
1F
100
AcDbEntity
  8
1
  6
Continuous
370
    50
100
AcDbLine
 10
57.9956099391
 20
5.7115713134
 30
0.0
 11
58.1703335047
 21
6.3755190931
 31
0.0
  0
LINE
  5
264
330
1F
100
AcDbEntity
  8
1
  6
Continuous
370
    50
100
AcDbLine
 10
58.1703335047
 20
6.3755190931
 30
0.0
 11
58.3437979222
 21
7.0346910507
 31
0.0
  0
LINE
  5
265
330
1F
100
AcDbEntity
  8
1
  6
Continuous
370
    50
100
AcDbLine
 10
58.3437979222
 20
7.0346910507
 30
0.0
 11
57.9158365727
 21
7.0346910507
 31
0.0
  0
LINE
  5
266
330
1F
100
AcDbEntity
  8
1
  6
Continuous
370
    50
100
AcDbLine
 10
0.0
 20
-24.0000002086
 30
0.0
 11
0.0
 21
24.0000002086
 31
0.0
  0
LINE
  5
267
330
1F
100
AcDbEntity
  8
1
  6
Continuous
370
    50
100
AcDbLine
 10
54.446965456
 20
-1.7856009071
 30
0.0
 11
54.5025616884
 21
-1.5889381757
 31
0.0
  0
LINE
  5
268
330
1F
100
AcDbEntity
  8
1
  6
Continuous
370
    50
100
AcDbLine
 10
59.5000907779
 20
1.4694116544
 30
0.0
 11
77.9019594193
 21
1.4694116544
 31
0.0
  0
LINE
  5
269
330
1F
100
AcDbEntity
  8
1
  6
Continuous
370
    50
100
AcDbLine
 10
77.9019594193
 20
1.4694116544
 30
0.0
 11
77.3594304919
 21
-0.5061061238
 31
0.0
  0
LINE
  5
26A
330
1F
100
AcDbEntity
  8
1
  6
Continuous
370
    50
100
AcDbLine
 10
77.3594304919
 20
-0.5061061238
 30
0.0
 11
76.817765832
 21
-2.4784624111
 31
0.0
  0
LINE
  5
26B
330
1F
100
AcDbEntity
  8
1
  6
Continuous
370
    50
100
AcDbLine
 10
76.817765832
 20
-2.4784624111
 30
0.0
 11
76.2803554535
 21
-4.4353366829
 31
0.0
  0
LINE
  5
26C
330
1F
100
AcDbEntity
  8
1
  6
Continuous
370
    50
100
AcDbLine
 10
76.2803554535
 20
-4.4353366829
 30
0.0
 11
57.4688315391
 21
-4.4353366829
 31
0.0
  0
LINE
  5
26D
330
1F
100
AcDbEntity
  8
1
  6
Continuous
370
    50
100
AcDbLine
 10
172.9999929667
 20
-24.9000005424
 30
0.0
 11
172.9999929667
 21
24.9000005424
 31
0.0
  0
LINE
  5
26E
330
1F
100
AcDbEntity
  8
1
  6
Continuous
370
    50
100
AcDbLine
 10
60.7651993632
 20
5.8818063699
 30
0.0
 11
62.1959343552
 21
5.8818063699
 31
0.0
  0
LINE
  5
26F
330
1F
100
AcDbEntity
  8
1
  6
Continuous
370
    50
100
AcDbLine
 10
65.208517015
 20
5.7961042039
 30
0.0
 11
65.2905553579
 21
6.2103760429
 31
0.0
  0
LINE
  5
270
330
1F
100
AcDbEntity
  8
1
  6
Continuous
370
    50
100
AcDbLine
 10
65.2905553579
 20
6.2103760429
 30
0.0
 11
65.5068084598
 21
6.5737185068
 31
0.0
  0
LINE
  5
271
330
1F
100
AcDbEntity
  8
1
  6
Continuous
370
    50
100
AcDbLine
 10
65.5068084598
 20
6.5737185068
 30
0.0
 11
65.6842142344
 21
6.7269289866
 31
0.0
  0
LINE
  5
272
330
1F
100
AcDbEntity
  8
1
  6
Continuous
370
    50
100
AcDbLine
 10
65.6842142344
 20
6.7269289866
 30
0.0
 11
65.9070387483
 21
6.8122735247
 31
0.0
  0
LINE
  5
273
330
1F
100
AcDbEntity
  8
1
  6
Continuous
370
    50
100
AcDbLine
 10
65.9070387483
 20
6.8122735247
 30
0.0
 11
66.0469830036
 21
6.8250754848
 31
0.0
  0
LINE
  5
274
330
1F
100
AcDbEntity
  8
1
  6
Continuous
370
    50
100
AcDbLine
 10
66.6037723422
 20
6.2355324626
 30
0.0
 11
66.5095895529
 21
5.844084546
 31
0.0
  0
LINE
  5
275
330
1F
100
AcDbEntity
  8
1
  6
Continuous
370
    50
100
AcDbLine
 10
66.5095895529
 20
5.844084546
 30
0.0
 11
66.2933066487
 21
5.5019846186
 31
0.0
  0
LINE
  5
276
330
1F
100
AcDbEntity
  8
1
  6
Continuous
370
    50
100
AcDbLine
 10
66.2933066487
 20
5.5019846186
 30
0.0
 11
66.0909786821
 21
5.3409370594
 31
0.0
  0
LINE
  5
277
330
1F
100
AcDbEntity
  8
1
  6
Continuous
370
    50
100
AcDbLine
 10
66.0909786821
 20
5.3409370594
 30
0.0
 11
65.8414661884
 21
5.258359015
 31
0.0
  0
LINE
  5
278
330
1F
100
AcDbEntity
  8
1
  6
Continuous
370
    50
100
AcDbLine
 10
65.8414661884
 20
5.258359015
 30
0.0
 11
65.7505691052
 21
5.252960138
 31
0.0
  0
LINE
  5
279
330
1F
100
AcDbEntity
  8
1
  6
Continuous
370
    50
100
AcDbLine
 10
76.5051841736
 20
6.8250754849
 30
0.0
 11
76.7521634698
 21
6.7903455347
 31
0.0
  0
LINE
  5
27A
330
1F
100
AcDbEntity
  8
1
  6
Continuous
370
    50
100
AcDbLine
 10
76.7521634698
 20
6.7903455347
 30
0.0
 11
76.8651068211
 21
6.7339255475
 31
0.0
  0
LINE
  5
27B
330
1F
100
AcDbEntity
  8
1
  6
Continuous
370
    50
100
AcDbLine
 10
76.8651068211
 20
6.7339255475
 30
0.0
 11
76.9534632564
 21
6.644887384
 31
0.0
  0
LINE
  5
27C
330
1F
100
AcDbEntity
  8
1
  6
Continuous
370
    50
100
AcDbLine
 10
76.9534632564
 20
6.644887384
 30
0.0
 11
76.9912227988
 21
6.5566864796
 31
0.0
  0
LINE
  5
27D
330
1F
100
AcDbEntity
  8
1
  6
Continuous
370
    50
100
AcDbLine
 10
76.9912227988
 20
6.5566864796
 30
0.0
 11
76.9992023707
 21
6.4871800132
 31
0.0
  0
LINE
  5
27E
330
1F
100
AcDbEntity
  8
1
  6
Continuous
370
    50
100
AcDbLine
 10
76.9992023707
 20
6.4871800132
 30
0.0
 11
76.9781023264
 21
6.3796397299
 31
0.0
  0
LINE
  5
27F
330
1F
100
AcDbEntity
  8
1
  6
Continuous
370
    50
100
AcDbLine
 10
76.9781023264
 20
6.3796397299
 30
0.0
 11
76.918527484
 21
6.2858834863
 31
0.0
  0
LINE
  5
280
330
1F
100
AcDbEntity
  8
1
  6
Continuous
370
    50
100
AcDbLine
 10
76.918527484
 20
6.2858834863
 30
0.0
 11
76.8300369382
 21
6.2140426599
 31
0.0
  0
LINE
  5
281
330
1F
100
AcDbEntity
  8
1
  6
Continuous
370
    50
100
AcDbLine
 10
76.8300369382
 20
6.2140426599
 30
0.0
 11
76.6605436802
 21
6.1479811557
 31
0.0
  0
LINE
  5
282
330
1F
100
AcDbEntity
  8
1
  6
Continuous
370
    50
100
AcDbLine
 10
76.6605436802
 20
6.1479811557
 30
0.0
 11
76.1711150408
 21
6.0837795027
 31
0.0
  0
LINE
  5
283
330
1F
100
AcDbEntity
  8
1
  6
Continuous
370
    50
100
AcDbLine
 10
94.9246808887
 20
6.8250754849
 30
0.0
 11
95.1716601849
 21
6.7903455347
 31
0.0
  0
LINE
  5
284
330
1F
100
AcDbEntity
  8
1
  6
Continuous
370
    50
100
AcDbLine
 10
95.1716601849
 20
6.7903455347
 30
0.0
 11
95.2846035361
 21
6.7339255475
 31
0.0
  0
LINE
  5
285
330
1F
100
AcDbEntity
  8
1
  6
Continuous
370
    50
100
AcDbLine
 10
95.2846035361
 20
6.7339255475
 30
0.0
 11
95.3729599714
 21
6.644887384
 31
0.0
  0
LINE
  5
286
330
1F
100
AcDbEntity
  8
1
  6
Continuous
370
    50
100
AcDbLine
 10
95.3729599714
 20
6.644887384
 30
0.0
 11
95.4107195139
 21
6.5566864796
 31
0.0
  0
LINE
  5
287
330
1F
100
AcDbEntity
  8
1
  6
Continuous
370
    50
100
AcDbLine
 10
95.4107195139
 20
6.5566864796
 30
0.0
 11
95.4186916351
 21
6.4871800132
 31
0.0
  0
LINE
  5
288
330
1F
100
AcDbEntity
  8
1
  6
Continuous
370
    50
100
AcDbLine
 10
95.4186916351
 20
6.4871800132
 30
0.0
 11
95.3975990415
 21
6.3796397299
 31
0.0
  0
LINE
  5
289
330
1F
100
AcDbEntity
  8
1
  6
Continuous
370
    50
100
AcDbLine
 10
95.3975990415
 20
6.3796397299
 30
0.0
 11
95.338024199
 21
6.2858834863
 31
0.0
  0
LINE
  5
28A
330
1F
100
AcDbEntity
  8
1
  6
Continuous
370
    50
100
AcDbLine
 10
95.338024199
 20
6.2858834863
 30
0.0
 11
95.2495262027
 21
6.2140426599
 31
0.0
  0
LINE
  5
28B
330
1F
100
AcDbEntity
  8
1
  6
Continuous
370
    50
100
AcDbLine
 10
95.2495262027
 20
6.2140426599
 30
0.0
 11
95.0800403953
 21
6.1479811557
 31
0.0
  0
LINE
  5
28C
330
1F
100
AcDbEntity
  8
1
  6
Continuous
370
    50
100
AcDbLine
 10
95.0800403953
 20
6.1479811557
 30
0.0
 11
94.5906043053
 21
6.0837795027
 31
0.0
  0
LINE
  5
28D
330
1F
100
AcDbEntity
  8
4
  6
LONGDASH_DASH
370
    25
100
AcDbLine
 10
-7.5000077486
 20
-0.3632010776
 30
0.0
 11
-7.5000077486
 21
-0.6044431357
 31
0.0
  0
LINE
  5
28E
330
1F
100
AcDbEntity
  8
SK1
100
AcDbLine
 10
-7.5000077486
 20
-0.3632010776
 30
0.0
 11
-7.8649073839
 21
-1.8269127468
 31
0.0
  0
LINE
  5
28F
330
1F
100
AcDbEntity
  8
SK1
100
AcDbLine
 10
-7.8649073839
 20
-1.8269127468
 30
0.0
 11
-8.6680799723
 21
-3.088124562
 31
0.0
  0
LINE
  5
290
330
1F
100
AcDbEntity
  8
SK1
100
AcDbLine
 10
-8.6680799723
 20
-3.088124562
 30
0.0
 11
-9.8967701197
 21
-4.091551993
 31
0.0
  0
LINE
  5
291
330
1F
100
AcDbEntity
  8
SK1
100
AcDbLine
 10
-9.8967701197
 20
-4.091551993
 30
0.0
 11
-11.4839226007
 21
-4.687495064
 31
0.0
  0
LINE
  5
292
330
1F
100
AcDbEntity
  8
SK1
100
AcDbLine
 10
-11.4839226007
 20
-4.687495064
 30
0.0
 11
-12.3313516378
 21
-4.7834878787
 31
0.0
  0
LINE
  5
293
330
1F
100
AcDbEntity
  8
SK1
100
AcDbLine
 10
-12.3313516378
 20
-4.7834878787
 30
0.0
 11
-13.1837427616
 21
-4.7420496121
 31
0.0
  0
LINE
  5
294
330
1F
100
AcDbEntity
  8
SK1
100
AcDbLine
 10
-13.1837427616
 20
-4.7420496121
 30
0.0
 11
-14.7678405046
 21
-4.2695370503
 31
0.0
  0
LINE
  5
295
330
1F
100
AcDbEntity
  8
SK1
100
AcDbLine
 10
-14.7678405046
 20
-4.2695370503
 30
0.0
 11
-16.1267220974
 21
-3.3062559087
 31
0.0
  0
LINE
  5
296
330
1F
100
AcDbEntity
  8
SK1
100
AcDbLine
 10
-16.1267220974
 20
-3.3062559087
 30
0.0
 11
-16.6723281145
 21
-2.6548262685
 31
0.0
  0
LINE
  5
297
330
1F
100
AcDbEntity
  8
SK1
100
AcDbLine
 10
-16.6723281145
 20
-2.6548262685
 30
0.0
 11
-17.0958787203
 21
-1.9151415909
 31
0.0
  0
LINE
  5
298
330
1F
100
AcDbEntity
  8
SK1
100
AcDbLine
 10
-17.0958787203
 20
-1.9151415909
 30
0.0
 11
-17.3678696155
 21
-1.1466112919
 31
0.0
  0
LINE
  5
299
330
1F
100
AcDbEntity
  8
4
  6
LONGDASH_DASH
370
    25
100
AcDbLine
 10
-17.3678696155
 20
-1.1466112919
 30
0.0
 11
-17.5018310547
 21
-0.3394651867
 31
0.0
  0
LINE
  5
29A
330
1F
100
AcDbEntity
  8
SK1
100
AcDbLine
 10
-17.5018310547
 20
-0.3394651867
 30
0.0
 11
-17.3664242029
 21
1.1548839975
 31
0.0
  0
LINE
  5
29B
330
1F
100
AcDbEntity
  8
SK1
100
AcDbLine
 10
-17.3664242029
 20
1.1548839975
 30
0.0
 11
-16.7836397886
 21
2.4890194181
 31
0.0
  0
LINE
  5
29C
330
1F
100
AcDbEntity
  8
SK1
100
AcDbLine
 10
-16.7836397886
 20
2.4890194181
 30
0.0
 11
-15.7699584961
 21
3.6295210011
 31
0.0
  0
LINE
  5
29D
330
1F
100
AcDbEntity
  8
SK1
100
AcDbLine
 10
-15.7699584961
 20
3.6295210011
 30
0.0
 11
-14.3409371376
 21
4.4526970014
 31
0.0
  0
LINE
  5
29E
330
1F
100
AcDbEntity
  8
SK1
100
AcDbLine
 10
-14.3409371376
 20
4.4526970014
 30
0.0
 11
-13.5158449411
 21
4.6870121732
 31
0.0
  0
LINE
  5
29F
330
1F
100
AcDbEntity
  8
SK1
100
AcDbLine
 10
-13.5158449411
 20
4.6870121732
 30
0.0
 11
-12.6606225967
 21
4.7842678614
 31
0.0
  0
LINE
  5
2A0
330
1F
100
AcDbEntity
  8
SK1
100
AcDbLine
 10
-12.6606225967
 20
4.7842678614
 30
0.0
 11
-11.0006630421
 21
4.5678894967
 31
0.0
  0
LINE
  5
2A1
330
1F
100
AcDbEntity
  8
SK1
100
AcDbLine
 10
-11.0006630421
 20
4.5678894967
 30
0.0
 11
-9.5158070326
 21
3.8472907618
 31
0.0
  0
LINE
  5
2A2
330
1F
100
AcDbEntity
  8
SK1
100
AcDbLine
 10
-9.5158070326
 20
3.8472907618
 30
0.0
 11
-8.8690370321
 21
3.3013583161
 31
0.0
  0
LINE
  5
2A3
330
1F
100
AcDbEntity
  8
SK1
100
AcDbLine
 10
-8.8690370321
 20
3.3013583161
 30
0.0
 11
-8.3253234625
 21
2.6524050627
 31
0.0
  0
LINE
  5
2A4
330
1F
100
AcDbEntity
  8
SK1
100
AcDbLine
 10
-8.3253234625
 20
2.6524050627
 30
0.0
 11
-7.9086273908
 21
1.9233981147
 31
0.0
  0
LINE
  5
2A5
330
1F
100
AcDbEntity
  8
SK1
100
AcDbLine
 10
-7.9086273908
 20
1.9233981147
 30
0.0
 11
-7.6268017292
 21
1.1284658685
 31
0.0
  0
LINE
  5
2A6
330
1F
100
AcDbEntity
  8
SK1
100
AcDbLine
 10
-7.6268017292
 20
1.1284658685
 30
0.0
 11
-7.5000077486
 21
0.3632010776
 31
0.0
  0
LINE
  5
2A7
330
1F
100
AcDbEntity
  8
4
  6
LONGDASH_DASH
370
    25
100
AcDbLine
 10
-7.5000077486
 20
0.6044431357
 30
0.0
 11
-7.5000077486
 21
0.3632010776
 31
0.0
  0
LINE
  5
2A8
330
1F
100
AcDbEntity
  8
4
  6
LONGDASH_DASH
370
    25
100
AcDbLine
 10
-7.5000077486
 20
0.6044431357
 30
0.0
 11
-7.4880421161
 21
-0.5060185795
 31
0.0
  0
LINE
  5
2A9
330
1F
100
AcDbEntity
  8
4
  6
LONGDASH_DASH
370
    25
100
AcDbLine
 10
-7.4880421161
 20
-0.5060185795
 30
0.0
 11
-7.5000077486
 21
-0.6044431357
 31
0.0
  0
LINE
  5
2AA
330
1F
100
AcDbEntity
  8
SK1
100
AcDbLine
 10
-13.9999985695
 20
13.9962052926
 30
0.0
 11
-14.0081942081
 21
13.999200426
 31
0.0
  0
LINE
  5
2AB
330
1F
100
AcDbEntity
  8
SK1
100
AcDbLine
 10
-14.0081942081
 20
13.999200426
 30
0.0
 11
-13.9055550098
 21
13.9618320391
 31
0.0
  0
LINE
  5
2AC
330
1F
100
AcDbEntity
  8
SK1
100
AcDbLine
 10
-13.9055550098
 20
13.9618320391
 30
0.0
 11
-13.3445262909
 21
13.7663343921
 31
0.0
  0
LINE
  5
2AD
330
1F
100
AcDbEntity
  8
SK1
100
AcDbLine
 10
-13.3445262909
 20
13.7663343921
 30
0.0
 11
-12.3009234667
 21
13.4439868853
 31
0.0
  0
LINE
  5
2AE
330
1F
100
AcDbEntity
  8
SK1
100
AcDbLine
 10
-12.3009234667
 20
13.4439868853
 30
0.0
 11
-11.554479599
 21
13.2482713088
 31
0.0
  0
LINE
  5
2AF
330
1F
100
AcDbEntity
  8
SK1
100
AcDbLine
 10
-11.554479599
 20
13.2482713088
 30
0.0
 11
-10.7010155916
 21
13.062119484
 31
0.0
  0
LINE
  5
2B0
330
1F
100
AcDbEntity
  8
SK1
100
AcDbLine
 10
-10.7010155916
 20
13.062119484
 30
0.0
 11
-9.688898921
 21
12.8957740963
 31
0.0
  0
LINE
  5
2B1
330
1F
100
AcDbEntity
  8
SK1
100
AcDbLine
 10
-9.688898921
 20
12.8957740963
 30
0.0
 11
-8.5878819227
 21
12.7845080569
 31
0.0
  0
LINE
  5
2B2
330
1F
100
AcDbEntity
  8
SK1
100
AcDbLine
 10
-8.5878819227
 20
12.7845080569
 30
0.0
 11
-7.4645280838
 21
12.7478251234
 31
0.0
  0
LINE
  5
2B3
330
1F
100
AcDbEntity
  8
SK1
100
AcDbLine
 10
-7.4645280838
 20
12.7478251234
 30
0.0
 11
-6.3086599111
 21
12.7918133512
 31
0.0
  0
LINE
  5
2B4
330
1F
100
AcDbEntity
  8
SK1
100
AcDbLine
 10
-6.3086599111
 20
12.7918133512
 30
0.0
 11
-5.2390694618
 21
12.9056135193
 31
0.0
  0
LINE
  5
2B5
330
1F
100
AcDbEntity
  8
SK1
100
AcDbLine
 10
-5.2390694618
 20
12.9056135193
 30
0.0
 11
-4.2029768228
 21
13.0810029805
 31
0.0
  0
LINE
  5
2B6
330
1F
100
AcDbEntity
  8
SK1
100
AcDbLine
 10
-4.2029768228
 20
13.0810029805
 30
0.0
 11
-3.2677650451
 21
13.2921524346
 31
0.0
  0
LINE
  5
2B7
330
1F
100
AcDbEntity
  8
SK1
100
AcDbLine
 10
-3.2677650451
 20
13.2921524346
 30
0.0
 11
-2.4283230305
 21
13.5222896934
 31
0.0
  0
LINE
  5
2B8
330
1F
100
AcDbEntity
  8
SK1
100
AcDbLine
 10
-2.4283230305
 20
13.5222896934
 30
0.0
 11
-1.7824023962
 21
13.72421626
 31
0.0
  0
LINE
  5
2B9
330
1F
100
AcDbEntity
  8
SK1
100
AcDbLine
 10
-1.7824023962
 20
13.72421626
 30
0.0
 11
-1.2953728437
 21
13.8900987804
 31
0.0
  0
LINE
  5
2BA
330
1F
100
AcDbEntity
  8
4
  6
LONGDASH_DASH
370
    25
100
AcDbLine
 10
-1.2953728437
 20
13.8900987804
 30
0.0
 11
-1.1122375727
 21
13.9554031193
 31
0.0
  0
LINE
  5
2BB
330
1F
100
AcDbEntity
  8
SK1
100
AcDbLine
 10
-1.1122375727
 20
-13.9554031193
 30
0.0
 11
-1.1122375727
 21
13.9554031193
 31
0.0
  0
LINE
  5
2BC
330
1F
100
AcDbEntity
  8
SK1
100
AcDbLine
 10
-1.1122375727
 20
-13.9554031193
 30
0.0
 11
-1.3161301613
 21
-13.8827953488
 31
0.0
  0
LINE
  5
2BD
330
1F
100
AcDbEntity
  8
SK1
100
AcDbLine
 10
-1.3161301613
 20
-13.8827953488
 30
0.0
 11
-2.1098554134
 21
-13.6192208156
 31
0.0
  0
LINE
  5
2BE
330
1F
100
AcDbEntity
  8
SK1
100
AcDbLine
 10
-2.1098554134
 20
-13.6192208156
 30
0.0
 11
-3.4221112728
 21
-13.2539561018
 31
0.0
  0
LINE
  5
2BF
330
1F
100
AcDbEntity
  8
SK1
100
AcDbLine
 10
-3.4221112728
 20
-13.2539561018
 30
0.0
 11
-4.310503602
 21
-13.059893623
 31
0.0
  0
LINE
  5
2C0
330
1F
100
AcDbEntity
  8
SK1
100
AcDbLine
 10
-4.310503602
 20
-13.059893623
 30
0.0
 11
-5.3008198738
 21
-12.8971626982
 31
0.0
  0
LINE
  5
2C1
330
1F
100
AcDbEntity
  8
SK1
100
AcDbLine
 10
-5.3008198738
 20
-12.8971626982
 30
0.0
 11
-6.3944160938
 21
-12.785712257
 31
0.0
  0
LINE
  5
2C2
330
1F
100
AcDbEntity
  8
SK1
100
AcDbLine
 10
-6.3944160938
 20
-12.785712257
 30
0.0
 11
-7.5531601906
 21
-12.7478735521
 31
0.0
  0
LINE
  5
2C3
330
1F
100
AcDbEntity
  8
SK1
100
AcDbLine
 10
-7.5531601906
 20
-12.7478735521
 30
0.0
 11
-8.6624026298
 21
-12.7897029743
 31
0.0
  0
LINE
  5
2C4
330
1F
100
AcDbEntity
  8
SK1
100
AcDbLine
 10
-8.6624026298
 20
-12.7897029743
 30
0.0
 11
-9.7701251507
 21
-12.9068894312
 31
0.0
  0
LINE
  5
2C5
330
1F
100
AcDbEntity
  8
SK1
100
AcDbLine
 10
-9.7701251507
 20
-12.9068894312
 30
0.0
 11
-10.7846409082
 21
-13.078535907
 31
0.0
  0
LINE
  5
2C6
330
1F
100
AcDbEntity
  8
SK1
100
AcDbLine
 10
-10.7846409082
 20
-13.078535907
 30
0.0
 11
-11.7354691028
 21
-13.2929617539
 31
0.0
  0
LINE
  5
2C7
330
1F
100
AcDbEntity
  8
SK1
100
AcDbLine
 10
-11.7354691028
 20
-13.2929617539
 30
0.0
 11
-12.5517100096
 21
-13.5163813829
 31
0.0
  0
LINE
  5
2C8
330
1F
100
AcDbEntity
  8
SK1
100
AcDbLine
 10
-12.5517100096
 20
-13.5163813829
 30
0.0
 11
-13.2386535406
 21
-13.7311434373
 31
0.0
  0
LINE
  5
2C9
330
1F
100
AcDbEntity
  8
SK1
100
AcDbLine
 10
-13.2386535406
 20
-13.7311434373
 30
0.0
 11
-13.6226564646
 21
-13.8613767922
 31
0.0
  0
LINE
  5
2CA
330
1F
100
AcDbEntity
  8
SK1
100
AcDbLine
 10
-13.6226564646
 20
-13.8613767922
 30
0.0
 11
-13.886898756
 21
-13.9550864696
 31
0.0
  0
LINE
  5
2CB
330
1F
100
AcDbEntity
  8
SK1
100
AcDbLine
 10
-13.886898756
 20
-13.9550864696
 30
0.0
 11
-14.003649354
 21
-13.9975352213
 31
0.0
  0
LINE
  5
2CC
330
1F
100
AcDbEntity
  8
SK1
100
AcDbLine
 10
-14.003649354
 20
-13.9975352213
 30
0.0
 11
-13.9941424131
 21
-13.9940632507
 31
0.0
  0
LINE
  5
2CD
330
1F
100
AcDbEntity
  8
SK1
100
AcDbLine
 10
-25.5000150019
 20
6.8847427711
 30
0.0
 11
-25.5000150019
 21
13.9999997437
 31
0.0
  0
LINE
  5
2CE
330
1F
100
AcDbEntity
  8
SK1
100
AcDbLine
 10
-25.5000150019
 20
-14.0000011205
 30
0.0
 11
-25.5000150019
 21
-6.8847441479
 31
0.0
  0
LINE
  5
2CF
330
1F
100
AcDbEntity
  8
SK1
100
AcDbLine
 10
-25.5000150019
 20
-6.8847441479
 30
0.0
 11
-7.5000077486
 21
-6.8847441479
 31
0.0
  0
LINE
  5
2D0
330
1F
100
AcDbEntity
  8
SK1
100
AcDbLine
 10
-7.5000077486
 20
-0.6044431357
 30
0.0
 11
-7.5000077486
 21
-6.8847441479
 31
0.0
  0
LINE
  5
2D1
330
1F
100
AcDbEntity
  8
SK1
100
AcDbLine
 10
-7.5000077486
 20
6.8847427711
 30
0.0
 11
-7.5000077486
 21
0.6044431357
 31
0.0
  0
LINE
  5
2D2
330
1F
100
AcDbEntity
  8
SK1
100
AcDbLine
 10
-7.5000077486
 20
6.8847427711
 30
0.0
 11
-25.5000150019
 21
6.8847427711
 31
0.0
  0
LINE
  5
2D3
330
1F
100
AcDbEntity
  8
4
  6
LONGDASH_DASH
370
    25
100
AcDbLine
 10
-1.1122375727
 20
13.9554031193
 30
0.0
 11
-1.0061115026
 21
13.9715448022
 31
0.0
  0
LINE
  5
2D4
330
1F
100
AcDbEntity
  8
4
  6
LONGDASH_DASH
370
    25
100
AcDbLine
 10
-1.0061115026
 20
13.9715448022
 30
0.0
 11
-1.0080486536
 21
13.9712505043
 31
0.0
  0
LINE
  5
2D5
330
1F
100
AcDbEntity
  8
SK1
100
AcDbLine
 10
-1.0080486536
 20
-13.9712505043
 30
0.0
 11
-1.1122375727
 21
-13.9554031193
 31
0.0
  0
LINE
  5
2D6
330
1F
100
AcDbEntity
  8
SK1
100
AcDbLine
 10
-26.175961476
 20
5.4331158855
 30
0.0
 11
-26.175961476
 21
-5.4331172622
 31
0.0
  0
LINE
  5
2D7
330
1F
100
AcDbEntity
  8
SK1
100
AcDbLine
 10
-30.0000070333
 20
-13.2
 30
0.0
 11
-30.0000070333
 21
13.2
 31
0.0
  0
LINE
  5
2D8
330
1F
100
AcDbEntity
  8
1
  6
Continuous
370
    50
100
AcDbLine
 10
200.4999928177
 20
25.0000003725
 30
0.0
 11
183.8667429984
 21
25.0000003725
 31
0.0
  0
LINE
  5
2D9
330
1F
100
AcDbEntity
  8
1
100
AcDbLine
 10
190.4999927892
 20
18.4999983629
 30
0.0
 11
199.6458859457
 21
18.4999983629
 31
0.0
  0
LINE
  5
2DA
330
1F
100
AcDbEntity
  8
1
100
AcDbLine
 10
200.4999929625
 20
18.03948492
 30
0.0
 11
200.4999928135
 21
17.404312244
 31
0.0
  0
LINE
  5
2DB
330
1F
100
AcDbEntity
  8
1
100
AcDbLine
 10
200.4999928135
 20
17.2942578554
 30
0.0
 11
200.4999928135
 21
16.60180462
 31
0.0
  0
LINE
  5
2DC
330
1F
100
AcDbEntity
  8
1
100
AcDbLine
 10
200.2999927687
 20
8.5293614428
 30
0.0
 11
200.299992578
 21
9.3323677293
 31
0.0
  0
LINE
  5
2DD
330
1F
100
AcDbEntity
  8
1
100
AcDbLine
 10
200.2999927687
 20
8.5293614428
 30
0.0
 11
190.1999930477
 21
8.5293614428
 31
0.0
  0
LINE
  5
2DE
330
1F
100
AcDbEntity
  8
1
100
AcDbLine
 10
200.2999927687
 20
-8.5293613374
 30
0.0
 11
190.1999929664
 21
-8.5293610546
 31
0.0
  0
LINE
  5
2DF
330
1F
100
AcDbEntity
  8
1
100
AcDbLine
 10
200.2999927687
 20
-9.3323688511
 30
0.0
 11
200.2999927687
 21
-8.5293613374
 31
0.0
  0
LINE
  5
2E0
330
1F
100
AcDbEntity
  8
1
100
AcDbLine
 10
200.4999921774
 20
-16.6018067731
 30
0.0
 11
200.4999920284
 21
-18.0394872046
 31
0.0
  0
LINE
  5
2E1
330
1F
100
AcDbEntity
  8
1
100
AcDbLine
 10
197.2519159317
 20
-20.3175507486
 30
0.0
 11
197.2328592092
 21
-20.3092452139
 31
0.0
  0
LINE
  5
2E2
330
1F
100
AcDbEntity
  8
1
100
AcDbLine
 10
197.2328592092
 20
-20.3092452139
 30
0.0
 11
197.126744315
 21
-20.2436763793
 31
0.0
  0
LINE
  5
2E3
330
1F
100
AcDbEntity
  8
1
100
AcDbLine
 10
197.126744315
 20
-20.2436763793
 30
0.0
 11
197.0436833799
 21
-20.1484896243
 31
0.0
  0
LINE
  5
2E4
330
1F
100
AcDbEntity
  8
1
100
AcDbLine
 10
197.0436833799
 20
-20.1484896243
 30
0.0
 11
197.0027685166
 21
-20.0218427926
 31
0.0
  0
LINE
  5
2E5
330
1F
100
AcDbEntity
  8
1
100
AcDbLine
 10
197.0027685166
 20
-20.0218427926
 30
0.0
 11
197.031294927
 21
-19.8722314089
 31
0.0
  0
LINE
  5
2E6
330
1F
100
AcDbEntity
  8
1
100
AcDbLine
 10
197.031294927
 20
-19.8722314089
 30
0.0
 11
197.1480045468
 21
-19.7301656008
 31
0.0
  0
LINE
  5
2E7
330
1F
100
AcDbEntity
  8
1
100
AcDbLine
 10
197.1480045468
 20
-19.7301656008
 30
0.0
 11
197.2519167553
 21
-19.6677939525
 31
0.0
  0
LINE
  5
2E8
330
1F
100
AcDbEntity
  8
1
100
AcDbLine
 10
200.4999929562
 20
-21.5388139866
 30
0.0
 11
200.499992689
 21
-22.2962457018
 31
0.0
  0
LINE
  5
2E9
330
1F
100
AcDbEntity
  8
1
100
AcDbLine
 10
197.2519159317
 20
-23.4863087535
 30
0.0
 11
197.203733027
 21
-23.4747380018
 31
0.0
  0
LINE
  5
2EA
330
1F
100
AcDbEntity
  8
1
100
AcDbLine
 10
197.203733027
 20
-23.4747380018
 30
0.0
 11
197.0929764211
 21
-23.4327912331
 31
0.0
  0
LINE
  5
2EB
330
1F
100
AcDbEntity
  8
1
100
AcDbLine
 10
197.0929764211
 20
-23.4327912331
 30
0.0
 11
197.0217898488
 21
-23.3771838248
 31
0.0
  0
LINE
  5
2EC
330
1F
100
AcDbEntity
  8
1
100
AcDbLine
 10
197.0217898488
 20
-23.3771838248
 30
0.0
 11
197.0028970391
 21
-23.3117025346
 31
0.0
  0
LINE
  5
2ED
330
1F
100
AcDbEntity
  8
1
100
AcDbLine
 10
197.0028970391
 20
-23.3117025346
 30
0.0
 11
197.045898065
 21
-23.2436433434
 31
0.0
  0
LINE
  5
2EE
330
1F
100
AcDbEntity
  8
1
100
AcDbLine
 10
197.045898065
 20
-23.2436433434
 30
0.0
 11
197.1495132893
 21
-23.1838226318
 31
0.0
  0
LINE
  5
2EF
330
1F
100
AcDbEntity
  8
1
100
AcDbLine
 10
197.1495132893
 20
-23.1838226318
 30
0.0
 11
197.2519167553
 21
-23.152068404
 31
0.0
  0
LINE
  5
2F0
330
1F
100
AcDbEntity
  8
1
100
AcDbLine
 10
200.4999930595
 20
-24.0877770059
 30
0.0
 11
200.4999928432
 21
-24.429941753
 31
0.0
  0
LINE
  5
2F1
330
1F
100
AcDbEntity
  8
1
100
AcDbLine
 10
197.2519159317
 20
-24.867862463
 30
0.0
 11
197.1226930618
 21
-24.8565692455
 31
0.0
  0
LINE
  5
2F2
330
1F
100
AcDbEntity
  8
1
100
AcDbLine
 10
197.1226930618
 20
-24.8565692455
 30
0.0
 11
197.0363613218
 21
-24.8407106847
 31
0.0
  0
LINE
  5
2F3
330
1F
100
AcDbEntity
  8
1
100
AcDbLine
 10
197.0363613218
 20
-24.8407106847
 30
0.0
 11
197.002241388
 21
-24.8215217143
 31
0.0
  0
LINE
  5
2F4
330
1F
100
AcDbEntity
  8
1
100
AcDbLine
 10
197.002241388
 20
-24.8215217143
 30
0.0
 11
197.024660185
 21
-24.8008724302
 31
0.0
  0
LINE
  5
2F5
330
1F
100
AcDbEntity
  8
1
100
AcDbLine
 10
197.024660185
 20
-24.8008724302
 30
0.0
 11
197.1017364413
 21
-24.7812755406
 31
0.0
  0
LINE
  5
2F6
330
1F
100
AcDbEntity
  8
1
100
AcDbLine
 10
197.1017364413
 20
-24.7812755406
 30
0.0
 11
197.2246672958
 21
-24.7655063868
 31
0.0
  0
LINE
  5
2F7
330
1F
100
AcDbEntity
  8
1
100
AcDbLine
 10
197.2246672958
 20
-24.7655063868
 30
0.0
 11
197.2519167553
 21
-24.7631666757
 31
0.0
  0
LINE
  5
2F8
330
1F
100
AcDbEntity
  8
1
100
AcDbLine
 10
200.4999929551
 20
-24.9904291184
 30
0.0
 11
200.4999928177
 21
-25.0000003725
 31
0.0
  0
LINE
  5
2F9
330
1F
100
AcDbEntity
  8
1
  6
Continuous
370
    50
100
AcDbLine
 10
200.4999928177
 20
-25.0000003725
 30
0.0
 11
183.8667429984
 21
-25.0000003725
 31
0.0
  0
LINE
  5
2FA
330
1F
100
AcDbEntity
  8
1
  6
Continuous
370
    50
100
AcDbLine
 10
173.0999929641
 20
-25.0000003725
 30
0.0
 11
173.0999929641
 21
25.0000003725
 31
0.0
  0
LINE
  5
2FB
330
1F
100
AcDbEntity
  8
1
100
AcDbLine
 10
190.1999929664
 20
-8.5293610546
 30
0.0
 11
190.1999930477
 21
8.5293614428
 31
0.0
  0
LINE
  5
2FC
330
1F
100
AcDbEntity
  8
1
100
AcDbLine
 10
200.2999927687
 20
-2.550000092
 30
0.0
 11
200.2999927687
 21
-8.5293613374
 31
0.0
  0
LINE
  5
2FD
330
1F
100
AcDbEntity
  8
1
100
AcDbLine
 10
200.2999927687
 20
8.5293614428
 30
0.0
 11
200.2999927687
 21
-2.4500000291
 31
0.0
  0
LINE
  5
2FE
330
1F
100
AcDbEntity
  8
1
100
AcDbLine
 10
200.2999927687
 20
-2.4500000291
 30
0.0
 11
200.2999927687
 21
-2.550000092
 31
0.0
  0
LINE
  5
2FF
330
1F
100
AcDbEntity
  8
1
100
AcDbLine
 10
197.0043472314
 20
13.6222157068
 30
0.0
 11
197.0029558354
 21
13.4962161444
 31
0.0
  0
LINE
  5
300
330
1F
100
AcDbEntity
  8
1
100
AcDbLine
 10
200.5499936598
 20
17.9422795534
 30
0.0
 11
200.4999929625
 21
18.03948492
 31
0.0
  0
LINE
  5
301
330
1F
100
AcDbEntity
  8
1
100
AcDbLine
 10
200.7999923038
 20
16.7947895586
 30
0.0
 11
200.7999923038
 21
17.1554945171
 31
0.0
  0
LINE
  5
302
330
1F
100
AcDbEntity
  8
1
100
AcDbLine
 10
200.5099933553
 20
17.2887332499
 30
0.0
 11
200.4999928135
 21
17.2942578554
 31
0.0
  0
LINE
  5
303
330
1F
100
AcDbEntity
  8
1
100
AcDbLine
 10
200.5099933553
 20
17.398780188
 30
0.0
 11
200.5099933553
 21
17.2887332499
 31
0.0
  0
LINE
  5
304
330
1F
100
AcDbEntity
  8
1
100
AcDbLine
 10
200.4999928135
 20
17.404312244
 30
0.0
 11
200.5099933553
 21
17.398780188
 31
0.0
  0
LINE
  5
305
330
1F
100
AcDbEntity
  8
1
100
AcDbLine
 10
200.7999915187
 20
-17.1554963059
 30
0.0
 11
200.7999915187
 21
-16.7947913474
 31
0.0
  0
LINE
  5
306
330
1F
100
AcDbEntity
  8
1
100
AcDbLine
 10
200.4999920284
 20
-18.0394872046
 30
0.0
 11
200.5499928747
 21
-17.9422813422
 31
0.0
  0
LINE
  5
307
330
1F
100
AcDbEntity
  8
1
100
AcDbLine
 10
200.7999921794
 20
-21.7152717786
 30
0.0
 11
200.7999921794
 21
-21.6399408208
 31
0.0
  0
LINE
  5
308
330
1F
100
AcDbEntity
  8
1
100
AcDbLine
 10
200.499992689
 20
-22.2962457018
 30
0.0
 11
200.5499935354
 21
-22.2254651862
 31
0.0
  0
LINE
  5
309
330
1F
100
AcDbEntity
  8
1
100
AcDbLine
 10
192.5180869548
 20
18.5000001145
 30
0.0
 11
190.499992892
 21
18.6269691838
 31
0.0
  0
LINE
  5
30A
330
1F
100
AcDbEntity
  8
1
100
AcDbLine
 10
200.5499936895
 20
-24.3724698369
 30
0.0
 11
200.6704416381
 21
-24.2275541817
 31
0.0
  0
LINE
  5
30B
330
1F
100
AcDbEntity
  8
1
100
AcDbLine
 10
200.6704416381
 20
-24.2275541817
 30
0.0
 11
200.7467765616
 21
-24.1222644393
 31
0.0
  0
LINE
  5
30C
330
1F
100
AcDbEntity
  8
1
100
AcDbLine
 10
200.4999928432
 20
-24.429941753
 30
0.0
 11
200.5499936895
 21
-24.3724698369
 31
0.0
  0
LINE
  5
30D
330
1F
100
AcDbEntity
  8
1
100
AcDbLine
 10
200.799992308
 20
20.999999593
 30
0.0
 11
200.799992308
 21
19.9529434247
 31
0.0
  0
LINE
  5
30E
330
1F
100
AcDbEntity
  8
1
100
AcDbLine
 10
200.799992308
 20
19.9529434247
 30
0.0
 11
200.7299158722
 21
19.520064692
 31
0.0
  0
LINE
  5
30F
330
1F
100
AcDbEntity
  8
1
100
AcDbLine
 10
200.7299158722
 20
19.520064692
 30
0.0
 11
200.7168196142
 21
19.5000002784
 31
0.0
  0
LINE
  5
310
330
1F
100
AcDbEntity
  8
1
100
AcDbLine
 10
200.799992308
 20
19.9529434247
 30
0.0
 11
200.799992308
 21
19.5000002784
 31
0.0
  0
LINE
  5
311
330
1F
100
AcDbEntity
  8
1
100
AcDbLine
 10
200.5094140768
 20
-24.9905791134
 30
0.0
 11
200.4999928177
 21
-25.0000003725
 31
0.0
  0
LINE
  5
312
330
1F
100
AcDbEntity
  8
1
100
AcDbLine
 10
200.799992308
 20
24.7000008822
 30
0.0
 11
200.4999928177
 21
25.0000003725
 31
0.0
  0
LINE
  5
313
330
1F
100
AcDbEntity
  8
1
100
AcDbLine
 10
200.799992308
 20
20.999999593
 30
0.0
 11
200.799992308
 21
24.7000008822
 31
0.0
  0
LINE
  5
314
330
1F
100
AcDbEntity
  8
1
100
AcDbLine
 10
220.2999927104
 20
1.3000000035
 30
0.0
 11
220.2999927104
 21
4.9999998882
 31
0.0
  0
LINE
  5
315
330
1F
100
AcDbEntity
  8
1
100
AcDbLine
 10
223.2699344811
 20
-25.4618319014
 30
0.0
 11
223.1207701322
 21
-25.1384804288
 31
0.0
  0
LINE
  5
316
330
1F
100
AcDbEntity
  8
1
100
AcDbLine
 10
223.1207701322
 20
-25.1384804288
 30
0.0
 11
222.8086466845
 21
-24.1618862638
 31
0.0
  0
LINE
  5
317
330
1F
100
AcDbEntity
  8
1
100
AcDbLine
 10
222.8086466845
 20
-24.1618862638
 30
0.0
 11
222.5110928472
 21
-22.8142848501
 31
0.0
  0
LINE
  5
318
330
1F
100
AcDbEntity
  8
1
100
AcDbLine
 10
222.5110928472
 20
-22.8142848501
 30
0.0
 11
222.2582462188
 21
-21.287092779
 31
0.0
  0
LINE
  5
319
330
1F
100
AcDbEntity
  8
1
100
AcDbLine
 10
222.2582462188
 20
-21.287092779
 30
0.0
 11
222.0235194024
 21
-19.4853430877
 31
0.0
  0
LINE
  5
31A
330
1F
100
AcDbEntity
  8
1
100
AcDbLine
 10
222.0235194024
 20
-19.4853430877
 30
0.0
 11
221.8113641199
 21
-17.4425242731
 31
0.0
  0
LINE
  5
31B
330
1F
100
AcDbEntity
  8
1
100
AcDbLine
 10
221.8113641199
 20
-17.4425242731
 30
0.0
 11
221.6242614146
 21
-15.1756441483
 31
0.0
  0
LINE
  5
31C
330
1F
100
AcDbEntity
  8
1
100
AcDbLine
 10
221.6242614146
 20
-15.1756441483
 30
0.0
 11
221.4635710176
 21
-12.70812827
 31
0.0
  0
LINE
  5
31D
330
1F
100
AcDbEntity
  8
1
100
AcDbLine
 10
221.4635710176
 20
-12.70812827
 30
0.0
 11
221.3323849197
 21
-10.0865949208
 31
0.0
  0
LINE
  5
31E
330
1F
100
AcDbEntity
  8
1
100
AcDbLine
 10
221.3323849197
 20
-10.0865949208
 30
0.0
 11
221.2377625462
 21
-7.5147951284
 31
0.0
  0
LINE
  5
31F
330
1F
100
AcDbEntity
  8
1
100
AcDbLine
 10
221.2377625462
 20
-7.5147951284
 30
0.0
 11
221.1711543557
 21
-4.8587641942
 31
0.0
  0
LINE
  5
320
330
1F
100
AcDbEntity
  8
1
100
AcDbLine
 10
223.2699344811
 20
-25.4618319014
 30
0.0
 11
223.2699344811
 21
-25.4775284121
 31
0.0
  0
LINE
  5
321
330
1F
100
AcDbEntity
  8
1
100
AcDbLine
 10
221.6002867061
 20
-0.0000003015
 30
0.0
 11
218.518270826
 21
-0.0000003015
 31
0.0
  0
LINE
  5
322
330
1F
100
AcDbEntity
  8
1
100
AcDbLine
 10
200.9480688905
 20
-16.8885788513
 30
0.0
 11
200.9480691964
 21
-17.7876644243
 31
0.0
  0
LINE
  5
323
330
1F
100
AcDbEntity
  8
1
100
AcDbLine
 10
200.9480695149
 20
17.7876630011
 30
0.0
 11
200.9480698209
 21
16.8885770209
 31
0.0
  0
LINE
  5
324
330
1F
100
AcDbEntity
  8
1
100
AcDbLine
 10
197.6499930024
 20
19.4210670888
 30
0.0
 11
197.6499930024
 21
18.5000002384
 31
0.0
  0
LINE
  5
325
330
1F
100
AcDbEntity
  8
1
100
AcDbLine
 10
200.9480689209
 20
-21.689172996
 30
0.0
 11
200.9480692268
 21
-22.1631408432
 31
0.0
  0
LINE
  5
326
330
1F
100
AcDbEntity
  8
1
100
AcDbLine
 10
200.9480688721
 20
-24.1581536829
 30
0.0
 11
200.948069178
 21
-24.3722927203
 31
0.0
  0
LINE
  5
327
330
1F
100
AcDbEntity
  8
CUT
100
AcDbLine
 10
224.2374239129
 20
-14.2164946243
 30
0.0
 11
224.2974495154
 21
-13.876060833
 31
0.0
  0
LINE
  5
328
330
1F
100
AcDbEntity
  8
CUT
100
AcDbLine
 10
224.4155390712
 20
-14.4287653392
 30
0.0
 11
224.9999910213
 21
-14.4287653392
 31
0.0
  0
LINE
  5
329
330
1F
100
AcDbEntity
  8
CUT
100
AcDbLine
 10
224.4155375843
 20
-25.6999999156
 30
0.0
 11
224.9999920942
 21
-25.6999999156
 31
0.0
  0
LINE
  5
32A
330
1F
100
AcDbEntity
  8
CUT
100
AcDbLine
 10
224.1625638851
 20
-25.9122708687
 30
0.0
 11
224.0610744246
 21
-26.4878462013
 31
0.0
  0
LINE
  5
32B
330
1F
100
AcDbEntity
  8
1
100
AcDbLine
 10
201.1480685253
 20
19.5000011097
 30
0.0
 11
201.1480685253
 21
24.9962497126
 31
0.0
  0
LINE
  5
32C
330
1F
100
AcDbEntity
  8
1
100
AcDbLine
 10
212.7346992493
 20
24.627422914
 30
0.0
 11
212.7346992493
 21
24.4545023888
 31
0.0
  0
LINE
  5
32D
330
1F
100
AcDbEntity
  8
1
100
AcDbLine
 10
215.2967085188
 20
11.0445968224
 30
0.0
 11
215.2937650681
 21
11.0470671207
 31
0.0
  0
LINE
  5
32E
330
1F
100
AcDbEntity
  8
1
100
AcDbLine
 10
215.2937650681
 20
11.0470671207
 30
0.0
 11
215.2850478888
 21
11.0543826595
 31
0.0
  0
LINE
  5
32F
330
1F
100
AcDbEntity
  8
1
100
AcDbLine
 10
215.2850478888
 20
11.0543826595
 30
0.0
 11
215.2708880603
 21
11.0662626103
 31
0.0
  0
LINE
  5
330
330
1F
100
AcDbEntity
  8
1
100
AcDbLine
 10
215.2708880603
 20
11.0662626103
 30
0.0
 11
215.2518332005
 21
11.0822506249
 31
0.0
  0
LINE
  5
331
330
1F
100
AcDbEntity
  8
1
100
AcDbLine
 10
215.2518332005
 20
11.0822506249
 30
0.0
 11
215.2286171913
 21
11.1017320305
 31
0.0
  0
LINE
  5
332
330
1F
100
AcDbEntity
  8
1
100
AcDbLine
 10
215.2286171913
 20
11.1017320305
 30
0.0
 11
215.2021303773
 21
11.1239571124
 31
0.0
  0
LINE
  5
333
330
1F
100
AcDbEntity
  8
1
100
AcDbLine
 10
215.2021303773
 20
11.1239571124
 30
0.0
 11
215.1733897627
 21
11.1480737105
 31
0.0
  0
LINE
  5
334
330
1F
100
AcDbEntity
  8
1
100
AcDbLine
 10
215.1733897627
 20
11.1480737105
 30
0.0
 11
215.1434980333
 21
11.1731542274
 31
0.0
  0
LINE
  5
335
330
1F
100
AcDbEntity
  8
1
100
AcDbLine
 10
215.1434980333
 20
11.1731542274
 30
0.0
 11
215.9770056606
 21
12.1664889157
 31
0.0
  0
LINE
  5
336
330
1F
100
AcDbEntity
  8
1
100
AcDbLine
 10
211.313277483
 20
14.3870925531
 30
0.0
 11
211.3162204623
 21
14.3846217543
 31
0.0
  0
LINE
  5
337
330
1F
100
AcDbEntity
  8
1
100
AcDbLine
 10
211.3162204623
 20
14.3846217543
 30
0.0
 11
211.3249413669
 21
14.3773062155
 31
0.0
  0
LINE
  5
338
330
1F
100
AcDbEntity
  8
1
100
AcDbLine
 10
211.3249413669
 20
14.3773062155
 30
0.0
 11
211.3390974701
 21
14.3654262647
 31
0.0
  0
LINE
  5
339
330
1F
100
AcDbEntity
  8
1
100
AcDbLine
 10
211.3390974701
 20
14.3654262647
 30
0.0
 11
211.3581523299
 21
14.3494391814
 31
0.0
  0
LINE
  5
33A
330
1F
100
AcDbEntity
  8
1
100
AcDbLine
 10
211.3581523299
 20
14.3494391814
 30
0.0
 11
211.3813683391
 21
14.3299577758
 31
0.0
  0
LINE
  5
33B
330
1F
100
AcDbEntity
  8
1
100
AcDbLine
 10
211.3813683391
 20
14.3299577758
 30
0.0
 11
211.4078551531
 21
14.3077317625
 31
0.0
  0
LINE
  5
33C
330
1F
100
AcDbEntity
  8
1
100
AcDbLine
 10
211.4078551531
 20
14.3077317625
 30
0.0
 11
211.4365957678
 21
14.2836151645
 31
0.0
  0
LINE
  5
33D
330
1F
100
AcDbEntity
  8
1
100
AcDbLine
 10
211.4365957678
 20
14.2836151645
 30
0.0
 11
211.4664874971
 21
14.2585346475
 31
0.0
  0
LINE
  5
33E
330
1F
100
AcDbEntity
  8
1
100
AcDbLine
 10
212.2999913991
 20
15.2518693358
 30
0.0
 11
211.4664874971
 21
14.2585346475
 31
0.0
  0
LINE
  5
33F
330
1F
100
AcDbEntity
  8
1
100
AcDbLine
 10
197.2519180027
 20
14.2126352198
 30
0.0
 11
197.251917179
 21
12.8695738791
 31
0.0
  0
LINE
  5
340
330
1F
100
AcDbEntity
  8
1
100
AcDbLine
 10
197.2519176385
 20
-12.8695756223
 30
0.0
 11
197.2519168148
 21
-14.2126366723
 31
0.0
  0
LINE
  5
341
330
1F
100
AcDbEntity
  8
1
100
AcDbLine
 10
197.2519167553
 20
-19.6677939525
 30
0.0
 11
197.2519159317
 21
-20.3175507486
 31
0.0
  0
LINE
  5
342
330
1F
100
AcDbEntity
  8
1
100
AcDbLine
 10
197.2519167553
 20
-23.152068404
 30
0.0
 11
197.2519159317
 21
-23.4863087535
 31
0.0
  0
LINE
  5
343
330
1F
100
AcDbEntity
  8
1
100
AcDbLine
 10
197.2519167553
 20
-24.7631666757
 30
0.0
 11
197.2519159317
 21
-24.867862463
 31
0.0
  0
LINE
  5
344
330
1F
100
AcDbEntity
  8
1
100
AcDbLine
 10
190.499992892
 20
18.6269691838
 30
0.0
 11
190.499992892
 21
20.9999998761
 31
0.0
  0
LINE
  5
345
330
1F
100
AcDbEntity
  8
1
100
AcDbLine
 10
190.499992892
 20
20.9999998761
 30
0.0
 11
200.799992308
 21
20.999999593
 31
0.0
  0
ARC
  5
346
330
1F
100
AcDbEntity
  8
1
100
AcDbCircle
 10
220.2999929667
 20
4.0
 30
0.0
 40
1.0
100
AcDbArc
 50
0.0
 51
90.0000146849
  0
ARC
  5
347
330
1F
100
AcDbEntity
  8
SK1
100
AcDbCircle
 10
-3.0000070333
 20
13.8320508076
 30
0.0
 40
1.000002980200098
100
AcDbArc
 50
359.9999752483
 51
30.0
  0
ARC
  5
348
330
1F
100
AcDbEntity
  8
SK1
100
AcDbCircle
 10
-12.0000070333
 20
13.8320508076
 30
0.0
 40
1.000004410800098
100
AcDbArc
 50
150.0
 51
180.0000247517
  0
ARC
  5
349
330
1F
100
AcDbEntity
  8
SK1
100
AcDbCircle
 10
-3.0000070333
 20
-13.8320508076
 30
0.0
 40
1.000002980200098
100
AcDbArc
 50
330.0
 51
0.0000247517
  0
ARC
  5
34A
330
1F
100
AcDbEntity
  8
SK1
100
AcDbCircle
 10
-12.0000070333
 20
-13.8320508076
 30
0.0
 40
1.000004410800098
100
AcDbArc
 50
179.9999752483
 51
210.0
  0
ARC
  5
34B
330
1F
100
AcDbEntity
  8
SK1
100
AcDbCircle
 10
-3.9629979486
 20
15.5
 30
0.0
 40
1.00000437178574
100
AcDbArc
 50
29.9999056641
 51
90.0
  0
ARC
  5
34C
330
1F
100
AcDbEntity
  8
SK1
100
AcDbCircle
 10
-11.0370161181
 20
15.5
 30
0.0
 40
1.00000561054988
100
AcDbArc
 50
90.0
 51
150.0001353134
  0
ARC
  5
34D
330
1F
100
AcDbEntity
  8
SK1
100
AcDbCircle
 10
-3.9629979486
 20
-15.5
 30
0.0
 40
1.000004371785738
100
AcDbArc
 50
270.0
 51
330.0000943359
  0
ARC
  5
34E
330
1F
100
AcDbEntity
  8
SK1
100
AcDbCircle
 10
-11.0370161181
 20
-15.5
 30
0.0
 40
1.000005610549879
100
AcDbArc
 50
209.9998646866
 51
270.0
  0
ARC
  5
34F
330
1F
100
AcDbEntity
  8
SK1
100
AcDbCircle
 10
-0.3000070333
 20
-14.3
 30
0.0
 40
0.5000000000000016
100
AcDbArc
 50
53.1301023542
 51
105.0
  0
ARC
  5
350
330
1F
100
AcDbEntity
  8
SK1
100
AcDbCircle
 10
-0.3000070333
 20
14.3
 30
0.0
 40
0.5000000000000001
100
AcDbArc
 50
255.0
 51
306.8698976458
  0
ARC
  5
351
330
1F
100
AcDbEntity
  8
SK1
100
AcDbCircle
 10
-29.2000077323
 20
-13.2
 30
0.0
 40
0.799999300998028
100
AcDbArc
 50
180.0
 51
279.9996223792
  0
ARC
  5
352
330
1F
100
AcDbEntity
  8
SK1
100
AcDbCircle
 10
-29.2000077323
 20
13.1999986232
 30
0.0
 40
0.799999300998019
100
AcDbArc
 50
80.0003776207
 51
179.9999013963
  0
ARC
  5
353
330
1F
100
AcDbEntity
  8
1
100
AcDbCircle
 10
218.4576109091
 20
-18.8557718212
 30
0.0
 40
2.599992702785913
100
AcDbArc
 50
271.3368778341
 51
88.6631221672
  0
ARC
  5
354
330
1F
100
AcDbEntity
  8
1
100
AcDbCircle
 10
225.1880349372
 20
0.4880700424
 30
0.0
 40
6.687597921533346
100
AcDbArc
 50
184.1852478584
 51
233.0838044106
  0
ARC
  5
355
330
1F
100
AcDbEntity
  8
1
100
AcDbCircle
 10
223.4029872264
 20
-24.6670411986
 30
0.0
 40
0.805850665029464
100
AcDbArc
 50
260.496466038
 51
358.1443906268
  0
ARC
  5
356
330
1F
100
AcDbEntity
  8
1
100
AcDbCircle
 10
234.5997925044
 20
-2.5019945594
 30
0.0
 40
12.99923883500774
100
AcDbArc
 50
187.7415871685
 51
196.5721798784
  0
ARC
  5
357
330
1F
100
AcDbEntity
  8
1
100
AcDbCircle
 10
200.6727796324
 20
17.3381199173
 30
0.0
 40
0.5271370823451274
100
AcDbArc
 50
301.4823867679
 51
58.51765222739999
  0
ARC
  5
358
330
1F
100
AcDbEntity
  8
1
100
AcDbCircle
 10
215.5999853292
 20
13.071360703
 30
0.0
 40
4.999992913504105
100
AcDbArc
 50
180.0033583599
 51
225.0048263008
  0
ARC
  5
359
330
1F
100
AcDbEntity
  8
1
100
AcDbCircle
 10
218.4571799239
 20
-18.8557718212
 30
0.0
 40
2.600002793717951
100
AcDbArc
 50
88.65362721140002
 51
271.3463727899
  0
ARC
  5
35A
330
1F
100
AcDbEntity
  8
1
100
AcDbCircle
 10
212.6949803496
 20
-24.9964224299
 30
0.0
 40
0.3711593571820077
100
AcDbArc
 50
83.81075519469998
 51
115.5334807916
  0
ARC
  5
35B
330
1F
100
AcDbEntity
  8
1
100
AcDbCircle
 10
200.6981018319
 20
-50.0143759764
 30
0.0
 40
25.01937514196583
100
AcDbArc
 50
88.8774310654
 51
89.42755189749998
  0
ARC
  5
35C
330
1F
100
AcDbEntity
  8
1
100
AcDbCircle
 10
200.6706388156
 20
-17.3381217322
 30
0.0
 40
0.5282577478855793
100
AcDbArc
 50
301.6803585859
 51
58.3196804033
  0
ARC
  5
35D
330
1F
100
AcDbEntity
  8
1
100
AcDbCircle
 10
234.5999922152
 20
-2.5000003015
 30
0.0
 40
12.99970550910743
100
AcDbArc
 50
179.9999997536
 51
187.7501781134
  0
ARC
  5
35E
330
1F
100
AcDbEntity
  8
1
100
AcDbCircle
 10
234.5999922152
 20
-2.5000003015
 30
0.0
 40
12.99999921392751
100
AcDbArc
 50
215.7820317839
 51
220.0587787539
  0
ARC
  5
35F
330
1F
100
AcDbEntity
  8
1
100
AcDbCircle
 10
234.5999922152
 20
-2.5000003015
 30
0.0
 40
12.99999919058123
100
AcDbArc
 50
196.5803531508
 51
201.8641912228
  0
ARC
  5
360
330
1F
100
AcDbEntity
  8
1
100
AcDbCircle
 10
232.9099670661
 20
-3.4455223475
 30
0.0
 40
11.07832793482003
100
AcDbArc
 50
200.3575712139
 51
216.9256679124
  0
ARC
  5
361
330
1F
100
AcDbEntity
  8
1
100
AcDbCircle
 10
198.8542034096
 20
-19.5740795891
 30
0.0
 40
1.471239834122468
100
AcDbArc
 50
188.7258067312
 51
215.0650211033
  0
CIRCLE
  5
362
330
1F
100
AcDbEntity
  8
1
100
AcDbCircle
 10
218.4569929667
 20
-18.85576756
 30
0.0
 40
2.0
  0
ARC
  5
363
330
1F
100
AcDbEntity
  8
1
100
AcDbCircle
 10
198.5154735805
 20
-22.7209286544
 30
0.0
 40
1.175129439355299
100
AcDbArc
 50
198.3335984176
 51
222.5660328713
  0
ARC
  5
364
330
1F
100
AcDbEntity
  8
1
100
AcDbCircle
 10
223.4256417015
 20
-24.7606471143
 30
0.0
 40
0.7335963015500574
100
AcDbArc
 50
257.7456469989
 51
326.8804852051
  0
ARC
  5
365
330
1F
100
AcDbEntity
  8
CUT
100
AcDbCircle
 10
224.1999935029
 20
-14.4287653392
 30
0.0
 40
0.7999975183162746
100
AcDbArc
 50
0.0
 51
55.8982516337
  0
ARC
  5
366
330
1F
100
AcDbEntity
  8
CUT
100
AcDbCircle
 10
224.1999935029
 20
-14.4287653392
 30
0.0
 40
0.2155455682195124
100
AcDbArc
 50
0.0
 51
79.999645109
  0
ARC
  5
367
330
1F
100
AcDbEntity
  8
CUT
100
AcDbCircle
 10
224.1999928376
 20
-25.7000007311
 30
0.0
 40
0.2155447466518677
100
AcDbArc
 50
260.0
 51
0.0002167757
  0
ARC
  5
368
330
1F
100
AcDbEntity
  8
CUT
100
AcDbCircle
 10
224.1999928376
 20
-25.7000007311
 30
0.0
 40
0.7999992565497003
100
AcDbArc
 50
260.0
 51
0.0000584061
  0
ARC
  5
369
330
1F
100
AcDbEntity
  8
1
100
AcDbCircle
 10
213.0999934091
 20
23.7427706957
 30
0.0
 40
0.800000783800035
100
AcDbArc
 50
100.0
 51
179.9999811497
  0
ARC
  5
36A
330
1F
100
AcDbEntity
  8
CUT
100
AcDbCircle
 10
224.1999932034
 20
25.7000007009
 30
0.0
 40
0.799999763293125
100
AcDbArc
 50
359.9999497246
 51
99.9999125897
  0
ARC
  5
36C
330
1F
100
AcDbEntity
  8
1
100
AcDbCircle
 10
213.0999934709
 20
12.4715353038
 30
0.0
 40
0.8000008456151743
100
AcDbArc
 50
179.9999912624
 51
279.9998771172
  0
CIRCLE
  5
36D
330
1F
100
AcDbEntity
  8
1
100
AcDbCircle
 10
218.6499929667
 20
19.08576756
 30
0.0
 40
3.78406505653399
  0
CIRCLE
  5
36E
330
1F
100
AcDbEntity
  8
1
100
AcDbCircle
 10
218.6499929667
 20
19.08576756
 30
0.0
 40
3.750000000000028
  0
CIRCLE
  5
36F
330
1F
100
AcDbEntity
  8
1
100
AcDbCircle
 10
218.4569929667
 20
-18.85576756
 30
0.0
 40
1.599999999999966
  0
ARC
  5
370
330
1F
100
AcDbEntity
  8
1
100
AcDbCircle
 10
218.4569929667
 20
18.85576756
 30
0.0
 40
3.500001592200001
100
AcDbArc
 50
274.4701861222998
 51
180.0000038535
  0
ARC
  5
371
330
1F
100
AcDbEntity
  8
1
100
AcDbCircle
 10
218.4569929667
 20
18.85576756
 30
0.0
 40
1.970000000000023
100
AcDbArc
 50
330.0
 51
30.0
  0
ARC
  5
372
330
1F
100
AcDbEntity
  8
1
100
AcDbCircle
 10
218.4569929667
 20
18.85576756
 30
0.0
 40
1.970000000000023
100
AcDbArc
 50
30.0
 51
89.9999999992
  0
ARC
  5
373
330
1F
100
AcDbEntity
  8
1
100
AcDbCircle
 10
218.4569929667
 20
18.85576756
 30
0.0
 40
1.970000000000047
100
AcDbArc
 50
89.9999999992
 51
150.0
  0
ARC
  5
374
330
1F
100
AcDbEntity
  8
1
100
AcDbCircle
 10
218.4569929667
 20
18.85576756
 30
0.0
 40
1.970000000000047
100
AcDbArc
 50
150.0
 51
210.0
  0
ARC
  5
375
330
1F
100
AcDbEntity
  8
1
100
AcDbCircle
 10
218.4569929667
 20
18.85576756
 30
0.0
 40
1.970000000000047
100
AcDbArc
 50
210.0
 51
270.0
  0
ARC
  5
376
330
1F
100
AcDbEntity
  8
1
100
AcDbCircle
 10
218.4569929667
 20
18.85576756
 30
0.0
 40
1.970000000000027
100
AcDbArc
 50
270.0
 51
330.0
  0
ARC
  5
377
330
1F
100
AcDbEntity
  8
1
100
AcDbCircle
 10
219.903255391
 20
18.02076756
 30
0.0
 40
0.3000000000173887
100
AcDbArc
 50
330.0000000019
 51
56.6158381936
  0
ARC
  5
378
330
1F
100
AcDbEntity
  8
1
100
AcDbCircle
 10
220.4535053342
 20
18.85576756
 30
0.0
 40
0.7000000000000085
100
AcDbArc
 50
123.3841618063
 51
236.6158381942
  0
ARC
  5
379
330
1F
100
AcDbEntity
  8
1
100
AcDbCircle
 10
219.903255391
 20
19.69076756
 30
0.0
 40
0.300000000017387
100
AcDbArc
 50
303.3841618053
 51
29.9999999981
  0
ARC
  5
37A
330
1F
100
AcDbEntity
  8
1
100
AcDbCircle
 10
219.4552491504
 20
20.5847979893
 30
0.0
 40
0.7000000000000616
100
AcDbArc
 50
183.3841618063
 51
296.6158381936
  0
ARC
  5
37B
330
1F
100
AcDbEntity
  8
1
100
AcDbCircle
 10
218.4569929667
 20
20.52576756
 30
0.0
 40
0.300000000000022
100
AcDbArc
 50
3.384161817
 51
89.9999999947
  0
ARC
  5
37C
330
1F
100
AcDbEntity
  8
1
100
AcDbCircle
 10
219.903255391
 20
19.69076756
 30
0.0
 40
0.3000000000653744
100
AcDbArc
 50
29.9999999981
 51
116.6158381969
  0
ARC
  5
37D
330
1F
100
AcDbEntity
  8
1
100
AcDbCircle
 10
218.4569929667
 20
17.18576756
 30
0.0
 40
0.3000000000000684
100
AcDbArc
 50
270.0
 51
356.6158381936
  0
ARC
  5
37E
330
1F
100
AcDbEntity
  8
1
100
AcDbCircle
 10
219.4552491504
 20
17.1267371308
 30
0.0
 40
0.700000000000016
100
AcDbArc
 50
63.38416180629999
 51
176.6158381973
  0
ARC
  5
37F
330
1F
100
AcDbEntity
  8
1
100
AcDbCircle
 10
219.903255391
 20
18.02076756
 30
0.0
 40
0.3000000000173887
100
AcDbArc
 50
243.3841617948
 51
330.0000000019
  0
ARC
  5
380
330
1F
100
AcDbEntity
  8
1
100
AcDbCircle
 10
217.0107305423
 20
18.02076756
 30
0.0
 40
0.300000000000021
100
AcDbArc
 50
210.0000000076
 51
296.6158381937
  0
ARC
  5
381
330
1F
100
AcDbEntity
  8
1
100
AcDbCircle
 10
217.4587367829
 20
17.1267371308
 30
0.0
 40
0.7000000000000034
100
AcDbArc
 50
3.3841618063
 51
116.6158381986
  0
ARC
  5
382
330
1F
100
AcDbEntity
  8
1
100
AcDbCircle
 10
218.4569929667
 20
17.18576756
 30
0.0
 40
0.3000000000332437
100
AcDbArc
 50
183.3841617968
 51
270.0
  0
ARC
  5
383
330
1F
100
AcDbEntity
  8
1
100
AcDbCircle
 10
217.4587367829
 20
20.5847979893
 30
0.0
 40
0.7000000000000289
100
AcDbArc
 50
243.3841618063
 51
356.6158381937
  0
ARC
  5
384
330
1F
100
AcDbEntity
  8
1
100
AcDbCircle
 10
217.0107305423
 20
19.69076756
 30
0.0
 40
0.3000000000654114
100
AcDbArc
 50
63.3841618034
 51
149.9999999924
  0
ARC
  5
385
330
1F
100
AcDbEntity
  8
1
100
AcDbCircle
 10
218.4569929667
 20
20.52576756
 30
0.0
 40
0.300000000039147
100
AcDbArc
 50
89.9999999947
 51
176.6158381842
  0
ARC
  5
386
330
1F
100
AcDbEntity
  8
1
100
AcDbCircle
 10
217.0107305423
 20
19.69076756
 30
0.0
 40
0.3000000000000267
100
AcDbArc
 50
149.9999999924
 51
236.6158381936
  0
ARC
  5
387
330
1F
100
AcDbEntity
  8
1
100
AcDbCircle
 10
217.0107305423
 20
18.02076756
 30
0.0
 40
0.3000000000000237
100
AcDbArc
 50
123.3841618064
 51
210.0000000076
  0
ARC
  5
388
330
1F
100
AcDbEntity
  8
1
100
AcDbCircle
 10
216.4604805991
 20
18.85576756
 30
0.0
 40
0.6999999999957868
100
AcDbArc
 50
303.3841618058
 51
56.6158381942
  0
ARC
  5
389
330
1F
100
AcDbEntity
  8
1
100
AcDbCircle
 10
213.3049929667
 20
12.7158446076
 30
0.0
 40
2.600000000000083
100
AcDbArc
 50
205.2165904547
 51
320.0
  0
ARC
  5
38A
330
1F
100
AcDbEntity
  8
1
100
AcDbCircle
 10
213.3049929667
 20
12.7158446076
 30
0.0
 40
2.600000050643862
100
AcDbArc
 50
139.9999963247
 51
193.2973908321
  0
ARC
  5
38B
330
1F
100
AcDbEntity
  8
1
100
AcDbCircle
 10
234.600287809
 20
2.4999996985
 30
0.0
 40
13.00000050089469
100
AcDbArc
 50
139.9412237104
 51
180.0
  0
ARC
  5
38C
330
1F
100
AcDbEntity
  8
1
100
AcDbCircle
 10
200.8977769754
 20
50.0165036249
 30
0.0
 40
25.02150578392994
100
AcDbArc
 50
270.5731425097
 51
271.1225410917
  0
ARC
  5
38D
330
1F
100
AcDbEntity
  8
1
100
AcDbCircle
 10
212.6946835427
 20
24.9964188647
 30
0.0
 40
0.3711593572036958
100
AcDbArc
 50
244.4665192084
 51
276.1892448016
  0
ARC
  5
38E
330
1F
100
AcDbEntity
  8
1
  6
Continuous
370
    50
100
AcDbCircle
 10
62.0790316144
 20
6.2462408238
 30
0.0
 40
0.2214807459282448
100
AcDbArc
 50
327.2291780422
 51
356.9458754286
  0
ARC
  5
38F
330
1F
100
AcDbEntity
  8
1
  6
Continuous
370
    50
100
AcDbCircle
 10
61.6980020869
 20
5.823054515
 30
0.0
 40
1.354225213477664
100
AcDbArc
 50
167.0577962252
 51
179.7776145314
  0
ARC
  5
390
330
1F
100
AcDbEntity
  8
1
  6
Continuous
370
    50
100
AcDbCircle
 10
61.2262568403
 20
5.8837046809
 30
0.0
 40
0.8842066373373929
100
AcDbArc
 50
183.5918290291
 51
278.1411062827
  0
ARC
  5
391
330
1F
100
AcDbEntity
  8
1
  6
Continuous
370
    50
100
AcDbCircle
 10
61.4390375537
 20
6.2868996355
 30
0.0
 40
1.281486160627017
100
AcDbArc
 50
266.0817940012
 51
357.6294524415
  0
ARC
  5
392
330
1F
100
AcDbEntity
  8
1
  6
Continuous
370
    50
100
AcDbCircle
 10
61.804684484
 20
6.156439038
 30
0.0
 40
0.9180159829801628
100
AcDbArc
 50
4.8399665929
 51
95.8788931809
  0
ARC
  5
393
330
1F
100
AcDbEntity
  8
1
  6
Continuous
370
    50
100
AcDbCircle
 10
61.6085223139
 20
5.8270932904
 30
0.0
 40
1.246724029681196
100
AcDbArc
 50
85.30098367909999
 51
152.3403866641
  0
ARC
  5
394
330
1F
100
AcDbEntity
  8
1
  6
Continuous
370
    50
100
AcDbCircle
 10
61.712787423
 20
5.9141015237
 30
0.0
 40
0.9109978718416968
100
AcDbArc
 50
89.5848779323
 51
149.9049208128
  0
ARC
  5
395
330
1F
100
AcDbEntity
  8
1
  6
Continuous
370
    50
100
AcDbCircle
 10
61.7435361127
 20
6.2679304015
 30
0.0
 40
0.557668168691479
100
AcDbArc
 50
356.5571174774
 51
92.48181799310002
  0
ARC
  5
396
330
1F
100
AcDbEntity
  8
1
  6
Continuous
370
    50
100
AcDbCircle
 10
71.4081818743
 20
6.2192671584
 30
0.0
 40
0.9676253459563007
100
AcDbArc
 50
272.99119459
 51
353.5801171943999
  0
ARC
  5
397
330
1F
100
AcDbEntity
  8
1
  6
Continuous
370
    50
100
AcDbCircle
 10
71.4185123316
 20
5.4864766804
 30
0.0
 40
0.2369451685171286
100
AcDbArc
 50
183.1411286505
 51
279.7588547016002
  0
ARC
  5
398
330
1F
100
AcDbEntity
  8
1
  6
Continuous
370
    50
100
AcDbCircle
 10
72.193180866
 20
5.3804660369
 30
0.0
 40
1.015527550918074
100
AcDbArc
 50
163.3700399851
 51
174.7440690122
  0
ARC
  5
399
330
1F
100
AcDbEntity
  8
1
  6
Continuous
370
    50
100
AcDbCircle
 10
69.9723764083
 20
6.1772539908
 30
0.0
 40
0.9250787485728954
100
AcDbArc
 50
272.3603966274001
 51
354.4724566771999
  0
ARC
  5
39A
330
1F
100
AcDbEntity
  8
1
  6
Continuous
370
    50
100
AcDbCircle
 10
70.9580523739
 20
5.3467538811
 30
0.0
 40
1.249129651049381
100
AcDbArc
 50
163.5715296251
 51
174.528889728
  0
ARC
  5
39B
330
1F
100
AcDbEntity
  8
1
  6
Continuous
370
    50
100
AcDbCircle
 10
70.5038042635
 20
5.398812184
 30
0.0
 40
1.243769438188852
100
AcDbArc
 50
161.9810617584
 51
175.9276509635
  0
ARC
  5
39C
330
1F
100
AcDbEntity
  8
1
  6
Continuous
370
    50
100
AcDbCircle
 10
69.8797402096
 20
6.21380416
 30
0.0
 40
1.205475708558704
100
AcDbArc
 50
270.6615293848
 51
315.8862227714
  0
ARC
  5
39D
330
1F
100
AcDbEntity
  8
1
  6
Continuous
370
    50
100
AcDbCircle
 10
71.2765825981
 20
5.5705536557
 30
0.0
 40
0.5663094109505461
100
AcDbArc
 50
200.2342839478
 51
276.9528289959
  0
ARC
  5
39E
330
1F
100
AcDbEntity
  8
1
  6
Continuous
370
    50
100
AcDbCircle
 10
71.2902643947
 20
6.213756947
 30
0.0
 40
1.206596453651784
100
AcDbArc
 50
272.6064815345
 51
317.6479396884
  0
ARC
  5
39F
330
1F
100
AcDbEntity
  8
1
  6
Continuous
370
    50
100
AcDbCircle
 10
80.5650990377
 20
5.844223715
 30
0.0
 40
0.8369372320659868
100
AcDbArc
 50
215.5373336261
 51
272.9675459673
  0
ARC
  5
3A0
330
1F
100
AcDbEntity
  8
1
  6
Continuous
370
    50
100
AcDbCircle
 10
80.6005678051
 20
6.2717888675
 30
0.0
 40
1.263404515868532
100
AcDbArc
 50
270.3564429725
 51
359.5440171238
  0
ARC
  5
3A1
330
1F
100
AcDbEntity
  8
1
  6
Continuous
370
    50
100
AcDbCircle
 10
81.0460102892
 20
6.2538995987
 30
0.0
 40
0.8179595448779472
100
AcDbArc
 50
0.5488067523
 51
94.23398005640001
  0
ARC
  5
3A2
330
1F
100
AcDbEntity
  8
1
  6
Continuous
370
    50
100
AcDbCircle
 10
81.0116205319
 20
5.8277728017
 30
0.0
 40
1.242126163494655
100
AcDbArc
 50
91.19939035829996
 51
132.0010660312
  0
ARC
  5
3A3
330
1F
100
AcDbEntity
  8
1
  6
Continuous
370
    50
100
AcDbCircle
 10
89.9609404309
 20
5.6042696935
 30
0.0
 40
0.3513411143300105
100
AcDbArc
 50
224.5557073861
 51
269.2320431991
  0
ARC
  5
3A4
330
1F
100
AcDbEntity
  8
1
  6
Continuous
370
    50
100
AcDbCircle
 10
89.9020672707
 20
6.9309743178
 30
0.0
 40
1.923232409819769
100
AcDbArc
 50
258.9583176869
 51
268.4910947446
  0
ARC
  5
3A5
330
1F
100
AcDbEntity
  8
1
  6
Continuous
370
    50
100
AcDbCircle
 10
89.7391842042
 20
6.2318303099
 30
0.0
 40
1.228559312902663
100
AcDbArc
 50
275.2417915374999
 51
316.4653743876
  0
ARC
  5
3A6
330
1F
100
AcDbEntity
  8
1
  6
Continuous
370
    50
100
AcDbCircle
 10
100.081170839
 20
6.2192795475
 30
0.0
 40
0.9676383271338936
100
AcDbArc
 50
272.9918463146
 51
353.5794654685999
  0
ARC
  5
3A7
330
1F
100
AcDbEntity
  8
1
  6
Continuous
370
    50
100
AcDbCircle
 10
100.091514295
 20
5.4864863422
 30
0.0
 40
0.2369544651374453
100
AcDbArc
 50
183.1433450349
 51
279.758141843
  0
ARC
  5
3A8
330
1F
100
AcDbEntity
  8
1
  6
Continuous
370
    50
100
AcDbCircle
 10
100.8667857487
 20
5.3803110555
 30
0.0
 40
1.016150880347573
100
AcDbArc
 50
163.3714175137
 51
174.7385266247
  0
ARC
  5
3A9
330
1F
100
AcDbEntity
  8
1
  6
Continuous
370
    50
100
AcDbCircle
 10
98.6453786939
 20
6.1772443707
 30
0.0
 40
0.9250687617914528
100
AcDbArc
 50
272.3598578667
 51
354.4729954389999
  0
ARC
  5
3AA
330
1F
100
AcDbEntity
  8
1
  6
Continuous
370
    50
100
AcDbCircle
 10
99.6329245401
 20
5.3463903523
 30
0.0
 40
1.25103474778377
100
AcDbArc
 50
163.5798981137
 51
174.520521239
  0
ARC
  5
3AB
330
1F
100
AcDbEntity
  8
1
  6
Continuous
370
    50
100
AcDbCircle
 10
99.1769631822
 20
5.398750097
 30
0.0
 40
1.24393916548938
100
AcDbArc
 50
161.9805975022
 51
175.9253405782
  0
ARC
  5
3AC
330
1F
100
AcDbEntity
  8
1
  6
Continuous
370
    50
100
AcDbCircle
 10
98.5527333927
 20
6.21380416
 30
0.0
 40
1.205475708558714
100
AcDbArc
 50
270.6615293848
 51
315.8862227714
  0
ARC
  5
3AD
330
1F
100
AcDbEntity
  8
1
  6
Continuous
370
    50
100
AcDbCircle
 10
99.9495757812
 20
5.5705536557
 30
0.0
 40
0.5663094109505461
100
AcDbArc
 50
200.2342839478
 51
276.9528289959
  0
ARC
  5
3AE
330
1F
100
AcDbEntity
  8
1
  6
Continuous
370
    50
100
AcDbCircle
 10
99.9632750784
 20
6.2137196334
 30
0.0
 40
1.206558382858948
100
AcDbArc
 50
272.6057319235001
 51
317.6486892994
  0
ARC
  5
3AF
330
1F
100
AcDbEntity
  8
1
  6
Continuous
370
    50
100
AcDbCircle
 10
56.0928135161
 20
-2.5037560245
 30
0.0
 40
3.861560198695365
100
AcDbArc
 50
163.0132204827
 51
215.4645401345
  0
ARC
  5
3B0
330
1F
100
AcDbEntity
  8
1
  6
Continuous
370
    50
100
AcDbCircle
 10
56.9778418459
 20
-1.1962224842
 30
0.0
 40
5.369416747059621
100
AcDbArc
 50
221.3594396485
 51
273.3910913098999
  0
ARC
  5
3B1
330
1F
100
AcDbEntity
  8
1
  6
Continuous
370
    50
100
AcDbCircle
 10
59.2265330476
 20
-3.5808931167
 30
0.0
 40
7.184772607952745
100
AcDbArc
 50
86.43352233179999
 51
160.4736786061
  0
ARC
  5
3B2
330
1F
100
AcDbEntity
  8
1
  6
Continuous
370
    50
100
AcDbCircle
 10
53.3750934788
 20
8.7635079341
 30
0.0
 40
0.6219389864212386
100
AcDbArc
 50
341.141409245
 51
71.0977233748
  0
ARC
  5
3B3
330
1F
100
AcDbEntity
  8
1
  6
Continuous
370
    50
100
AcDbCircle
 10
53.3727580459
 20
8.7460056872
 30
0.0
 40
0.6392633219746946
100
AcDbArc
 50
71.4078776456
 51
89.7631527057
  0
ARC
  5
3B4
330
1F
100
AcDbEntity
  8
1
  6
Continuous
370
    50
100
AcDbCircle
 10
53.3752657566
 20
8.7637030651
 30
0.0
 40
0.6215604968394449
100
AcDbArc
 50
89.98756980579999
 51
161.1196483249
  0
ARC
  5
3B5
330
1F
100
AcDbEntity
  8
1
  6
Continuous
370
    50
100
AcDbCircle
 10
47.6090276737
 20
5.7832096531
 30
0.0
 40
0.6209849200983935
100
AcDbArc
 50
1.307822921
 51
81.5465842333
  0
ARC
  5
3B6
330
1F
100
AcDbEntity
  8
1
  6
Continuous
370
    50
100
AcDbCircle
 10
47.6087215385
 20
5.7825801133
 30
0.0
 40
0.6216526593528788
100
AcDbArc
 50
81.52720489449999
 51
161.7732020802
  0
ARC
  5
3B7
330
1F
100
AcDbEntity
  8
1
  6
Continuous
370
    50
100
AcDbCircle
 10
43.7294789785
 20
3.7731687997
 30
0.0
 40
0.6215236174470326
100
AcDbArc
 50
2.4265858903
 51
80.4049308456
  0
ARC
  5
3B8
330
1F
100
AcDbEntity
  8
1
  6
Continuous
370
    50
100
AcDbCircle
 10
43.729873687
 20
3.7733208133
 30
0.0
 40
0.6213080454194994
100
AcDbArc
 50
80.4384842216
 51
158.4330888428
  0
ARC
  5
3B9
330
1F
100
AcDbEntity
  8
1
  6
Continuous
370
    50
100
AcDbCircle
 10
40.5250211347
 20
2.2384603542
 30
0.0
 40
0.6206015520205947
100
AcDbArc
 50
6.1923168337
 51
76.905190822
  0
ARC
  5
3BA
330
1F
100
AcDbEntity
  8
1
  6
Continuous
370
    50
100
AcDbCircle
 10
40.5248674939
 20
2.2368645586
 30
0.0
 40
0.6221906967508388
100
AcDbArc
 50
76.92470434610001
 51
147.4194471096
  0
ARC
  5
3BB
330
1F
100
AcDbEntity
  8
1
  6
Continuous
370
    50
100
AcDbCircle
 10
28.120574875
 20
0.0006903164
 30
0.0
 40
0.6205699013713089
100
AcDbArc
 50
89.93786229559998
 51
179.3231075753
  0
ARC
  5
3BC
330
1F
100
AcDbEntity
  8
1
  6
Continuous
370
    50
100
AcDbCircle
 10
28.120720485
 20
-0.000700343
 30
0.0
 40
0.62073348379432
100
AcDbArc
 50
179.1949126858
 51
270.0486810347999
  0
ARC
  5
3BD
330
1F
100
AcDbEntity
  8
1
  6
Continuous
370
    50
100
AcDbCircle
 10
39.09709582
 20
0.0016109016
 30
0.0
 40
0.6230446573560643
100
AcDbArc
 50
270.0401694664998
 51
327.3792681128
  0
ARC
  5
3BE
330
1F
100
AcDbEntity
  8
1
  6
Continuous
370
    50
100
AcDbCircle
 10
41.0869780267
 20
-2.9078221145
 30
0.0
 40
0.6213350968593547
100
AcDbArc
 50
186.2353230375
 51
262.3310778003
  0
ARC
  5
3BF
330
1F
100
AcDbEntity
  8
1
  6
Continuous
370
    50
100
AcDbCircle
 10
41.0876502014
 20
-2.9088178573
 30
0.0
 40
0.6204384755448068
100
AcDbArc
 50
262.2572883550999
 51
338.5028068606
  0
ARC
  5
3C0
330
1F
100
AcDbEntity
  8
1
  6
Continuous
370
    50
100
AcDbCircle
 10
44.0923045755
 20
-4.8815858174
 30
0.0
 40
0.6211086869985143
100
AcDbArc
 50
182.3624524836
 51
262.1200921581
  0
ARC
  5
3C1
330
1F
100
AcDbEntity
  8
1
  6
Continuous
370
    50
100
AcDbCircle
 10
44.092354399
 20
-4.8812125622
 30
0.0
 40
0.6214852484811674
100
AcDbArc
 50
262.1202598726
 51
341.7628277415
  0
ARC
  5
3C2
330
1F
100
AcDbEntity
  8
1
  6
Continuous
370
    50
100
AcDbCircle
 10
47.9130421739
 20
-7.2110956586
 30
0.0
 40
0.622222007129496
100
AcDbArc
 50
181.41764713
 51
261.2240742954
  0
ARC
  5
3C3
330
1F
100
AcDbEntity
  8
1
  6
Continuous
370
    50
100
AcDbCircle
 10
47.911654713
 20
-7.2102928259
 30
0.0
 40
0.6228055462040929
100
AcDbArc
 50
261.3614897862
 51
340.9983174304999
  0
ARC
  5
3C4
330
1F
100
AcDbEntity
  8
1
  6
Continuous
370
    50
100
AcDbCircle
 10
84.0073581573
 20
-0.1095393329
 30
0.0
 40
2.768490208175602
100
AcDbArc
 50
218.4787318263
 51
271.8233919994
  0
ARC
  5
3C5
330
1F
100
AcDbEntity
  8
1
  6
Continuous
370
    50
100
AcDbCircle
 10
102.7159477533
 20
-3.7383236103
 30
0.0
 40
0.8620714789631461
100
AcDbArc
 50
39.1963191887
 51
91.69137792460002
  0
ARC
  5
3C6
330
1F
100
AcDbEntity
  8
1
  6
Continuous
370
    50
100
AcDbCircle
 10
103.1025062677
 20
-3.443471975
 30
0.0
 40
0.3764855265049074
100
AcDbArc
 50
354.9111693818
 51
41.6002588763
  0
ARC
  5
3C7
330
1F
100
AcDbEntity
  8
1
  6
Continuous
370
    50
100
AcDbCircle
 10
101.9996881358
 20
-2.8762900652
 30
0.0
 40
1.59519367075631
100
AcDbArc
 50
257.7794461406
 51
337.8834979418
  0
ARC
  5
3C8
330
1F
100
AcDbEntity
  8
1
  6
Continuous
370
    50
100
AcDbCircle
 10
101.8023389884
 20
-2.645826019
 30
0.0
 40
3.92302995578539
100
AcDbArc
 50
265.4033089545998
 51
341.7422247909
  0
ARC
  5
3C9
330
1F
100
AcDbEntity
  8
1
  6
Continuous
370
    50
100
AcDbCircle
 10
103.2579656139
 20
-3.2644195617
 30
0.0
 40
2.350560072028248
100
AcDbArc
 50
344.9471681521
 51
37.258308122
  0
ARC
  5
3CA
330
1F
100
AcDbEntity
  8
1
  6
Continuous
370
    50
100
AcDbCircle
 10
102.9281426013
 20
-3.527137044
 30
0.0
 40
2.772138547900306
100
AcDbArc
 50
37.4530595026
 51
91.31373470309997
  0
ARC
  5
3CB
330
1F
100
AcDbEntity
  8
1
  6
Continuous
370
    50
100
AcDbCircle
 10
84.1841391089
 20
0.0229291417
 30
0.0
 40
0.7833237988989623
100
AcDbArc
 50
220.5789078512
 51
276.2578363508001
  0
ARC
  5
3CC
330
1F
100
AcDbEntity
  8
1
  6
Continuous
370
    50
100
AcDbCircle
 10
84.6240199859
 20
0.027562398
 30
0.0
 40
1.155526967251927
100
AcDbArc
 50
162.4162020278
 51
206.4217722766
  0
ARC
  5
3CD
330
1F
100
AcDbEntity
  8
1
  6
Continuous
370
    50
100
AcDbCircle
 10
85.5195019571
 20
-0.6887887556
 30
0.0
 40
4.304636631360073
100
AcDbArc
 50
83.7136873524
 51
159.9157387178
  0
ARC
  5
3CE
330
1F
100
AcDbEntity
  8
1
  6
Continuous
370
    50
100
AcDbCircle
 10
84.4957206498
 20
-0.1280122492
 30
0.0
 40
3.155403713786403
100
AcDbArc
 50
163.0969572376
 51
212.6886091418
  0
ARC
  5
3CF
330
1F
100
AcDbEntity
  8
1
  6
Continuous
370
    50
100
AcDbCircle
 10
115.9042258594
 20
4.8818975652
 30
0.0
 40
0.6204096009571594
100
AcDbArc
 50
2.3041936979
 51
82.14227744169999
  0
ARC
  5
3D0
330
1F
100
AcDbEntity
  8
1
  6
Continuous
370
    50
100
AcDbCircle
 10
115.9046409817
 20
4.8788614526
 30
0.0
 40
0.6233610010515597
100
AcDbArc
 50
82.2182264689
 51
161.6256711199
  0
ARC
  5
3D1
330
1F
100
AcDbEntity
  8
1
  6
Continuous
370
    50
100
AcDbCircle
 10
112.0827406164
 20
7.2114255313
 30
0.0
 40
0.6221053844552626
100
AcDbArc
 50
1.3554766235
 51
81.19912461310001
  0
ARC
  5
3D2
330
1F
100
AcDbEntity
  8
1
  6
Continuous
370
    50
100
AcDbCircle
 10
112.0850693702
 20
7.2097029314
 30
0.0
 40
0.6234566770955697
100
AcDbArc
 50
81.4348395434
 51
90.20017774219997
  0
ARC
  5
3D3
330
1F
100
AcDbEntity
  8
1
  6
Continuous
370
    50
100
AcDbCircle
 10
112.0828856525
 20
7.212148745
 30
0.0
 40
0.6210070584543839
100
AcDbArc
 50
89.9994912912
 51
161.1561000022
  0
ARC
  5
3D4
330
1F
100
AcDbEntity
  8
1
  6
Continuous
370
    50
100
AcDbCircle
 10
106.6210803259
 20
-8.7636068004
 30
0.0
 40
0.6217801507129871
100
AcDbArc
 50
161.1267821459
 51
251.1123504751
  0
ARC
  5
3D5
330
1F
100
AcDbEntity
  8
1
  6
Continuous
370
    50
100
AcDbCircle
 10
106.620353522
 20
-8.7626433028
 30
0.0
 40
0.6224572953202155
100
AcDbArc
 50
251.2043583318001
 51
341.0447669019
  0
ARC
  5
3D6
330
1F
100
AcDbEntity
  8
1
  6
Continuous
370
    50
100
AcDbCircle
 10
112.3871745778
 20
-5.782672535
 30
0.0
 40
0.6216882948503435
100
AcDbArc
 50
181.3558580202
 51
261.5560413764
  0
ARC
  5
3D7
330
1F
100
AcDbEntity
  8
1
  6
Continuous
370
    50
100
AcDbCircle
 10
112.3865913021
 20
-5.7821967512
 30
0.0
 40
0.6220736080857614
100
AcDbArc
 50
261.6156162369
 51
341.7150543437
  0
ARC
  5
3D8
330
1F
100
AcDbEntity
  8
1
  6
Continuous
370
    50
100
AcDbCircle
 10
116.2660216798
 20
-3.7740991052
 30
0.0
 40
0.6204325697845884
100
AcDbArc
 50
182.3288155832
 51
260.4858688665
  0
ARC
  5
3D9
330
1F
100
AcDbEntity
  8
1
  6
Continuous
370
    50
100
AcDbCircle
 10
116.2677256718
 20
-3.7750668219
 30
0.0
 40
0.6197625513332117
100
AcDbArc
 50
260.3157174111
 51
338.5328808958
  0
ARC
  5
3DA
330
1F
100
AcDbEntity
  8
1
  6
Continuous
370
    50
100
AcDbCircle
 10
119.4714670105
 20
-2.2380160679
 30
0.0
 40
0.621098669326505
100
AcDbArc
 50
186.2285679981
 51
256.8889530066
  0
ARC
  5
3DB
330
1F
100
AcDbEntity
  8
1
  6
Continuous
370
    50
100
AcDbCircle
 10
119.4718160181
 20
-2.2378268534
 30
0.0
 40
0.6213621909720664
100
AcDbArc
 50
256.8615677083
 51
327.4569154273
  0
ARC
  5
3DC
330
1F
100
AcDbEntity
  8
1
  6
Continuous
370
    50
100
AcDbCircle
 10
131.8749494504
 20
-0.0006927459
 30
0.0
 40
0.6207410733321459
100
AcDbArc
 50
269.9521389209
 51
0.0639419968
  0
ARC
  5
3DD
330
1F
100
AcDbEntity
  8
1
  6
Continuous
370
    50
100
AcDbCircle
 10
131.8750924034
 20
0.0006621183
 30
0.0
 40
0.6205980869994832
100
AcDbArc
 50
359.9388709167
 51
90.0610700321
  0
ARC
  5
3DE
330
1F
100
AcDbEntity
  8
1
  6
Continuous
370
    50
100
AcDbCircle
 10
120.8982828158
 20
0.0001590187
 30
0.0
 40
0.6211009533855341
100
AcDbArc
 50
89.964492794
 51
147.4583235106
  0
ARC
  5
3DF
330
1F
100
AcDbEntity
  8
1
  6
Continuous
370
    50
100
AcDbCircle
 10
118.9102246582
 20
2.9085697207
 30
0.0
 40
0.6200948586746466
100
AcDbArc
 50
6.178358016799998
 51
82.4243685974
  0
ARC
  5
3E0
330
1F
100
AcDbEntity
  8
1
  6
Continuous
370
    50
100
AcDbCircle
 10
118.9094483006
 20
2.9067584612
 30
0.0
 40
0.621992886396844
100
AcDbArc
 50
82.37547370420002
 51
158.3208075886
  0
ARC
  5
3E1
330
1F
100
AcDbEntity
  8
1
  6
Continuous
370
    50
100
AcDbCircle
 10
104.2557203594
 20
6.4776486681
 30
0.0
 40
0.4701506641630762
100
AcDbArc
 50
181.1003445209
 51
235.2348965203
  0
ARC
  5
3E2
330
1F
100
AcDbEntity
  8
1
  6
Continuous
370
    50
100
AcDbCircle
 10
105.4672347359
 20
8.6356024822
 30
0.0
 40
2.943140299358002
100
AcDbArc
 50
239.81931808
 51
252.953660758
  0
ARC
  5
3E3
330
1F
100
AcDbEntity
  8
1
  6
Continuous
370
    50
100
AcDbCircle
 10
103.9792612471
 20
3.8014937035
 30
0.0
 40
2.11479554652149
100
AcDbArc
 50
62.0412451251
 51
72.80441194740001
  0
ARC
  5
3E4
330
1F
100
AcDbEntity
  8
1
  6
Continuous
370
    50
100
AcDbCircle
 10
104.8763235077
 20
5.4902672042
 30
0.0
 40
0.2025526691092845
100
AcDbArc
 50
4.3695920918
 51
62.2122063502
  0
ARC
  5
3E5
330
1F
100
AcDbEntity
  8
1
  6
Continuous
370
    50
100
AcDbCircle
 10
104.9997303322
 20
5.5141068938
 30
0.0
 40
0.5014340787422097
100
AcDbArc
 50
6.915204639200001
 51
71.0102818818
  0
ARC
  5
3E6
330
1F
100
AcDbEntity
  8
1
  6
Continuous
370
    50
100
AcDbCircle
 10
108.9288893145
 20
16.2974623673
 30
0.0
 40
10.97554255691485
100
AcDbArc
 50
245.0009509272
 51
249.93256335
  0
ARC
  5
3E7
330
1F
100
AcDbEntity
  8
1
  6
Continuous
370
    50
100
AcDbCircle
 10
104.4412456735
 20
6.5327806841
 30
0.0
 40
0.2367392198240879
100
AcDbArc
 50
183.2433902039
 51
230.477626297
  0
ARC
  5
3E8
330
1F
100
AcDbEntity
  8
1
  6
Continuous
370
    50
100
AcDbCircle
 10
105.3464170392
 20
6.4515229962
 30
0.0
 40
0.5069084678770827
100
AcDbArc
 50
350.8493676459
 51
63.536983316
  0
ARC
  5
3E9
330
1F
100
AcDbEntity
  8
1
  6
Continuous
370
    50
100
AcDbCircle
 10
104.8649016726
 20
5.4706259614
 30
0.0
 40
1.599613581091789
100
AcDbArc
 50
63.75347641329999
 51
91.58589622489998
  0
ARC
  5
3EA
330
1F
100
AcDbEntity
  8
1
  6
Continuous
370
    50
100
AcDbCircle
 10
92.4883465203
 20
6.7124533404
 30
0.0
 40
1.254576464602594
100
AcDbArc
 50
2.451735874999998
 51
14.8832220022
  0
ARC
  5
3EB
330
1F
100
AcDbEntity
  8
1
  6
Continuous
370
    50
100
AcDbCircle
 10
91.7374104023
 20
6.8457141493
 30
0.0
 40
2.005943838609179
100
AcDbArc
 50
346.6770013747999
 51
357.7259942285999
  0
ARC
  5
3EC
330
1F
100
AcDbEntity
  8
1
  6
Continuous
370
    50
100
AcDbCircle
 10
95.1982384495
 20
5.4975307153
 30
0.0
 40
1.666283206794342
100
AcDbArc
 50
166.3383647255
 51
179.1184329205
  0
ARC
  5
3ED
330
1F
100
AcDbEntity
  8
1
  6
Continuous
370
    50
100
AcDbCircle
 10
93.9276137627
 20
5.5304215779
 30
0.0
 40
0.3955278142070072
100
AcDbArc
 50
181.0508703505
 51
241.2552445018
  0
ARC
  5
3EE
330
1F
100
AcDbEntity
  8
1
  6
Continuous
370
    50
100
AcDbCircle
 10
94.3879251788
 20
6.2865804817
 30
0.0
 40
1.280496697303738
100
AcDbArc
 50
239.4676463369
 51
273.453242248
  0
ARC
  5
3EF
330
1F
100
AcDbEntity
  8
1
  6
Continuous
370
    50
100
AcDbCircle
 10
94.6177171575
 20
6.0871262965
 30
0.0
 40
1.089466522160272
100
AcDbArc
 50
261.9448626167
 51
333.5769880466
  0
ARC
  5
3F0
330
1F
100
AcDbEntity
  8
1
  6
Continuous
370
    50
100
AcDbCircle
 10
94.5531200072
 20
5.9417363224
 30
0.0
 40
0.6916474632206675
100
AcDbArc
 50
264.7774419227
 51
333.881689554
  0
ARC
  5
3F1
330
1F
100
AcDbEntity
  8
1
  6
Continuous
370
    50
100
AcDbCircle
 10
94.45693735
 20
6.0902896746
 30
0.0
 40
0.8379884835469286
100
AcDbArc
 50
241.6430277282
 51
272.2723346591
  0
ARC
  5
3F2
330
1F
100
AcDbEntity
  8
1
  6
Continuous
370
    50
100
AcDbCircle
 10
94.1763704228
 20
5.544815508
 30
0.0
 40
0.225039018220736
100
AcDbArc
 50
178.7015046778
 51
238.5404716602
  0
ARC
  5
3F3
330
1F
100
AcDbEntity
  8
1
  6
Continuous
370
    50
100
AcDbCircle
 10
95.0322823405
 20
5.5069482291
 30
0.0
 40
1.081746804959229
100
AcDbArc
 50
164.5560710448
 51
177.7236168987
  0
ARC
  5
3F4
330
1F
100
AcDbEntity
  8
1
  6
Continuous
370
    50
100
AcDbCircle
 10
95.2376048415
 20
-1.6372994059
 30
0.0
 40
7.536364034947981
100
AcDbArc
 50
90.87676063989997
 51
99.53199267270001
  0
ARC
  5
3F5
330
1F
100
AcDbEntity
  8
1
  6
Continuous
370
    50
100
AcDbCircle
 10
95.1599610057
 20
6.3920885735
 30
0.0
 40
0.6867187848485415
100
AcDbArc
 50
9.1569347013
 51
99.3792300602
  0
ARC
  5
3F6
330
1F
100
AcDbEntity
  8
1
  6
Continuous
370
    50
100
AcDbCircle
 10
95.0445433954
 20
5.5284135349
 30
0.0
 40
1.541217271866854
100
AcDbArc
 50
89.86972866279999
 51
124.9788386372
  0
ARC
  5
3F7
330
1F
100
AcDbEntity
  8
1
  6
Continuous
370
    50
100
AcDbCircle
 10
92.9816148074
 20
6.7308405408
 30
0.0
 40
1.180934162689162
100
AcDbArc
 50
2.9312735346
 51
14.9097204988
  0
ARC
  5
3F8
330
1F
100
AcDbEntity
  8
1
  6
Continuous
370
    50
100
AcDbCircle
 10
85.0034887249
 20
7.0603199654
 30
0.0
 40
2.579544051286156
100
AcDbArc
 50
345.9532587882001
 51
351.8863215156001
  0
ARC
  5
3F9
330
1F
100
AcDbEntity
  8
1
  6
Continuous
370
    50
100
AcDbCircle
 10
86.2328080501
 20
6.961185107
 30
0.0
 40
1.765784058271726
100
AcDbArc
 50
343.4147560117
 51
353.5329007721
  0
ARC
  5
3FA
330
1F
100
AcDbEntity
  8
1
  6
Continuous
370
    50
100
AcDbCircle
 10
87.7468486628
 20
6.7662587962
 30
0.0
 40
0.2405398017182042
100
AcDbArc
 50
359.0570216478
 51
57.52572366099999
  0
ARC
  5
3FB
330
1F
100
AcDbEntity
  8
1
  6
Continuous
370
    50
100
AcDbCircle
 10
87.5224287991
 20
6.4026607669
 30
0.0
 40
0.6678046876457514
100
AcDbArc
 50
58.03154526459999
 51
92.87173222589998
  0
ARC
  5
3FC
330
1F
100
AcDbEntity
  8
1
  6
Continuous
370
    50
100
AcDbCircle
 10
87.4951791532
 20
5.330346915
 30
0.0
 40
1.739290985340124
100
AcDbArc
 50
90.204488182
 51
100.1657977398
  0
ARC
  5
3FD
330
1F
100
AcDbEntity
  8
1
  6
Continuous
370
    50
100
AcDbCircle
 10
87.3579796742
 20
6.2762119504
 30
0.0
 40
0.5490467212670054
100
AcDbArc
 50
88.51989615229999
 51
116.070258347
  0
ARC
  5
3FE
330
1F
100
AcDbEntity
  8
1
  6
Continuous
370
    50
100
AcDbCircle
 10
74.0695751919
 20
6.7125639189
 30
0.0
 40
1.253847014141166
100
AcDbArc
 50
2.448105477
 51
14.8868524002
  0
ARC
  5
3FF
330
1F
100
AcDbEntity
  8
1
  6
Continuous
370
    50
100
AcDbCircle
 10
73.3178627054
 20
6.8456831247
 30
0.0
 40
2.005993549551594
100
AcDbArc
 50
346.6782482558
 51
357.7269374448001
  0
ARC
  5
400
330
1F
100
AcDbEntity
  8
1
  6
Continuous
370
    50
100
AcDbCircle
 10
76.7780597838
 20
5.4976186823
 30
0.0
 40
1.665592535588152
100
AcDbArc
 50
166.3357039207
 51
179.1210937238
  0
ARC
  5
401
330
1F
100
AcDbEntity
  8
1
  6
Continuous
370
    50
100
AcDbCircle
 10
75.5081244982
 20
5.5304215779
 30
0.0
 40
0.3955278142329587
100
AcDbArc
 50
181.0508703561
 51
241.2552445018
  0
ARC
  5
402
330
1F
100
AcDbEntity
  8
1
  6
Continuous
370
    50
100
AcDbCircle
 10
75.9684342059
 20
6.2865766669
 30
0.0
 40
1.280492543545145
100
AcDbArc
 50
239.4676254635
 51
273.4529960601
  0
ARC
  5
403
330
1F
100
AcDbEntity
  8
1
  6
Continuous
370
    50
100
AcDbCircle
 10
76.1982214838
 20
6.0871365576
 30
0.0
 40
1.089476827941214
100
AcDbArc
 50
261.9448840053
 51
333.5766547752
  0
ARC
  5
404
330
1F
100
AcDbEntity
  8
1
  6
Continuous
370
    50
100
AcDbCircle
 10
76.133620063
 20
5.9417553304
 30
0.0
 40
0.6916654203230375
100
AcDbArc
 50
264.7784662577
 51
333.8806652236
  0
ARC
  5
405
330
1F
100
AcDbEntity
  8
1
  6
Continuous
370
    50
100
AcDbCircle
 10
76.0374432096
 20
6.0902686256
 30
0.0
 40
0.8379676444499858
100
AcDbArc
 50
241.6426375358
 51
272.2727248515999
  0
ARC
  5
406
330
1F
100
AcDbEntity
  8
1
  6
Continuous
370
    50
100
AcDbCircle
 10
75.756881596
 20
5.5448242533
 30
0.0
 40
0.2250467064635763
100
AcDbArc
 50
178.7037761139
 51
238.5415386127
  0
ARC
  5
407
330
1F
100
AcDbEntity
  8
1
  6
Continuous
370
    50
100
AcDbCircle
 10
76.6125126782
 20
5.5069590893
 30
0.0
 40
1.081473641763809
100
AcDbArc
 50
164.552669745
 51
177.7236174356
  0
ARC
  5
408
330
1F
100
AcDbEntity
  8
1
  6
Continuous
370
    50
100
AcDbCircle
 10
76.8180862327
 20
-1.6369772392
 30
0.0
 40
7.536041456941439
100
AcDbArc
 50
90.8765750445
 51
99.532178268
  0
ARC
  5
409
330
1F
100
AcDbEntity
  8
1
  6
Continuous
370
    50
100
AcDbCircle
 10
76.7404733188
 20
6.3921011229
 30
0.0
 40
0.6867078746886194
100
AcDbArc
 50
9.1560208552
 51
99.3801439019
  0
ARC
  5
40A
330
1F
100
AcDbEntity
  8
1
  6
Continuous
370
    50
100
AcDbCircle
 10
76.6250466804
 20
5.5284135349
 30
0.0
 40
1.541217271876589
100
AcDbArc
 50
89.8697286675
 51
124.9788386372
  0
ARC
  5
40B
330
1F
100
AcDbEntity
  8
1
  6
Continuous
370
    50
100
AcDbCircle
 10
74.5619836506
 20
6.730854366
 30
0.0
 40
1.18106772169342
100
AcDbArc
 50
2.9302702027
 51
14.907301301
  0
ARC
  5
40C
330
1F
100
AcDbEntity
  8
1
  6
Continuous
370
    50
100
AcDbCircle
 10
66.0564554691
 20
6.2450749809
 30
0.0
 40
0.8250855155473857
100
AcDbArc
 50
35.16489034050001
 51
92.0608640694
  0
ARC
  5
40D
330
1F
100
AcDbEntity
  8
1
  6
Continuous
370
    50
100
AcDbCircle
 10
66.0522069705
 20
5.8069520018
 30
0.0
 40
1.262930721546116
100
AcDbArc
 50
91.15342812789999
 51
180.2444784388
  0
ARC
  5
40E
330
1F
100
AcDbEntity
  8
1
  6
Continuous
370
    50
100
AcDbCircle
 10
65.5664728682
 20
5.784719095
 30
0.0
 40
0.7773676327597535
100
AcDbArc
 50
178.7584138747
 51
272.9886871515999
  0
ARC
  5
40F
330
1F
100
AcDbEntity
  8
1
  6
Continuous
370
    50
100
AcDbCircle
 10
65.5793448601
 20
6.1803898773
 30
0.0
 40
1.172307411384248
100
AcDbArc
 50
271.3519418618998
 51
311.5587355795
  0
ARC
  5
410
330
1F
100
AcDbEntity
  8
1
  6
Continuous
370
    50
100
AcDbCircle
 10
56.8424360142
 20
5.6042449394
 30
0.0
 40
0.3513162210369663
100
AcDbArc
 50
224.5540391599
 51
269.2337114311
  0
ARC
  5
411
330
1F
100
AcDbEntity
  8
1
  6
Continuous
370
    50
100
AcDbCircle
 10
56.7835734157
 20
6.9309743178
 30
0.0
 40
1.923232409819769
100
AcDbArc
 50
258.9583176869
 51
268.4910947446
  0
ARC
  5
412
330
1F
100
AcDbEntity
  8
1
  6
Continuous
370
    50
100
AcDbCircle
 10
56.6206831912
 20
6.2318450816
 30
0.0
 40
1.228574676784017
100
AcDbArc
 50
275.2420610252
 51
316.4651049013
  0
ARC
  5
413
330
1F
100
AcDbEntity
  8
1
  6
Continuous
370
    50
100
AcDbCircle
 10
57.1854986858
 20
-0.9702066337
 30
0.0
 40
3.476694373076362
100
AcDbArc
 50
224.2070744035
 51
274.6744976934
  0
ARC
  5
414
330
1F
100
AcDbEntity
  8
1
  6
Continuous
370
    50
100
AcDbCircle
 10
56.1591958785
 20
-2.3466343558
 30
0.0
 40
1.801802306115024
100
AcDbArc
 50
161.8579779119
 51
215.554627056
  0
ARC
  5
415
330
1F
100
AcDbEntity
  8
1
  6
Continuous
370
    50
100
AcDbCircle
 10
59.135068246
 20
-3.5464271058
 30
0.0
 40
5.029103291608887
100
AcDbArc
 50
85.83769586700001
 51
157.0932670215
  0
ARC
  5
416
330
1F
100
AcDbEntity
  8
1
  6
Continuous
370
    50
100
AcDbCircle
 10
61.3507697203
 20
6.135312712
 30
0.0
 40
0.8823654150326372
100
AcDbArc
 50
269.6908887288
 51
343.303433194
  0
ARC
  5
417
330
1F
100
AcDbEntity
  8
1
  6
Continuous
370
    50
100
AcDbCircle
 10
61.29519267
 20
5.7830864232
 30
0.0
 40
0.5325563027313559
100
AcDbArc
 50
177.8354944369
 51
275.4755134465
  0
ARC
  5
418
330
1F
100
AcDbEntity
  8
1
  6
Continuous
370
    50
100
AcDbCircle
 10
63.143523338
 20
5.7764230057
 30
0.0
 40
2.380657594548701
100
AcDbArc
 50
177.4628876939
 51
179.3555289221
  0
ARC
  5
419
330
1F
100
AcDbEntity
  8
1
  6
Continuous
370
    50
100
AcDbCircle
 10
65.724302866
 20
5.7687998942
 30
0.0
 40
0.5165080535788894
100
AcDbArc
 50
176.9697447117
 51
272.9149478786
  0
ARC
  5
41A
330
1F
100
AcDbEntity
  8
1
  6
Continuous
370
    50
100
AcDbCircle
 10
66.0901572656
 20
6.2853850232
 30
0.0
 40
0.5414146389811483
100
AcDbArc
 50
29.18669035510001
 51
94.57381841569999
  0
ARC
  5
41B
330
1F
100
AcDbEntity
  8
1
  6
Continuous
370
    50
100
AcDbCircle
 10
65.6167930808
 20
6.266403291
 30
0.0
 40
0.9874619337273451
100
AcDbArc
 50
358.208481395
 51
16.6544944444
  0
ARC
  5
41C
330
1F
100
AcDbEntity
  8
1
  6
Continuous
370
    50
100
AcDbCircle
 10
80.5360499794
 20
5.7931196368
 30
0.0
 40
0.5414934855227326
100
AcDbArc
 50
178.0665816989
 51
274.0225918547
  0
ARC
  5
41D
330
1F
100
AcDbEntity
  8
1
  6
Continuous
370
    50
100
AcDbCircle
 10
81.0227034764
 20
5.8290790688
 30
0.0
 40
1.027990941422869
100
AcDbArc
 50
132.4031317712
 51
180.9860388296
  0
ARC
  5
41E
330
1F
100
AcDbEntity
  8
1
  6
Continuous
370
    50
100
AcDbCircle
 10
80.8967736395
 20
6.0276803571
 30
0.0
 40
0.7974715897901085
100
AcDbArc
 50
90.7934263561
 51
135.3455756434
  0
ARC
  5
41F
330
1F
100
AcDbEntity
  8
1
  6
Continuous
370
    50
100
AcDbCircle
 10
80.9065704495
 20
6.2813210468
 30
0.0
 40
0.5441536406759687
100
AcDbArc
 50
351.468720688
 51
92.1948262512
  0
ARC
  5
420
330
1F
100
AcDbEntity
  8
1
  6
Continuous
370
    50
100
AcDbCircle
 10
80.5141346833
 20
6.1817890015
 30
0.0
 40
0.9307583912652291
100
AcDbArc
 50
273.6899435045
 51
1.1578169518
  0
ARC
  5
421
330
1F
100
AcDbEntity
  8
1
  6
Continuous
370
    50
100
AcDbCircle
 10
76.4796764184
 20
5.9638576948
 30
0.0
 40
0.8615954546634103
100
AcDbArc
 50
88.303495816
 51
177.0333686019
  0
ARC
  5
422
330
1F
100
AcDbEntity
  8
1
  6
Continuous
370
    50
100
AcDbCircle
 10
76.2362213664
 20
3.5475738332
 30
0.0
 40
2.537041196301191
100
AcDbArc
 50
91.4705032142
 51
104.0749560197
  0
ARC
  5
423
330
1F
100
AcDbEntity
  8
1
  6
Continuous
370
    50
100
AcDbCircle
 10
94.8991693268
 20
5.9638539743
 30
0.0
 40
0.8615992862315358
100
AcDbArc
 50
88.3032501093
 51
177.0331340641
  0
ARC
  5
424
330
1F
100
AcDbEntity
  8
1
  6
Continuous
370
    50
100
AcDbCircle
 10
94.6557192052
 20
3.5475110166
 30
0.0
 40
2.537104212241385
100
AcDbArc
 50
91.47066038060002
 51
104.0747988511
  0
CIRCLE
  5
425
330
1F
100
AcDbEntity
  8
SK1
100
AcDbCircle
 10
-12.5000070333
 20
0.0
 30
0.0
 40
4.000000000000004
  0
ARC
  5
426
330
1F
100
AcDbEntity
  8
SK1
100
AcDbCircle
 10
-24.0999273421
 20
5.3496055644
 30
0.0
 40
2.077713093422154
100
AcDbArc
 50
132.3656819251
 51
177.6964681952
  0
ARC
  5
427
330
1F
100
AcDbEntity
  8
SK1
100
AcDbCircle
 10
-23.8724504291
 20
-5.2436828784
 30
0.0
 40
2.311287201738768
100
AcDbArc
 50
184.7012674751
 51
225.2365824029
  0
ARC
  5
428
330
1F
100
AcDbEntity
  8
1
  6
Continuous
370
    50
100
AcDbCircle
 10
183.024706684
 20
14.1928520046
 30
0.0
 40
10.83990225976675
100
AcDbArc
 50
85.5448142227
 51
99.79664494690002
  0
ARC
  5
429
330
1F
100
AcDbEntity
  8
1
  6
Continuous
370
    50
100
AcDbCircle
 10
190.4998254809
 20
28.4997522949
 30
0.0
 40
9.999753933367199
100
AcDbArc
 50
201.2547692522
 51
270.0009586292
  0
ARC
  5
42A
330
1F
100
AcDbEntity
  8
1
100
AcDbCircle
 10
197.7909052659
 20
13.638629847
 30
0.0
 40
0.7873940804213219
100
AcDbArc
 50
133.1978962337
 51
180.7996138809
  0
ARC
  5
42B
330
1F
100
AcDbEntity
  8
1
100
AcDbCircle
 10
197.9357464057
 20
13.5030864395
 30
0.0
 40
0.9321805487823172
100
AcDbArc
 50
180.0887801188
 51
222.8126163662
  0
ARC
  5
42C
330
1F
100
AcDbEntity
  8
1
100
AcDbCircle
 10
197.9614782297
 20
-13.5411065825
 30
0.0
 40
0.976949365661985
100
AcDbArc
 50
136.5772936258
 51
223.4226361004
  0
ARC
  5
42D
330
1F
100
AcDbEntity
  8
1
100
AcDbCircle
 10
198.8412454817
 20
16.9662191307
 30
0.0
 40
1.967870494985535
100
AcDbArc
 50
5.5194037276
 51
29.7356010206
  0
ARC
  5
42E
330
1F
100
AcDbEntity
  8
1
100
AcDbCircle
 10
199.1472477984
 20
-17.06345251
 30
0.0
 40
1.655304765116863
100
AcDbArc
 50
327.9325910445
 51
356.8124042054
  0
ARC
  5
42F
330
1F
100
AcDbEntity
  8
1
100
AcDbCircle
 10
199.7341293586
 20
-21.5093382232
 30
0.0
 40
1.085574586148243
100
AcDbArc
 50
318.7248703757
 51
349.0647199027999
  0
ARC
  5
430
330
1F
100
AcDbEntity
  8
1
100
AcDbCircle
 10
213.3049929667
 20
12.7158446076
 30
0.0
 40
2.399998941865514
100
AcDbArc
 50
139.9999857639
 51
319.9999733563001
  0
ARC
  5
431
330
1F
100
AcDbEntity
  8
1
  6
Continuous
370
    50
100
AcDbCircle
 10
190.499992892
 20
28.4999999606
 30
0.0
 40
7.500000084481719
100
AcDbArc
 50
207.818135386
 51
270.0
  0
ELLIPSE
  5
432
330
1F
100
AcDbEntity
  8
1
100
AcDbEllipse
 10
232.8749835532
 20
-0.0000016451
 30
0.0
 11
43.30127121121006
 21
1.110223024625157E-13
 31
0.0
210
0.0
220
0.0
230
1.0
 40
0.5773502692
 41
2.399891572032229
 42
2.518935347900174
  0
ELLIPSE
  5
433
330
1F
100
AcDbEntity
  8
1
100
AcDbEllipse
 10
170.5211546601
 20
-0.0000013603
 30
0.0
 11
43.30127201189254
 21
5.551115123125782E-14
 31
0.0
210
0.0
220
0.0
230
1.0
 40
0.5773502692
 41
0.7916398883677996
 42
0.8922418628152994
  0
ELLIPSE
  5
434
330
1F
100
AcDbEntity
  8
1
100
AcDbEllipse
 10
212.3527001337
 20
-0.0000035302
 30
0.0
 11
1.705302565824240E-13
 21
25.00000000000005
 31
0.0
210
0.0
220
0.0
230
1.0
 40
0.1139356083
 41
3.145592664256784
 42
3.20563617485853
  0
ELLIPSE
  5
435
330
1F
100
AcDbEntity
  8
1
100
AcDbEllipse
 10
201.6980691664
 20
-0.0000001941
 30
0.0
 11
43.30126959693479
 21
1.110223024625156E-13
 31
0.0
210
0.0
220
0.0
230
1.0
 40
0.5773502692
 41
4.6199256683651
 42
4.695067598778689
  0
ELLIPSE
  5
436
330
1F
100
AcDbEntity
  8
1
100
AcDbEllipse
 10
191.3057643326
 20
0.0
 30
0.0
 11
43.30127018922184
 21
5.551115123125782E-14
 31
0.0
210
0.0
220
0.0
230
1.0
 40
0.5773502692
 41
4.860599396160978
 42
4.936951094242088
  0
ELLIPSE
  5
437
330
1F
100
AcDbEntity
  8
1
100
AcDbEllipse
 10
212.0903741163
 20
0.0000004412
 30
0.0
 11
43.30127247713787
 21
1.387778780781446E-13
 31
0.0
210
0.0
220
0.0
230
1.0
 40
0.5773502692
 41
4.37361436622631
 42
4.452140675114189
  0
ELLIPSE
  5
438
330
1F
100
AcDbEntity
  8
1
100
AcDbEllipse
 10
180.9134594872
 20
0.0
 30
0.0
 11
43.30127046021629
 21
1.110223024625156E-13
 31
0.0
210
0.0
220
0.0
230
1.0
 40
0.5773502692
 41
5.11048982018298
 42
5.193404265530731
  0
ELLIPSE
  5
439
330
1F
100
AcDbEntity
  8
1
100
AcDbEllipse
 10
222.4826788583
 20
-0.0000000253
 30
0.0
 11
43.3012713158638
 21
1.110223024625157E-13
 31
0.0
210
0.0
220
0.0
230
1.0
 40
0.5773502692
 41
4.10304259172319
 42
4.191881470286157
  0
ELLIPSE
  5
43A
330
1F
100
AcDbEntity
  8
1
100
AcDbEllipse
 10
170.5211546601
 20
-0.0000013603
 30
0.0
 11
43.3012701892218
 21
5.551115123125782E-14
 31
0.0
210
0.0
220
0.0
230
1.0
 40
0.5773502692
 41
5.390943496002853
 42
5.491545450042091
  0
ELLIPSE
  5
43B
330
1F
100
AcDbEntity
  8
1
100
AcDbEllipse
 10
232.8749835532
 20
-0.0000016451
 30
0.0
 11
43.3012701892219
 21
1.110223024625157E-13
 31
0.0
210
0.0
220
0.0
230
1.0
 40
0.5773502692
 41
3.76424992817416
 42
3.883293677579273
  0
ELLIPSE
  5
43C
330
1F
100
AcDbEntity
  8
1
100
AcDbEllipse
 10
160.1288501281
 20
-0.0000021341
 30
0.0
 11
43.3012701892219
 21
5.551115123125783E-14
 31
0.0
210
0.0
220
0.0
230
1.0
 40
0.5773502692
 41
5.762881922490553
 42
5.935019285906668
  0
ELLIPSE
  5
43D
330
1F
100
AcDbEntity
  8
1
100
AcDbEllipse
 10
196.1322611896
 20
-0.0000019701
 30
0.0
 11
-5.684341886080801E-14
 21
24.99999999999999
 31
0.0
210
0.0
220
0.0
230
1.0
 40
0.5773502692
 41
4.364222940098391
 42
5.060555001657663
  0
ELLIPSE
  5
43E
330
1F
100
AcDbEntity
  8
1
100
AcDbEllipse
 10
160.1288501281
 20
-0.0000021341
 30
0.0
 11
43.30127037095383
 21
5.551115123125783E-14
 31
0.0
210
0.0
220
0.0
230
1.0
 40
0.5773502692
 41
0.3481660499305897
 42
0.5203034760426741
  0
ELLIPSE
  5
43F
330
1F
100
AcDbEntity
  8
1
100
AcDbEllipse
 10
224.229576777
 20
-14.067147747
 30
0.0
 11
-0.0003896592066325866
 21
0.2031508125010788
 31
0.0
210
0.0
220
0.0
230
1.0
 40
0.1034563188
 41
6.26473060953511
 42
7.835443773710561
  0
ELLIPSE
  5
440
330
1F
100
AcDbEntity
  8
1
100
AcDbEllipse
 10
223.399252567
 20
-3.5
 30
0.0
 11
0.0
 21
9.074999999999973
 31
0.0
210
0.0
220
0.0
230
1.0
 40
0.1051042353
 41
2.007863264082761
 42
3.897865568659608
  0
ELLIPSE
  5
441
330
1F
100
AcDbEntity
  8
1
100
AcDbEllipse
 10
212.3527001337
 20
-0.0000035302
 30
0.0
 11
-2.273736754432321E-13
 21
24.99999320448878
 31
0.0
210
0.0
220
0.0
230
1.0
 40
0.1139356083
 41
6.219142792438329
 42
6.279289049709956
  0
ELLIPSE
  5
442
330
1F
100
AcDbEntity
  8
1
100
AcDbEllipse
 10
201.898069178
 20
0.0
 30
0.0
 11
43.30127018922195
 21
0.0
 31
0.0
210
0.0
220
0.0
230
1.0
 40
0.5773502692
 41
1.588117716089417
 42
1.602793448505747
  0
ELLIPSE
  5
443
330
1F
100
AcDbEntity
  8
1
100
AcDbEllipse
 10
170.5211546601
 20
-0.0000013603
 30
0.0
 11
43.30126951598697
 21
0.0
 31
0.0
210
0.0
220
0.0
230
1.0
 40
0.5773502692
 41
0.8060809819267836
 42
0.8330703589673477
  0
ELLIPSE
  5
444
330
1F
100
AcDbEntity
  8
1
100
AcDbEllipse
 10
232.8749835532
 20
-0.0000016451
 30
0.0
 11
43.30126948664969
 21
0.0
 31
0.0
210
0.0
220
0.0
230
1.0
 40
0.5773502692
 41
2.415340362812128
 42
2.536904585660412
  0
ELLIPSE
  5
445
330
1F
100
AcDbEntity
  8
1
100
AcDbEllipse
 10
160.1288501281
 20
-0.0000021341
 30
0.0
 11
43.30127096896996
 21
0.0
 31
0.0
210
0.0
220
0.0
230
1.0
 40
0.5773502692
 41
0.3825580111894628
 42
0.5407545522534021
  0
ELLIPSE
  5
446
330
1F
100
AcDbEntity
  8
1
100
AcDbEllipse
 10
203.7677242926
 20
0.0
 30
0.0
 11
0.0
 21
25.0
 31
0.0
210
0.0
220
0.0
230
1.0
 40
0.5773502692
 41
1.222630289002836
 42
1.918962348067862
  0
ELLIPSE
  5
447
330
1F
100
AcDbEntity
  8
1
100
AcDbEllipse
 10
160.1288501281
 20
-0.0000021341
 30
0.0
 11
43.30126911150114
 21
0.0
 31
0.0
210
0.0
220
0.0
230
1.0
 40
0.5773502692
 41
5.742430846977282
 42
5.9006274143941
  0
ELLIPSE
  5
448
330
1F
100
AcDbEntity
  8
1
100
AcDbEllipse
 10
232.8749835532
 20
-0.0000016451
 30
0.0
 11
43.30126865434914
 21
0.0
 31
0.0
210
0.0
220
0.0
230
1.0
 40
0.5773502692
 41
3.74628064545143
 42
3.867844900604732
  0
ELLIPSE
  5
449
330
1F
100
AcDbEntity
  8
1
100
AcDbEllipse
 10
170.5211546601
 20
-0.0000013603
 30
0.0
 11
43.30126832433461
 21
0.0
 31
0.0
210
0.0
220
0.0
230
1.0
 40
0.5773502692
 41
5.377721208105108
 42
5.47710432176123
  0
ELLIPSE
  5
44A
330
1F
100
AcDbEntity
  8
1
100
AcDbEllipse
 10
222.4826788583
 20
-0.0000000253
 30
0.0
 11
43.30127018922201
 21
0.0
 31
0.0
210
0.0
220
0.0
230
1.0
 40
0.5773502692
 41
4.090367131949602
 42
4.179912649353018
  0
ELLIPSE
  5
44B
330
1F
100
AcDbEntity
  8
1
100
AcDbEllipse
 10
180.9134594872
 20
0.0
 30
0.0
 11
43.30127018922241
 21
0.0
 31
0.0
210
0.0
220
0.0
230
1.0
 40
0.5773502692
 41
5.099290204086764
 42
5.181766942632331
  0
ELLIPSE
  5
44C
330
1F
100
AcDbEntity
  8
1
100
AcDbEllipse
 10
212.0903741163
 20
0.0000004412
 30
0.0
 11
43.30127018922212
 21
0.0
 31
0.0
210
0.0
220
0.0
230
1.0
 40
0.5773502692
 41
4.362621353655625
 42
4.441416680362668
  0
ELLIPSE
  5
44D
330
1F
100
AcDbEntity
  8
1
100
AcDbEllipse
 10
191.3057643326
 20
0.0
 30
0.0
 11
43.30127018922246
 21
0.0
 31
0.0
210
0.0
220
0.0
230
1.0
 40
0.5773502692
 41
4.850144765952443
 42
4.926349343225452
  0
ELLIPSE
  5
44E
330
1F
100
AcDbEntity
  8
1
100
AcDbEllipse
 10
201.6980691664
 20
-0.0000001941
 30
0.0
 11
43.30127018922209
 21
0.0
 31
0.0
210
0.0
220
0.0
230
1.0
 40
0.5773502692
 41
4.609528181868512
 42
4.684717064035601
  0
ELLIPSE
  5
44F
330
1F
100
AcDbEntity
  8
1
100
AcDbEllipse
 10
197.5019190565
 20
13.6540066696
 30
0.0
 11
0.4999999999999432
 21
0.0
 31
0.0
210
0.0
220
0.0
230
1.0
 40
0.6459391477
 41
3.223317461756663
 42
3.240185611653025
  0
ELLIPSE
  5
450
330
1F
100
AcDbEntity
  8
1
100
AcDbEllipse
 10
224.7006789968
 20
-0.0000004883
 30
0.0
 11
0.0
 21
25.13323017522756
 31
0.0
210
0.0
220
0.0
230
1.0
 40
0.1051222895
 41
1.820452037932023
 42
2.954179527954286
  0
DIMENSION
  5
451
330
1F
100
AcDbEntity
  8
2
  6
Continuous
370
    25
100
AcDbDimension
280
     0
  2
_D
 10
236.0011685666348
 20
-26.48784653481368
 30
0.0
 11
236.0011693065
 21
0.0000000069
 31
0.0
 70
   160
  1
%%c<> - 70
 71
     5
 42
52.97569308340002
 73
     0
 74
     0
 75
     0
  3
SLDDIMSTYLE0
100
AcDbAlignedDimension
 13
224.0610759043
 23
26.4878468821
 33
0.0
 14
224.0610744246
 24
-26.4878462013
 34
0.0
 50
89.9999983996
100
AcDbRotatedDimension
1001
ACAD
1000
DSTYLE
1002
{
1070
   140
1040
3.5
1070
   340
1005
4C5
1070
   177
1070
   256
1070
   176
1070
   256
1070
   178
1070
   256
1070
   347
1005
14
1070
   346
1005
14
1070
   345
1005
14
1002
}
  0
DIMENSION
  5
45F
330
1F
100
AcDbEntity
  8
2
  6
Continuous
370
    25
100
AcDbDimension
280
     0
  2
_D_1
 10
0.0
 20
-36.1998356208
 30
0.0
 11
100.4977654901
 21
-36.1998356208
 31
0.0
 70
   160
  1
<>
 71
     5
 42
200.9955309802
 73
     0
 74
     0
 75
     0
  3
SLDDIMSTYLE1
100
AcDbAlignedDimension
 13
200.9955309802
 23
-24.9967688087
 33
0.0
 14
0.0
 24
-24.0000002086
 34
0.0
100
AcDbRotatedDimension
1001
ACAD
1000
DSTYLE
1002
{
1070
   140
1040
3.5
1070
   340
1005
4C5
1070
   177
1070
   256
1070
   176
1070
   256
1070
   178
1070
   256
1070
   347
1005
14
1070
   346
1005
14
1070
   345
1005
14
1002
}
  0
DIMENSION
  5
46A
330
1F
100
AcDbEntity
  8
2
  6
Continuous
370
    25
100
AcDbDimension
280
     0
  2
_D_2
 10
0.0
 20
35.8790512197
 30
0.0
 11
112.4999967516
 21
35.8790512197
 31
0.0
 70
   160
  1
<>
 71
     5
 42
224.9999935032
 73
     0
 74
     0
 75
     0
  3
SLDDIMSTYLE1
100
AcDbAlignedDimension
 13
224.9999935032
 23
20.0643822903
 33
0.0
 14
0.0
 24
24.0000002086
 34
0.0
100
AcDbRotatedDimension
1001
ACAD
1000
DSTYLE
1002
{
1070
   140
1040
3.5
1070
   340
1005
4C5
1070
   177
1070
   256
1070
   176
1070
   256
1070
   178
1070
   256
1070
   347
1005
14
1070
   346
1005
14
1070
   345
1005
14
1002
}
  0
DIMENSION
  5
474
330
1F
100
AcDbEntity
  8
SK2
100
AcDbDimension
280
     0
  2
_D_3
 10
-36.753857264
 20
-14.0000011205
 30
0.0
 11
-36.753857264
 21
-0.0000006884
 31
0.0
 70
   160
  1
%%c<>
 71
     5
 42
28.0000008642
 73
     0
 74
     0
 75
     0
  3
SLDDIMSTYLE1
100
AcDbAlignedDimension
 13
-25.5000150019
 23
13.9999997437
 33
0.0
 14
-25.5000150019
 24
-14.0000011205
 34
0.0
 50
90.0
100
AcDbRotatedDimension
1001
ACAD
1000
DSTYLE
1002
{
1070
   140
1040
3.5
1070
   340
1005
4C5
1070
   177
1070
   256
1070
   176
1070
   256
1070
   178
1070
   256
1070
   347
1005
14
1070
   346
1005
14
1070
   345
1005
14
1002
}
  0
DIMENSION
  5
47F
330
1F
100
AcDbEntity
  8
2
  6
Continuous
370
    25
100
AcDbDimension
280
     0
  2
_D_4
 10
-46.16990197
 20
-25.0000003725
 30
0.0
 11
-46.16990197
 21
0.0
 31
0.0
 70
   160
  1
%%c<>
 71
     5
 42
50.000000745
 73
     0
 74
     0
 75
     0
  3
SLDDIMSTYLE1
100
AcDbAlignedDimension
 13
0.9999871254
 23
25.0000003725
 33
0.0
 14
0.9999871254
 24
-25.0000003725
 34
0.0
 50
90.0
100
AcDbRotatedDimension
1001
ACAD
1000
DSTYLE
1002
{
1070
   140
1040
3.5
1070
   340
1005
4C5
1070
   177
1070
   256
1070
   176
1070
   256
1070
   178
1070
   256
1070
   347
1005
14
1070
   346
1005
14
1070
   345
1005
14
1002
}
  0
MTEXT
  5
48A
330
1F
100
AcDbEntity
  8
SK6
  6
Continuous
370
    35
100
AcDbMText
 10
5.9435710944
 20
-14.1028294495
 30
0.0
 40
3.5
 41
0.0
 46
0.0
 71
     1
 72
     1
  1
389.406
  7
BMG_Text
 73
     1
 44
1.0
  0
LWPOLYLINE
  5
539
330
1F
100
AcDbEntity
  8
INFTOTAL
100
AcDbPolyline
 90
        4
 70
     1
 43
0.0
 10
-97.21628968295374
 20
89.60978988512396
 10
-97.21628968295374
 20
-76.02151446270234
 10
294.9958842300899
 20
-76.02151446270234
 10
294.9958842300899
 20
89.60978988512396
  0
ARC
  5
53C
330
1F
100
AcDbEntity
  8
CUT
100
AcDbCircle
 10
213.0999934091
 20
23.74277069570003
 30
0.0
 40
0.8000007837999986
100
AcDbArc
 50
99.99999999999753
 51
179.9999811497021
  0
ARC
  5
53D
330
1F
100
AcDbEntity
  8
CUT
100
AcDbCircle
 10
213.0999934709
 20
12.47153530379999
 30
0.0
 40
0.8000008456151663
100
AcDbArc
 50
179.9999912623993
 51
279.9998771172006
  0
ARC
  5
53E
330
1F
100
AcDbEntity
  8
CUT
100
AcDbCircle
 10
224.198819103003
 20
14.42919205374638
 30
0.0
 40
0.8011750506872981
100
AcDbArc
 50
303.8907665177013
 51
359.9694294707803
  0
ARC
  5
53F
330
1F
100
AcDbEntity
  8
CUT
100
AcDbCircle
 10
224.1849479830112
 20
14.4672810117685
 30
0.0
 40
0.8405837214733078
100
AcDbArc
 50
280.5540722352517
 51
303.227918993162
  0
LINE
  5
540
330
1F
100
AcDbEntity
  8
CUT
100
AcDbLine
 10
224.3389121384
 20
13.6409178763
 30
0.0
 11
213.2389104701698
 21
11.68368797068344
 31
0.0
  0
LINE
  5
541
330
1F
100
AcDbEntity
  8
CUT
100
AcDbLine
 10
212.2999926253
 20
12.4715354258
 30
0.0
 11
212.2999926253
 21
23.7427709589001
 31
0.0
  0
CIRCLE
  5
542
330
1F
100
AcDbEntity
  8
CUT
100
AcDbCircle
 10
218.6499929667
 20
19.11829567425621
 30
0.0
 40
3.751536942277777
  0
LINE
  5
545
330
1F
100
AcDbEntity
  8
1
100
AcDbLine
 10
212.961074730861
 20
24.53061767000212
 30
0.0
 11
224.2250179722299
 21
24.62742291395
 31
0.0
  0
LINE
  5
546
330
1F
100
AcDbEntity
  8
1
100
AcDbLine
 10
224.2250179722299
 20
24.62742291395
 30
0.0
 11
224.6455633977
 21
13.7641349156
 31
0.0
  0
LINE
  5
547
330
1F
100
AcDbEntity
  8
1
100
AcDbLine
 10
224.3389121384
 20
13.6409178763
 30
0.0
 11
224.6502870658
 21
13.764973106
 31
0.0
  0
LINE
  5
552
330
1F
100
AcDbEntity
  8
NOCUT
100
AcDbLine
 10
0.0
 20
0.0
 30
0.0
 11
0.0
 21
24.0625002086
 31
0.0
  0
LINE
  5
553
330
1F
100
AcDbEntity
  8
NOCUT
100
AcDbLine
 10
0.0
 20
24.0625002086
 30
0.0
 11
0.9999871254
 21
25.0000003725
 31
0.0
  0
LINE
  5
554
330
1F
100
AcDbEntity
  8
NOCUT
100
AcDbLine
 10
0.9999871254
 20
25.0000003725
 30
0.0
 11
212.3648147899101
 21
25.0000003725
 31
0.0
  0
LINE
  5
555
330
1F
100
AcDbEntity
  8
NOCUT
100
AcDbLine
 10
212.3648147899101
 20
25.0000003725
 30
0.0
 11
212.5349934853
 21
24.9487391624
 31
0.0
  0
LINE
  5
556
330
1F
100
AcDbEntity
  8
NOCUT
100
AcDbLine
 10
212.5349934853
 20
24.9487391624
 30
0.0
 11
212.5349934853
 21
24.65185245092186
 31
0.0
  0
LINE
  5
557
330
1F
100
AcDbEntity
  8
NOCUT
100
AcDbLine
 10
212.5349934853
 20
24.65185245092186
 30
0.0
 11
212.7346992492806
 21
24.62742291395431
 31
0.0
  0
LINE
  5
558
330
1F
100
AcDbEntity
  8
NOCUT
100
AcDbLine
 10
212.7346992492806
 20
24.62742291395431
 30
0.0
 11
213.5100960732
 21
24.6274229139
 31
0.0
  0
LINE
  5
559
330
1F
100
AcDbEntity
  8
NOCUT
100
AcDbLine
 10
213.5100960732
 20
24.6274229139
 30
0.0
 11
224.0610759043
 21
26.4878468821
 31
0.0
  0
ARC
  5
55A
330
1F
100
AcDbEntity
  8
NOCUT
100
AcDbCircle
 10
224.1999932033971
 20
25.70000070088928
 30
0.0
 40
0.7999997633031851
100
AcDbArc
 50
359.9999497237064
 51
99.99991258936485
  0
LINE
  5
55B
330
1F
100
AcDbEntity
  8
NOCUT
100
AcDbLine
 10
224.9999929667
 20
25.6999999989
 30
0.0
 11
224.9999929667
 21
14.44411985465158
 31
0.0
  0
ARC
  5
55C
330
1F
100
AcDbEntity
  8
NOCUT
100
AcDbCircle
 10
224.1983938296368
 20
14.42957617709165
 30
0.0
 40
0.8017310615770069
100
AcDbArc
 50
303.9006879302785
 51
1.039422184875575
  0
ARC
  5
55D
330
1F
100
AcDbEntity
  8
NOCUT
100
AcDbCircle
 10
234.9113052367729
 20
2.320114506954045
 30
0.0
 40
13.35396390641956
100
AcDbArc
 50
140.2093026009944
 51
184.5963036736072
  0
LINE
  5
55E
330
1F
100
AcDbEntity
  8
NOCUT
100
AcDbLine
 10
224.650287065778
 20
10.86645045333889
 30
0.0
 11
224.6455633977
 21
13.76413491559999
 31
0.0
  0
LINE
  5
55F
330
1F
100
AcDbEntity
  8
NOCUT
100
AcDbLine
 10
221.6002870071
 20
1.249999698500004
 30
0.0
 11
221.6002870071
 21
0.0238012629188322
 31
0.0
  0
LINE
  5
560
330
1F
100
AcDbEntity
  8
NOCUT
100
AcDbLine
 10
221.6002870071
 20
0.0238012629188322
 30
0.0
 11
0.0264283744718625
 21
0.0238012629188594
 31
0.0
  0
ENDSEC
  0
SECTION
  2
OBJECTS
  0
DICTIONARY
  5
C
330
0
100
AcDbDictionary
281
     1
  3
ACAD_DETAILVIEWSTYLE
350
531
  3
ACAD_GROUP
350
D
  3
ACAD_LAYOUT
350
4AD
  3
ACAD_MATERIAL
350
4C1
  3
ACAD_MLEADERSTYLE
350
4DB
  3
ACAD_MLINESTYLE
350
17
  3
ACAD_PLOTSETTINGS
350
51D
  3
ACAD_PLOTSTYLENAME
350
51E
  3
ACAD_SCALELIST
350
48B
  3
ACAD_SECTIONVIEWSTYLE
350
532
  3
ACAD_TABLESTYLE
350
52A
  3
ACAD_VISUALSTYLE
350
4B0
  3
ACDB_RECOMPOSE_DATA
350
57D
  3
AcDbVariableDictionary
350
4D9
  3
APPDATA
350
52D
  0
DICTIONARY
  5
533
330
2
100
AcDbDictionary
280
     1
281
     1
  3
ACAD_LAYERSTATES
360
534
  0
DICTIONARY
  5
531
102
{ACAD_REACTORS
330
C
102
}
330
C
100
AcDbDictionary
281
     1
  0
DICTIONARY
  5
D
102
{ACAD_REACTORS
330
C
102
}
330
C
100
AcDbDictionary
281
     1
  0
DICTIONARY
  5
4AD
102
{ACAD_REACTORS
330
C
102
}
330
C
100
AcDbDictionary
281
     1
  3
Layout1
350
4AF
  3
Model
350
4AE
  0
DICTIONARY
  5
4C1
102
{ACAD_REACTORS
330
C
102
}
330
C
100
AcDbDictionary
281
     1
  3
ByBlock
350
4C3
  3
ByLayer
350
4C2
  3
Global
350
4C4
  0
DICTIONARY
  5
4DB
102
{ACAD_REACTORS
330
C
102
}
330
C
100
AcDbDictionary
281
     1
  3
Standard
350
52C
  0
DICTIONARY
  5
17
102
{ACAD_REACTORS
330
C
102
}
330
C
100
AcDbDictionary
281
     1
  3
STANDARD
350
18
  0
DICTIONARY
  5
51D
102
{ACAD_REACTORS
330
C
102
}
330
C
100
AcDbDictionary
281
     1
  0
ACDBDICTIONARYWDFLT
  5
51E
102
{ACAD_REACTORS
330
C
102
}
330
C
100
AcDbDictionary
281
     1
  3
Normal
350
51F
100
AcDbDictionaryWithDefault
340
51F
  0
DICTIONARY
  5
48B
102
{ACAD_REACTORS
330
C
102
}
330
C
100
AcDbDictionary
281
     1
  3
A0
350
48C
  3
A1
350
48D
  3
A2
350
48E
  3
A3
350
48F
  3
A4
350
490
  3
A5
350
491
  3
A6
350
492
  3
A7
350
493
  3
A8
350
494
  3
A9
350
495
  3
B0
350
496
  3
B1
350
497
  3
B2
350
498
  3
B3
350
499
  3
B4
350
49A
  3
B5
350
49B
  3
B6
350
49C
  3
B7
350
49D
  3
B8
350
49E
  3
B9
350
49F
  3
C0
350
4A0
  3
C1
350
4A1
  3
C2
350
4A2
  3
C3
350
4A3
  3
C4
350
4A4
  3
C5
350
4A5
  3
C6
350
4A6
  3
C7
350
4A7
  3
C8
350
4A8
  3
C9
350
4A9
  3
D0
350
4AA
  3
D1
350
4AB
  3
D2
350
4AC
  0
DICTIONARY
  5
532
102
{ACAD_REACTORS
330
C
102
}
330
C
100
AcDbDictionary
281
     1
  0
DICTIONARY
  5
52A
102
{ACAD_REACTORS
330
C
102
}
330
C
100
AcDbDictionary
281
     1
  3
Standard
350
52B
  0
DICTIONARY
  5
4B0
102
{ACAD_REACTORS
330
C
102
}
330
C
100
AcDbDictionary
281
     1
  3
2dWireframe
350
4B5
  3
3D Hidden
350
4B7
  3
3dWireframe
350
4B6
  3
Basic
350
4B8
  3
Brighten
350
4BC
  3
ColorChange
350
4C0
  3
Conceptual
350
4BA
  3
Dim
350
4BB
  3
EdgeColorOff
350
524
  3
Facepattern
350
4BF
  3
Flat
350
4B1
  3
FlatWithEdges
350
4B2
  3
Gouraud
350
4B3
  3
GouraudWithEdges
350
4B4
  3
Hidden
350
521
  3
JitterOff
350
522
  3
Linepattern
350
4BE
  3
OverhangOff
350
523
  3
Realistic
350
4B9
  3
Shaded
350
529
  3
Shaded with edges
350
528
  3
Shades of Gray
350
525
  3
Sketchy
350
526
  3
Thicken
350
4BD
  3
Wireframe
350
520
  3
X-Ray
350
527
  0
XRECORD
  5
57D
102
{ACAD_REACTORS
330
C
102
}
330
C
100
AcDbXrecord
280
     1
 90
        1
330
52B
  0
DICTIONARY
  5
4D9
102
{ACAD_REACTORS
330
C
102
}
330
C
100
AcDbDictionary
281
     1
  3
CANNOSCALE
350
52E
  3
CMLEADERSTYLE
350
530
  3
CTABLESTYLE
350
52F
  3
DIMASSOC
350
4DD
  3
HIDETEXT
350
4DE
  3
MSLTSCALE
350
4DC
  0
DICTIONARY
  5
52D
102
{ACAD_REACTORS
330
C
102
}
330
C
100
AcDbDictionary
281
     1
  0
DICTIONARY
  5
534
102
{ACAD_REACTORS
330
533
102
}
330
533
100
AcDbDictionary
281
     1
  0
LAYOUT
  5
4AF
102
{ACAD_REACTORS
330
4AD
102
}
330
4AD
100
AcDbPlotSettings
  1

  2
none_device
  4

  6

 40
0.0
 41
0.0
 42
0.0
 43
0.0
 44
0.0
 45
0.0
 46
0.0
 47
0.0
 48
0.0
 49
0.0
140
0.0
141
0.0
142
1.0
143
1.0
 70
   688
 72
     0
 73
     0
 74
     5
  7

 75
    16
 76
     0
 77
     2
 78
   300
147
1.0
148
0.0
149
0.0
100
AcDbLayout
  1
Layout1
 70
     1
 71
     1
 10
0.0
 20
0.0
 11
420.0
 21
297.0
 12
0.0
 22
0.0
 32
0.0
 14
1.000000000000000E+20
 24
1.000000000000000E+20
 34
1.000000000000000E+20
 15
-1.000000000000000E+20
 25
-1.000000000000000E+20
 35
-1.000000000000000E+20
146
0.0
 13
0.0
 23
0.0
 33
0.0
 16
1.0
 26
0.0
 36
0.0
 17
0.0
 27
1.0
 37
0.0
 76
     0
330
1B
  0
LAYOUT
  5
4AE
102
{ACAD_REACTORS
330
4AD
102
}
330
4AD
100
AcDbPlotSettings
  1

  2
none_device
  4

  6

 40
0.0
 41
0.0
 42
0.0
 43
0.0
 44
0.0
 45
0.0
 46
0.0
 47
0.0
 48
0.0
 49
0.0
140
0.0
141
0.0
142
1.0
143
1.0
 70
  1712
 72
     0
 73
     0
 74
     0
  7

 75
     0
 76
     0
 77
     2
 78
   300
147
1.0
148
-0.0000001562100806
149
0.0
100
AcDbLayout
  1
Model
 70
     1
 71
     0
 10
0.0
 20
0.0
 11
420.0
 21
297.0
 12
0.0
 22
0.0
 32
0.0
 14
-97.21628968295374
 24
-76.02151446270236
 34
0.0
 15
294.9958842300899
 25
89.60978988512394
 35
0.0
146
0.0
 13
0.0
 23
0.0
 33
0.0
 16
1.0
 26
0.0
 36
0.0
 17
0.0
 27
1.0
 37
0.0
 76
     0
330
1F
331
29
  0
MATERIAL
  5
4C3
102
{ACAD_REACTORS
330
4C1
102
}
330
4C1
100
AcDbMaterial
  1
ByBlock
 72
     1
 94
      127
  0
MATERIAL
  5
4C2
102
{ACAD_REACTORS
330
4C1
102
}
330
4C1
100
AcDbMaterial
  1
ByLayer
 72
     1
 94
      127
  0
MATERIAL
  5
4C4
102
{ACAD_REACTORS
330
4C1
102
}
330
4C1
100
AcDbMaterial
  1
Global
 72
     1
 94
      127
  0
MLEADERSTYLE
  5
52C
102
{ACAD_REACTORS
330
4DB
102
}
330
4DB
100
AcDbMLeaderStyle
179
     2
170
     2
171
     1
172
     0
 90
        2
 40
0.0
 41
0.0
173
     1
 91
-1056964608
340
14
 92
       -2
290
     1
 42
2.0
291
     1
 43
8.0
  3
Standard
341
0
 44
4.0
300

342
11
174
     1
178
     1
175
     1
176
     0
 93
-1056964608
 45
4.0
292
     0
297
     0
 46
4.0
343
0
 94
-1056964608
 47
1.0
 49
1.0
140
1.0
293
     1
141
0.0
294
     1
177
     0
142
1.0
295
     0
296
     0
143
3.75
271
     0
272
     9
273
     9
298
     0
  0
MLINESTYLE
  5
18
102
{ACAD_REACTORS
330
17
102
}
330
17
100
AcDbMlineStyle
  2
Standard
 70
     0
  3

 62
   256
 51
90.0
 52
90.0
 71
     2
 49
0.5
 62
   256
  6
BYLAYER
 49
-0.5
 62
   256
  6
BYLAYER
  0
ACDBPLACEHOLDER
  5
51F
102
{ACAD_REACTORS
330
51E
102
}
330
51E
  0
SCALE
  5
48C
102
{ACAD_REACTORS
330
48B
102
}
330
48B
100
AcDbScale
 70
     0
300
1:1
140
1.0
141
1.0
290
     1
  0
SCALE
  5
48D
102
{ACAD_REACTORS
330
48B
102
}
330
48B
100
AcDbScale
 70
     0
300
1:2
140
1.0
141
2.0
290
     0
  0
SCALE
  5
48E
102
{ACAD_REACTORS
330
48B
102
}
330
48B
100
AcDbScale
 70
     0
300
1:4
140
1.0
141
4.0
290
     0
  0
SCALE
  5
48F
102
{ACAD_REACTORS
330
48B
102
}
330
48B
100
AcDbScale
 70
     0
300
1:5
140
1.0
141
5.0
290
     0
  0
SCALE
  5
490
102
{ACAD_REACTORS
330
48B
102
}
330
48B
100
AcDbScale
 70
     0
300
1:8
140
1.0
141
8.0
290
     0
  0
SCALE
  5
491
102
{ACAD_REACTORS
330
48B
102
}
330
48B
100
AcDbScale
 70
     0
300
1:10
140
1.0
141
10.0
290
     0
  0
SCALE
  5
492
102
{ACAD_REACTORS
330
48B
102
}
330
48B
100
AcDbScale
 70
     0
300
1:16
140
1.0
141
16.0
290
     0
  0
SCALE
  5
493
102
{ACAD_REACTORS
330
48B
102
}
330
48B
100
AcDbScale
 70
     0
300
1:20
140
1.0
141
20.0
290
     0
  0
SCALE
  5
494
102
{ACAD_REACTORS
330
48B
102
}
330
48B
100
AcDbScale
 70
     0
300
1:30
140
1.0
141
30.0
290
     0
  0
SCALE
  5
495
102
{ACAD_REACTORS
330
48B
102
}
330
48B
100
AcDbScale
 70
     0
300
1:40
140
1.0
141
40.0
290
     0
  0
SCALE
  5
496
102
{ACAD_REACTORS
330
48B
102
}
330
48B
100
AcDbScale
 70
     0
300
1:50
140
1.0
141
50.0
290
     0
  0
SCALE
  5
497
102
{ACAD_REACTORS
330
48B
102
}
330
48B
100
AcDbScale
 70
     0
300
1:100
140
1.0
141
100.0
290
     0
  0
SCALE
  5
498
102
{ACAD_REACTORS
330
48B
102
}
330
48B
100
AcDbScale
 70
     0
300
2:1
140
2.0
141
1.0
290
     0
  0
SCALE
  5
499
102
{ACAD_REACTORS
330
48B
102
}
330
48B
100
AcDbScale
 70
     0
300
4:1
140
4.0
141
1.0
290
     0
  0
SCALE
  5
49A
102
{ACAD_REACTORS
330
48B
102
}
330
48B
100
AcDbScale
 70
     0
300
8:1
140
8.0
141
1.0
290
     0
  0
SCALE
  5
49B
102
{ACAD_REACTORS
330
48B
102
}
330
48B
100
AcDbScale
 70
     0
300
10:1
140
10.0
141
1.0
290
     0
  0
SCALE
  5
49C
102
{ACAD_REACTORS
330
48B
102
}
330
48B
100
AcDbScale
 70
     0
300
100:1
140
100.0
141
1.0
290
     0
  0
SCALE
  5
49D
102
{ACAD_REACTORS
330
48B
102
}
330
48B
100
AcDbScale
 70
     0
300
1/128" = 1'-0"
140
0.0078125
141
12.0
290
     0
  0
SCALE
  5
49E
102
{ACAD_REACTORS
330
48B
102
}
330
48B
100
AcDbScale
 70
     0
300
1/64" = 1'-0"
140
0.015625
141
12.0
290
     0
  0
SCALE
  5
49F
102
{ACAD_REACTORS
330
48B
102
}
330
48B
100
AcDbScale
 70
     0
300
1/32" = 1'-0"
140
0.03125
141
12.0
290
     0
  0
SCALE
  5
4A0
102
{ACAD_REACTORS
330
48B
102
}
330
48B
100
AcDbScale
 70
     0
300
1/16" = 1'-0"
140
0.0625
141
12.0
290
     0
  0
SCALE
  5
4A1
102
{ACAD_REACTORS
330
48B
102
}
330
48B
100
AcDbScale
 70
     0
300
3/32" = 1'-0"
140
0.09375
141
12.0
290
     0
  0
SCALE
  5
4A2
102
{ACAD_REACTORS
330
48B
102
}
330
48B
100
AcDbScale
 70
     0
300
1/8" = 1'-0"
140
0.125
141
12.0
290
     0
  0
SCALE
  5
4A3
102
{ACAD_REACTORS
330
48B
102
}
330
48B
100
AcDbScale
 70
     0
300
3/16" = 1'-0"
140
0.1875
141
12.0
290
     0
  0
SCALE
  5
4A4
102
{ACAD_REACTORS
330
48B
102
}
330
48B
100
AcDbScale
 70
     0
300
1/4" = 1'-0"
140
0.25
141
12.0
290
     0
  0
SCALE
  5
4A5
102
{ACAD_REACTORS
330
48B
102
}
330
48B
100
AcDbScale
 70
     0
300
3/8" = 1'-0"
140
0.375
141
12.0
290
     0
  0
SCALE
  5
4A6
102
{ACAD_REACTORS
330
48B
102
}
330
48B
100
AcDbScale
 70
     0
300
1/2" = 1'-0"
140
0.5
141
12.0
290
     0
  0
SCALE
  5
4A7
102
{ACAD_REACTORS
330
48B
102
}
330
48B
100
AcDbScale
 70
     0
300
3/4" = 1'-0"
140
0.75
141
12.0
290
     0
  0
SCALE
  5
4A8
102
{ACAD_REACTORS
330
48B
102
}
330
48B
100
AcDbScale
 70
     0
300
1" = 1'-0"
140
1.0
141
12.0
290
     0
  0
SCALE
  5
4A9
102
{ACAD_REACTORS
330
48B
102
}
330
48B
100
AcDbScale
 70
     0
300
1-1/2" = 1'-0"
140
1.5
141
12.0
290
     0
  0
SCALE
  5
4AA
102
{ACAD_REACTORS
330
48B
102
}
330
48B
100
AcDbScale
 70
     0
300
3" = 1'-0"
140
3.0
141
12.0
290
     0
  0
SCALE
  5
4AB
102
{ACAD_REACTORS
330
48B
102
}
330
48B
100
AcDbScale
 70
     0
300
6" = 1'-0"
140
6.0
141
12.0
290
     0
  0
SCALE
  5
4AC
102
{ACAD_REACTORS
330
48B
102
}
330
48B
100
AcDbScale
 70
     0
300
1'-0" = 1'-0"
140
12.0
141
12.0
290
     0
  0
TABLESTYLE
  5
52B
102
{ACAD_REACTORS
330
52A
102
}
102
{ACAD_XDICTIONARY
360
57B
102
}
330
52A
100
AcDbTableStyle
  3
Standard
 70
     0
 71
     0
 40
0.06
 41
0.06
280
     0
281
     0
  7
STANDARD
140
4.5
170
     2
 62
     0
 63
   257
283
     0
 90
        4
 91
        0
  1

274
    -2
284
     1
 64
     0
275
    -2
285
     1
 65
     0
276
    -2
286
     1
 66
     0
277
    -2
287
     1
 67
     0
278
    -2
288
     1
 68
     0
279
    -2
289
     1
 69
     0
  7
STANDARD
140
6.0
170
     5
 62
     0
 63
   257
283
     0
 90
        4
 91
        0
  1

274
    -2
284
     1
 64
     0
275
    -2
285
     1
 65
     0
276
    -2
286
     1
 66
     0
277
    -2
287
     1
 67
     0
278
    -2
288
     1
 68
     0
279
    -2
289
     1
 69
     0
  7
STANDARD
140
4.5
170
     5
 62
     0
 63
   257
283
     0
 90
        4
 91
        0
  1

274
    -2
284
     1
 64
     0
275
    -2
285
     1
 65
     0
276
    -2
286
     1
 66
     0
277
    -2
287
     1
 67
     0
278
    -2
288
     1
 68
     0
279
    -2
289
     1
 69
     0
  0
VISUALSTYLE
  5
4B5
102
{ACAD_REACTORS
330
4B0
102
}
330
4B0
100
AcDbVisualStyle
  2
2dWireframe
 70
     4
177
     3
291
     0
 70
    58
 90
        0
176
     1
 90
        2
176
     1
 90
        0
176
     1
 90
        0
176
     1
 40
-0.6
176
     1
 40
-30.0
176
     1
 62
     7
176
     1
 90
        1
176
     1
 90
        4
176
     1
 62
     7
176
     1
 62
   257
176
     1
 90
        1
176
     1
 90
        1
176
     1
 40
1.0
176
     1
 90
        0
176
     1
 62
   257
176
     1
 40
1.0
176
     1
 90
        1
176
     1
 90
        6
176
     1
 90
        2
176
     1
 62
     7
176
     1
 90
        5
176
     1
 90
        0
176
     1
 90
        0
176
     1
290
     0
176
     1
 90
        1
176
     1
 40
0.0
176
     1
 90
        0
176
     1
290
     1
176
     1
290
     1
176
     1
290
     0
176
     1
290
     0
176
     1
290
     0
176
     1
290
     0
176
     1
290
     0
176
     1
290
     0
176
     1
290
     0
176
     1
 90
       50
176
     1
 40
0.0
176
     1
 40
1.0
176
     1
 90
        0
176
     1
 62
    18
420
        0
176
     1
 90
       50
176
     1
 90
        3
176
     1
 62
     5
420
      255
176
     1
290
     0
176
     1
 90
       50
176
     1
 90
       50
176
     1
 90
       50
176
     1
290
     0
176
     1
 90
       50
176
     1
 62
   256
176
     0
 40
1.0
176
     0
 90
        2
176
     1
  1
strokes_ogs.tif
176
     1
290
     0
176
     1
 40
1.0
176
     1
 40
1.0
176
     1
  0
VISUALSTYLE
  5
4B7
102
{ACAD_REACTORS
330
4B0
102
}
330
4B0
100
AcDbVisualStyle
  2
3D Hidden
 70
     6
177
     3
291
     0
 70
    58
 90
        1
176
     1
 90
        2
176
     1
 90
        2
176
     1
 90
        0
176
     1
 40
-0.6
176
     1
 40
-30.0
176
     1
 62
     7
176
     1
 90
        2
176
     1
 90
        2
176
     1
 62
     7
176
     1
 62
   257
176
     1
 90
        2
176
     1
 90
        1
176
     1
 40
40.0
176
     1
 90
        0
176
     1
 62
   257
176
     1
 40
1.0
176
     1
 90
        1
176
     1
 90
        6
176
     1
 90
        2
176
     1
 62
     7
176
     1
 90
        3
176
     1
 90
        0
176
     1
 90
        0
176
     1
290
     0
176
     1
 90
        1
176
     1
 40
0.0
176
     1
 90
        0
176
     1
290
     0
176
     1
290
     1
176
     1
290
     1
176
     1
290
     0
176
     1
290
     0
176
     1
290
     0
176
     1
290
     0
176
     1
290
     0
176
     1
290
     0
176
     1
 90
       50
176
     1
 40
0.0
176
     1
 40
1.0
176
     1
 90
        0
176
     1
 62
    18
420
        0
176
     1
 90
       50
176
     1
 90
        3
176
     1
 62
     5
420
      255
176
     1
290
     0
176
     1
 90
       50
176
     1
 90
       50
176
     1
 90
       50
176
     1
290
     0
176
     1
 90
       50
176
     1
 62
   256
176
     0
 40
1.0
176
     0
 90
        2
176
     1
  1
strokes_ogs.tif
176
     1
290
     0
176
     1
 40
1.0
176
     1
 40
1.0
176
     1
  0
VISUALSTYLE
  5
4B6
102
{ACAD_REACTORS
330
4B0
102
}
330
4B0
100
AcDbVisualStyle
  2
3dWireframe
 70
     5
177
     3
291
     0
 70
    58
 90
        0
176
     1
 90
        2
176
     1
 90
        0
176
     1
 90
        0
176
     1
 40
-0.6
176
     1
 40
-30.0
176
     1
 62
     7
176
     1
 90
        1
176
     1
 90
        4
176
     1
 62
     7
176
     1
 62
   257
176
     1
 90
        1
176
     1
 90
        1
176
     1
 40
1.0
176
     1
 90
        0
176
     1
 62
   257
176
     1
 40
1.0
176
     1
 90
        1
176
     1
 90
        6
176
     1
 90
        2
176
     1
 62
     7
176
     1
 90
        5
176
     1
 90
        0
176
     1
 90
        0
176
     1
290
     0
176
     1
 90
        1
176
     1
 40
0.0
176
     1
 90
        0
176
     1
290
     0
176
     1
290
     1
176
     1
290
     1
176
     1
290
     0
176
     1
290
     0
176
     1
290
     0
176
     1
290
     0
176
     1
290
     0
176
     1
290
     0
176
     1
 90
       50
176
     1
 40
0.0
176
     1
 40
1.0
176
     1
 90
        0
176
     1
 62
    18
420
        0
176
     1
 90
       50
176
     1
 90
        3
176
     1
 62
     5
420
      255
176
     1
290
     0
176
     1
 90
       50
176
     1
 90
       50
176
     1
 90
       50
176
     1
290
     0
176
     1
 90
       50
176
     1
 62
   256
176
     0
 40
1.0
176
     0
 90
        2
176
     1
  1
strokes_ogs.tif
176
     1
290
     0
176
     1
 40
1.0
176
     1
 40
1.0
176
     1
  0
VISUALSTYLE
  5
4B8
102
{ACAD_REACTORS
330
4B0
102
}
330
4B0
100
AcDbVisualStyle
  2
Basic
 70
     7
177
     3
291
     1
 70
    58
 90
        1
176
     1
 90
        0
176
     1
 90
        1
176
     1
 90
        0
176
     1
 40
-0.6
176
     1
 40
-30.0
176
     1
 62
     7
176
     1
 90
        0
176
     1
 90
        4
176
     1
 62
     7
176
     1
 62
   257
176
     1
 90
        1
176
     1
 90
        1
176
     1
 40
1.0
176
     1
 90
        8
176
     1
 62
     7
176
     1
 40
1.0
176
     1
 90
        1
176
     1
 90
        6
176
     1
 90
        2
176
     1
 62
     7
176
     1
 90
        5
176
     1
 90
        0
176
     1
 90
        0
176
     1
290
     0
176
     1
 90
        1
176
     1
 40
0.0
176
     1
 90
        0
176
     1
290
     0
176
     1
290
     1
176
     1
290
     1
176
     1
290
     0
176
     1
290
     0
176
     1
290
     0
176
     1
290
     0
176
     1
290
     0
176
     1
290
     0
176
     1
 90
       50
176
     1
 40
0.0
176
     1
 40
1.0
176
     1
 90
        0
176
     1
 62
    18
420
        0
176
     1
 90
       50
176
     1
 90
        3
176
     1
 62
     5
420
      255
176
     1
290
     0
176
     1
 90
       50
176
     1
 90
       50
176
     1
 90
       50
176
     1
290
     0
176
     1
 90
       50
176
     1
 62
   256
176
     0
 40
1.0
176
     0
 90
        2
176
     1
  1
strokes_ogs.tif
176
     1
290
     0
176
     1
 40
1.0
176
     1
 40
1.0
176
     1
  0
VISUALSTYLE
  5
4BC
102
{ACAD_REACTORS
330
4B0
102
}
330
4B0
100
AcDbVisualStyle
  2
Brighten
 70
    12
177
     3
291
     1
 70
    58
 90
        2
176
     1
 90
        2
176
     1
 90
        0
176
     1
 90
        0
176
     1
 40
-0.6
176
     1
 40
-30.0
176
     1
 62
     7
176
     1
 90
        1
176
     1
 90
        4
176
     1
 62
     7
176
     1
 62
   257
176
     1
 90
        1
176
     1
 90
        1
176
     1
 40
1.0
176
     1
 90
        8
176
     1
 62
     7
176
     1
 40
1.0
176
     1
 90
        1
176
     1
 90
        6
176
     1
 90
        2
176
     1
 62
     7
176
     1
 90
        5
176
     1
 90
        0
176
     1
 90
        0
176
     1
290
     0
176
     1
 90
        1
176
     1
 40
50.0
176
     1
 90
        0
176
     1
290
     0
176
     1
290
     1
176
     1
290
     1
176
     1
290
     0
176
     1
290
     0
176
     1
290
     0
176
     1
290
     0
176
     1
290
     0
176
     1
290
     0
176
     1
 90
       50
176
     1
 40
0.0
176
     1
 40
1.0
176
     1
 90
        0
176
     1
 62
    18
420
        0
176
     1
 90
       50
176
     1
 90
        3
176
     1
 62
     5
420
      255
176
     1
290
     0
176
     1
 90
       50
176
     1
 90
       50
176
     1
 90
       50
176
     1
290
     0
176
     1
 90
       50
176
     1
 62
   256
176
     0
 40
1.0
176
     0
 90
        2
176
     1
  1
strokes_ogs.tif
176
     1
290
     0
176
     1
 40
1.0
176
     1
 40
1.0
176
     1
  0
VISUALSTYLE
  5
4C0
102
{ACAD_REACTORS
330
4B0
102
}
330
4B0
100
AcDbVisualStyle
  2
ColorChange
 70
    16
177
     3
291
     1
 70
    58
 90
        2
176
     1
 90
        2
176
     1
 90
        3
176
     1
 90
        0
176
     1
 40
-0.6
176
     1
 40
-30.0
176
     1
 62
     8
176
     1
 90
        1
176
     1
 90
        4
176
     1
 62
     7
176
     1
 62
   257
176
     1
 90
        1
176
     1
 90
        1
176
     1
 40
1.0
176
     1
 90
        8
176
     1
 62
     8
176
     1
 40
1.0
176
     1
 90
        1
176
     1
 90
        6
176
     1
 90
        2
176
     1
 62
     7
176
     1
 90
        5
176
     1
 90
        0
176
     1
 90
        0
176
     1
290
     0
176
     1
 90
        1
176
     1
 40
0.0
176
     1
 90
        0
176
     1
290
     0
176
     1
290
     1
176
     1
290
     1
176
     1
290
     0
176
     1
290
     0
176
     1
290
     0
176
     1
290
     0
176
     1
290
     0
176
     1
290
     0
176
     1
 90
       50
176
     1
 40
0.0
176
     1
 40
1.0
176
     1
 90
        0
176
     1
 62
    18
420
        0
176
     1
 90
       50
176
     1
 90
        3
176
     1
 62
     5
420
      255
176
     1
290
     0
176
     1
 90
       50
176
     1
 90
       50
176
     1
 90
       50
176
     1
290
     0
176
     1
 90
       50
176
     1
 62
   256
176
     0
 40
1.0
176
     0
 90
        2
176
     1
  1
strokes_ogs.tif
176
     1
290
     0
176
     1
 40
1.0
176
     1
 40
1.0
176
     1
  0
VISUALSTYLE
  5
4BA
102
{ACAD_REACTORS
330
4B0
102
}
330
4B0
100
AcDbVisualStyle
  2
Conceptual
 70
     9
177
     3
291
     0
 70
    58
 90
        3
176
     1
 90
        2
176
     1
 90
        0
176
     1
 90
        0
176
     1
 40
-0.6
176
     1
 40
-30.0
176
     1
 62
     7
176
     1
 90
        2
176
     1
 90
        2
176
     1
 62
     7
176
     1
 62
   257
176
     1
 90
        1
176
     1
 90
        1
176
     1
 40
40.0
176
     1
 90
        8
176
     1
 62
     7
176
     1
 40
1.0
176
     1
 90
        1
176
     1
 90
        6
176
     1
 90
        2
176
     1
 62
     7
176
     1
 90
        3
176
     1
 90
        0
176
     1
 90
        0
176
     1
290
     0
176
     1
 90
        1
176
     1
 40
0.0
176
     1
 90
        0
176
     1
290
     0
176
     1
290
     1
176
     1
290
     1
176
     1
290
     0
176
     1
290
     0
176
     1
290
     0
176
     1
290
     0
176
     1
290
     0
176
     1
290
     0
176
     1
 90
       50
176
     1
 40
0.0
176
     1
 40
1.0
176
     1
 90
        0
176
     1
 62
    18
420
        0
176
     1
 90
       50
176
     1
 90
        3
176
     1
 62
     5
420
      255
176
     1
290
     0
176
     1
 90
       50
176
     1
 90
       50
176
     1
 90
       50
176
     1
290
     0
176
     1
 90
       50
176
     1
 62
   256
176
     0
 40
1.0
176
     0
 90
        2
176
     1
  1
strokes_ogs.tif
176
     1
290
     0
176
     1
 40
1.0
176
     1
 40
1.0
176
     1
  0
VISUALSTYLE
  5
4BB
102
{ACAD_REACTORS
330
4B0
102
}
330
4B0
100
AcDbVisualStyle
  2
Dim
 70
    11
177
     3
291
     1
 70
    58
 90
        2
176
     1
 90
        2
176
     1
 90
        0
176
     1
 90
        0
176
     1
 40
-0.6
176
     1
 40
-30.0
176
     1
 62
     7
176
     1
 90
        1
176
     1
 90
        4
176
     1
 62
     7
176
     1
 62
   257
176
     1
 90
        1
176
     1
 90
        1
176
     1
 40
1.0
176
     1
 90
        8
176
     1
 62
     7
176
     1
 40
1.0
176
     1
 90
        1
176
     1
 90
        6
176
     1
 90
        2
176
     1
 62
     7
176
     1
 90
        5
176
     1
 90
        0
176
     1
 90
        0
176
     1
290
     0
176
     1
 90
        1
176
     1
 40
-50.0
176
     1
 90
        0
176
     1
290
     0
176
     1
290
     1
176
     1
290
     1
176
     1
290
     0
176
     1
290
     0
176
     1
290
     0
176
     1
290
     0
176
     1
290
     0
176
     1
290
     0
176
     1
 90
       50
176
     1
 40
0.0
176
     1
 40
1.0
176
     1
 90
        0
176
     1
 62
    18
420
        0
176
     1
 90
       50
176
     1
 90
        3
176
     1
 62
     5
420
      255
176
     1
290
     0
176
     1
 90
       50
176
     1
 90
       50
176
     1
 90
       50
176
     1
290
     0
176
     1
 90
       50
176
     1
 62
   256
176
     0
 40
1.0
176
     0
 90
        2
176
     1
  1
strokes_ogs.tif
176
     1
290
     0
176
     1
 40
1.0
176
     1
 40
1.0
176
     1
  0
VISUALSTYLE
  5
524
102
{ACAD_REACTORS
330
4B0
102
}
330
4B0
100
AcDbVisualStyle
  2
EdgeColorOff
 70
    22
177
     3
291
     1
 70
    58
 90
        2
176
     0
 90
        2
176
     0
 90
        0
176
     0
 90
        0
176
     0
 40
0.6
176
     0
 40
30.0
176
     0
 62
     7
420
 16777215
176
     0
 90
        1
176
     0
 90
        4
176
     0
 62
     7
176
     0
 62
   257
176
     0
 90
        1
176
     0
 90
        1
176
     0
 40
1.0
176
     0
 90
        8
176
     2
 62
     7
176
     0
 40
1.0
176
     0
 90
        1
176
     0
 90
        6
176
     0
 90
        2
176
     0
 62
     7
176
     0
 90
        5
176
     0
 90
        0
176
     0
 90
        0
176
     0
290
     0
176
     0
 90
        1
176
     0
 40
0.0
176
     0
 90
        0
176
     0
290
     0
176
     0
290
     1
176
     0
290
     1
176
     0
290
     0
176
     0
290
     0
176
     0
290
     0
176
     0
290
     0
176
     0
290
     0
176
     0
290
     0
176
     0
 90
       50
176
     0
 40
0.0
176
     0
 40
1.0
176
     0
 90
        0
176
     0
 62
    18
420
        0
176
     0
 90
       50
176
     0
 90
        3
176
     0
 62
     5
420
      255
176
     0
290
     0
176
     0
 90
       50
176
     0
 90
       50
176
     0
 90
       50
176
     0
290
     0
176
     0
 90
       50
176
     0
 62
   256
176
     0
 40
1.0
176
     0
 90
        2
176
     0
  1
strokes_ogs.tif
176
     0
290
     0
176
     0
 40
1.0
176
     0
 40
1.0
176
     0
  0
VISUALSTYLE
  5
4BF
102
{ACAD_REACTORS
330
4B0
102
}
330
4B0
100
AcDbVisualStyle
  2
Facepattern
 70
    15
177
     3
291
     1
 70
    58
 90
        2
176
     1
 90
        2
176
     1
 90
        0
176
     1
 90
        0
176
     1
 40
-0.6
176
     1
 40
-30.0
176
     1
 62
     7
176
     1
 90
        1
176
     1
 90
        4
176
     1
 62
     7
176
     1
 62
   257
176
     1
 90
        1
176
     1
 90
        1
176
     1
 40
1.0
176
     1
 90
        8
176
     1
 62
     7
176
     1
 40
1.0
176
     1
 90
        1
176
     1
 90
        6
176
     1
 90
        2
176
     1
 62
     7
176
     1
 90
        5
176
     1
 90
        0
176
     1
 90
        0
176
     1
290
     0
176
     1
 90
        1
176
     1
 40
0.0
176
     1
 90
        0
176
     1
290
     0
176
     1
290
     1
176
     1
290
     1
176
     1
290
     0
176
     1
290
     0
176
     1
290
     0
176
     1
290
     0
176
     1
290
     0
176
     1
290
     0
176
     1
 90
       50
176
     1
 40
0.0
176
     1
 40
1.0
176
     1
 90
        0
176
     1
 62
    18
420
        0
176
     1
 90
       50
176
     1
 90
        3
176
     1
 62
     5
420
      255
176
     1
290
     0
176
     1
 90
       50
176
     1
 90
       50
176
     1
 90
       50
176
     1
290
     0
176
     1
 90
       50
176
     1
 62
   256
176
     0
 40
1.0
176
     0
 90
        2
176
     1
  1
strokes_ogs.tif
176
     1
290
     0
176
     1
 40
1.0
176
     1
 40
1.0
176
     1
  0
VISUALSTYLE
  5
4B1
102
{ACAD_REACTORS
330
4B0
102
}
330
4B0
100
AcDbVisualStyle
  2
Flat
 70
     0
177
     3
291
     1
 70
    58
 90
        2
176
     1
 90
        1
176
     1
 90
        1
176
     1
 90
        2
176
     1
 40
-0.6
176
     1
 40
30.0
176
     1
 62
     7
176
     1
 90
        0
176
     1
 90
        4
176
     1
 62
     7
176
     1
 62
   257
176
     1
 90
        1
176
     1
 90
        1
176
     1
 40
1.0
176
     1
 90
        8
176
     1
 62
     7
176
     1
 40
1.0
176
     1
 90
        1
176
     1
 90
        6
176
     1
 90
        2
176
     1
 62
     7
176
     1
 90
        5
176
     1
 90
        0
176
     1
 90
        0
176
     1
290
     0
176
     1
 90
       13
176
     1
 40
0.0
176
     1
 90
        0
176
     1
290
     0
176
     1
290
     1
176
     1
290
     1
176
     1
290
     0
176
     1
290
     0
176
     1
290
     0
176
     1
290
     0
176
     1
290
     0
176
     1
290
     0
176
     1
 90
       50
176
     1
 40
0.0
176
     1
 40
1.0
176
     1
 90
        0
176
     1
 62
    18
420
        0
176
     1
 90
       50
176
     1
 90
        3
176
     1
 62
     5
420
      255
176
     1
290
     0
176
     1
 90
       50
176
     1
 90
       50
176
     1
 90
       50
176
     1
290
     0
176
     1
 90
       50
176
     1
 62
   256
176
     0
 40
1.0
176
     0
 90
        2
176
     1
  1
strokes_ogs.tif
176
     1
290
     0
176
     1
 40
1.0
176
     1
 40
1.0
176
     1
  0
VISUALSTYLE
  5
4B2
102
{ACAD_REACTORS
330
4B0
102
}
330
4B0
100
AcDbVisualStyle
  2
FlatWithEdges
 70
     1
177
     3
291
     1
 70
    58
 90
        2
176
     1
 90
        1
176
     1
 90
        1
176
     1
 90
        2
176
     1
 40
-0.6
176
     1
 40
30.0
176
     1
 62
     7
176
     1
 90
        1
176
     1
 90
        4
176
     1
 62
     7
176
     1
 62
   257
176
     1
 90
        1
176
     1
 90
        1
176
     1
 40
1.0
176
     1
 90
        0
176
     1
 62
   257
176
     1
 40
1.0
176
     1
 90
        1
176
     1
 90
        6
176
     1
 90
        2
176
     1
 62
     7
176
     1
 90
        5
176
     1
 90
        0
176
     1
 90
        0
176
     1
290
     0
176
     1
 90
       13
176
     1
 40
0.0
176
     1
 90
        0
176
     1
290
     0
176
     1
290
     1
176
     1
290
     1
176
     1
290
     0
176
     1
290
     0
176
     1
290
     0
176
     1
290
     0
176
     1
290
     0
176
     1
290
     0
176
     1
 90
       50
176
     1
 40
0.0
176
     1
 40
1.0
176
     1
 90
        0
176
     1
 62
    18
420
        0
176
     1
 90
       50
176
     1
 90
        3
176
     1
 62
     5
420
      255
176
     1
290
     0
176
     1
 90
       50
176
     1
 90
       50
176
     1
 90
       50
176
     1
290
     0
176
     1
 90
       50
176
     1
 62
   256
176
     0
 40
1.0
176
     0
 90
        2
176
     1
  1
strokes_ogs.tif
176
     1
290
     0
176
     1
 40
1.0
176
     1
 40
1.0
176
     1
  0
VISUALSTYLE
  5
4B3
102
{ACAD_REACTORS
330
4B0
102
}
330
4B0
100
AcDbVisualStyle
  2
Gouraud
 70
     2
177
     3
291
     1
 70
    58
 90
        2
176
     1
 90
        2
176
     1
 90
        1
176
     1
 90
        2
176
     1
 40
-0.6
176
     1
 40
30.0
176
     1
 62
     7
176
     1
 90
        0
176
     1
 90
        4
176
     1
 62
     7
176
     1
 62
   257
176
     1
 90
        1
176
     1
 90
        1
176
     1
 40
1.0
176
     1
 90
        0
176
     1
 62
     7
176
     1
 40
1.0
176
     1
 90
        1
176
     1
 90
        6
176
     1
 90
        2
176
     1
 62
     7
176
     1
 90
        5
176
     1
 90
        0
176
     1
 90
        0
176
     1
290
     0
176
     1
 90
       13
176
     1
 40
0.0
176
     1
 90
        0
176
     1
290
     0
176
     1
290
     1
176
     1
290
     1
176
     1
290
     0
176
     1
290
     0
176
     1
290
     0
176
     1
290
     0
176
     1
290
     0
176
     1
290
     0
176
     1
 90
       50
176
     1
 40
0.0
176
     1
 40
1.0
176
     1
 90
        0
176
     1
 62
    18
420
        0
176
     1
 90
       50
176
     1
 90
        3
176
     1
 62
     5
420
      255
176
     1
290
     0
176
     1
 90
       50
176
     1
 90
       50
176
     1
 90
       50
176
     1
290
     0
176
     1
 90
       50
176
     1
 62
   256
176
     0
 40
1.0
176
     0
 90
        2
176
     1
  1
strokes_ogs.tif
176
     1
290
     0
176
     1
 40
1.0
176
     1
 40
1.0
176
     1
  0
VISUALSTYLE
  5
4B4
102
{ACAD_REACTORS
330
4B0
102
}
330
4B0
100
AcDbVisualStyle
  2
GouraudWithEdges
 70
     3
177
     3
291
     1
 70
    58
 90
        2
176
     1
 90
        2
176
     1
 90
        1
176
     1
 90
        2
176
     1
 40
-0.6
176
     1
 40
30.0
176
     1
 62
     7
176
     1
 90
        1
176
     1
 90
        4
176
     1
 62
     7
176
     1
 62
   257
176
     1
 90
        1
176
     1
 90
        1
176
     1
 40
1.0
176
     1
 90
        0
176
     1
 62
   257
176
     1
 40
1.0
176
     1
 90
        1
176
     1
 90
        6
176
     1
 90
        2
176
     1
 62
     7
176
     1
 90
        5
176
     1
 90
        0
176
     1
 90
        0
176
     1
290
     0
176
     1
 90
       13
176
     1
 40
0.0
176
     1
 90
        0
176
     1
290
     0
176
     1
290
     1
176
     1
290
     1
176
     1
290
     0
176
     1
290
     0
176
     1
290
     0
176
     1
290
     0
176
     1
290
     0
176
     1
290
     0
176
     1
 90
       50
176
     1
 40
0.0
176
     1
 40
1.0
176
     1
 90
        0
176
     1
 62
    18
420
        0
176
     1
 90
       50
176
     1
 90
        3
176
     1
 62
     5
420
      255
176
     1
290
     0
176
     1
 90
       50
176
     1
 90
       50
176
     1
 90
       50
176
     1
290
     0
176
     1
 90
       50
176
     1
 62
   256
176
     0
 40
1.0
176
     0
 90
        2
176
     1
  1
strokes_ogs.tif
176
     1
290
     0
176
     1
 40
1.0
176
     1
 40
1.0
176
     1
  0
VISUALSTYLE
  5
521
102
{ACAD_REACTORS
330
4B0
102
}
330
4B0
100
AcDbVisualStyle
  2
Hidden
 70
     6
177
     3
291
     0
 70
    58
 90
        1
176
     1
 90
        2
176
     1
 90
        2
176
     1
 90
        0
176
     1
 40
0.6
176
     1
 40
30.0
176
     1
 62
     7
420
 16777215
176
     1
 90
        2
176
     1
 90
        2
176
     1
 62
     7
176
     1
 62
   257
176
     1
 90
        2
176
     1
 90
        1
176
     1
 40
40.0
176
     1
 90
        0
176
     1
 62
   257
176
     1
 40
1.0
176
     1
 90
        1
176
     1
 90
        6
176
     1
 90
        2
176
     1
 62
     7
176
     1
 90
        3
176
     1
 90
        0
176
     1
 90
        0
176
     1
290
     0
176
     1
 90
        1
176
     1
 40
0.0
176
     1
 90
        0
176
     1
290
     0
176
     1
290
     1
176
     1
290
     1
176
     1
290
     0
176
     1
290
     0
176
     1
290
     0
176
     1
290
     0
176
     1
290
     0
176
     1
290
     0
176
     1
 90
       50
176
     1
 40
0.0
176
     1
 40
1.0
176
     1
 90
        0
176
     1
 62
    18
420
        0
176
     1
 90
       50
176
     1
 90
        3
176
     1
 62
     5
420
      255
176
     1
290
     0
176
     1
 90
       50
176
     1
 90
       50
176
     1
 90
       50
176
     1
290
     0
176
     1
 90
       50
176
     1
 62
   256
176
     0
 40
1.0
176
     0
 90
        2
176
     1
  1
strokes_ogs.tif
176
     1
290
     0
176
     1
 40
1.0
176
     1
 40
1.0
176
     1
  0
VISUALSTYLE
  5
522
102
{ACAD_REACTORS
330
4B0
102
}
330
4B0
100
AcDbVisualStyle
  2
JitterOff
 70
    20
177
     3
291
     1
 70
    58
 90
        2
176
     0
 90
        2
176
     0
 90
        0
176
     0
 90
        0
176
     0
 40
0.6
176
     0
 40
30.0
176
     0
 62
     7
420
 16777215
176
     0
 90
        1
176
     0
 90
        4
176
     0
 62
     7
176
     0
 62
   257
176
     0
 90
        1
176
     0
 90
        1
176
     0
 40
1.0
176
     0
 90
       10
176
     2
 62
     7
176
     0
 40
1.0
176
     0
 90
        1
176
     0
 90
        6
176
     0
 90
        2
176
     0
 62
     7
176
     0
 90
        5
176
     0
 90
        0
176
     0
 90
        0
176
     0
290
     0
176
     0
 90
        1
176
     0
 40
0.0
176
     0
 90
        0
176
     0
290
     0
176
     0
290
     1
176
     0
290
     1
176
     0
290
     0
176
     0
290
     0
176
     0
290
     0
176
     0
290
     0
176
     0
290
     0
176
     0
290
     0
176
     0
 90
       50
176
     0
 40
0.0
176
     0
 40
1.0
176
     0
 90
        0
176
     0
 62
    18
420
        0
176
     0
 90
       50
176
     0
 90
        3
176
     0
 62
     5
420
      255
176
     0
290
     0
176
     0
 90
       50
176
     0
 90
       50
176
     0
 90
       50
176
     0
290
     0
176
     0
 90
       50
176
     0
 62
   256
176
     0
 40
1.0
176
     0
 90
        2
176
     0
  1
strokes_ogs.tif
176
     0
290
     0
176
     0
 40
1.0
176
     0
 40
1.0
176
     0
  0
VISUALSTYLE
  5
4BE
102
{ACAD_REACTORS
330
4B0
102
}
330
4B0
100
AcDbVisualStyle
  2
Linepattern
 70
    14
177
     3
291
     1
 70
    58
 90
        2
176
     1
 90
        2
176
     1
 90
        0
176
     1
 90
        0
176
     1
 40
-0.6
176
     1
 40
-30.0
176
     1
 62
     7
176
     1
 90
        1
176
     1
 90
        4
176
     1
 62
     7
176
     1
 62
   257
176
     1
 90
        7
176
     1
 90
        7
176
     1
 40
1.0
176
     1
 90
        8
176
     1
 62
     7
176
     1
 40
1.0
176
     1
 90
        1
176
     1
 90
        6
176
     1
 90
        2
176
     1
 62
     7
176
     1
 90
        5
176
     1
 90
        0
176
     1
 90
        0
176
     1
290
     0
176
     1
 90
        1
176
     1
 40
0.0
176
     1
 90
        0
176
     1
290
     0
176
     1
290
     1
176
     1
290
     1
176
     1
290
     0
176
     1
290
     0
176
     1
290
     0
176
     1
290
     0
176
     1
290
     0
176
     1
290
     0
176
     1
 90
       50
176
     1
 40
0.0
176
     1
 40
1.0
176
     1
 90
        0
176
     1
 62
    18
420
        0
176
     1
 90
       50
176
     1
 90
        3
176
     1
 62
     5
420
      255
176
     1
290
     0
176
     1
 90
       50
176
     1
 90
       50
176
     1
 90
       50
176
     1
290
     0
176
     1
 90
       50
176
     1
 62
   256
176
     0
 40
1.0
176
     0
 90
        2
176
     1
  1
strokes_ogs.tif
176
     1
290
     0
176
     1
 40
1.0
176
     1
 40
1.0
176
     1
  0
VISUALSTYLE
  5
523
102
{ACAD_REACTORS
330
4B0
102
}
330
4B0
100
AcDbVisualStyle
  2
OverhangOff
 70
    21
177
     3
291
     1
 70
    58
 90
        2
176
     0
 90
        2
176
     0
 90
        0
176
     0
 90
        0
176
     0
 40
0.6
176
     0
 40
30.0
176
     0
 62
     7
420
 16777215
176
     0
 90
        1
176
     0
 90
        4
176
     0
 62
     7
176
     0
 62
   257
176
     0
 90
        1
176
     0
 90
        1
176
     0
 40
1.0
176
     0
 90
        9
176
     2
 62
     7
176
     0
 40
1.0
176
     0
 90
        1
176
     0
 90
        6
176
     0
 90
        2
176
     0
 62
     7
176
     0
 90
        5
176
     0
 90
        0
176
     0
 90
        0
176
     0
290
     0
176
     0
 90
        1
176
     0
 40
0.0
176
     0
 90
        0
176
     0
290
     0
176
     0
290
     1
176
     0
290
     1
176
     0
290
     0
176
     0
290
     0
176
     0
290
     0
176
     0
290
     0
176
     0
290
     0
176
     0
290
     0
176
     0
 90
       50
176
     0
 40
0.0
176
     0
 40
1.0
176
     0
 90
        0
176
     0
 62
    18
420
        0
176
     0
 90
       50
176
     0
 90
        3
176
     0
 62
     5
420
      255
176
     0
290
     0
176
     0
 90
       50
176
     0
 90
       50
176
     0
 90
       50
176
     0
290
     0
176
     0
 90
       50
176
     0
 62
   256
176
     0
 40
1.0
176
     0
 90
        2
176
     0
  1
strokes_ogs.tif
176
     0
290
     0
176
     0
 40
1.0
176
     0
 40
1.0
176
     0
  0
VISUALSTYLE
  5
4B9
102
{ACAD_REACTORS
330
4B0
102
}
330
4B0
100
AcDbVisualStyle
  2
Realistic
 70
     8
177
     3
291
     0
 70
    58
 90
        2
176
     1
 90
        2
176
     1
 90
        0
176
     1
 90
        0
176
     1
 40
-0.6
176
     1
 40
-30.0
176
     1
 62
     7
176
     1
 90
        1
176
     1
 90
        0
176
     1
 62
     7
176
     1
 62
   257
176
     1
 90
        1
176
     1
 90
        1
176
     1
 40
1.0
176
     1
 90
        8
176
     1
 62
     8
176
     1
 40
1.0
176
     1
 90
        1
176
     1
 90
        6
176
     1
 90
        2
176
     1
 62
     7
176
     1
 90
        5
176
     1
 90
        0
176
     1
 90
        0
176
     1
290
     0
176
     1
 90
       13
176
     1
 40
0.0
176
     1
 90
        0
176
     1
290
     0
176
     1
290
     1
176
     1
290
     1
176
     1
290
     0
176
     1
290
     0
176
     1
290
     0
176
     1
290
     0
176
     1
290
     0
176
     1
290
     0
176
     1
 90
       50
176
     1
 40
0.0
176
     1
 40
1.0
176
     1
 90
        0
176
     1
 62
    18
420
        0
176
     1
 90
       50
176
     1
 90
        3
176
     1
 62
     5
420
      255
176
     1
290
     0
176
     1
 90
       50
176
     1
 90
       50
176
     1
 90
       50
176
     1
290
     0
176
     1
 90
       50
176
     1
 62
   256
176
     0
 40
1.0
176
     0
 90
        2
176
     1
  1
strokes_ogs.tif
176
     1
290
     0
176
     1
 40
1.0
176
     1
 40
1.0
176
     1
  0
VISUALSTYLE
  5
529
102
{ACAD_REACTORS
330
4B0
102
}
330
4B0
100
AcDbVisualStyle
  2
Shaded
 70
    27
177
     3
291
     0
 70
    58
 90
        2
176
     1
 90
        2
176
     1
 90
        1
176
     1
 90
        2
176
     1
 40
0.6
176
     1
 40
30.0
176
     1
 62
     7
420
 16777215
176
     1
 90
        0
176
     1
 90
        4
176
     1
 62
     7
176
     1
 62
   257
176
     1
 90
        1
176
     1
 90
        1
176
     1
 40
1.0
176
     1
 90
        8
176
     1
 62
   257
176
     1
 40
1.0
176
     1
 90
        1
176
     1
 90
        6
176
     1
 90
        2
176
     1
 62
     8
420
  7895160
176
     1
 90
        3
176
     1
 90
        0
176
     1
 90
        0
176
     1
290
     0
176
     1
 90
        5
176
     1
 40
0.0
176
     1
 90
        0
176
     1
290
     0
176
     1
290
     1
176
     1
290
     1
176
     1
290
     0
176
     1
290
     0
176
     1
290
     0
176
     1
290
     0
176
     1
290
     0
176
     1
290
     0
176
     1
 90
       50
176
     1
 40
0.0
176
     1
 40
1.0
176
     1
 90
        0
176
     1
 62
    18
420
        0
176
     1
 90
       50
176
     1
 90
        3
176
     1
 62
     5
420
      255
176
     1
290
     0
176
     1
 90
       50
176
     1
 90
       50
176
     1
 90
       50
176
     1
290
     0
176
     1
 90
       50
176
     1
 62
   256
176
     0
 40
1.0
176
     0
 90
        2
176
     1
  1
strokes_ogs.tif
176
     1
290
     0
176
     1
 40
1.0
176
     1
 40
1.0
176
     1
  0
VISUALSTYLE
  5
528
102
{ACAD_REACTORS
330
4B0
102
}
330
4B0
100
AcDbVisualStyle
  2
Shaded with edges
 70
    26
177
     3
291
     0
 70
    58
 90
        2
176
     1
 90
        2
176
     1
 90
        1
176
     1
 90
        2
176
     1
 40
0.6
176
     1
 40
30.0
176
     1
 62
     7
420
 16777215
176
     1
 90
        1
176
     1
 90
       10
176
     1
 62
     7
176
     1
 62
   257
176
     1
 90
        2
176
     1
 90
        1
176
     1
 40
1.0
176
     1
 90
        8
176
     1
 62
   257
176
     1
 40
1.0
176
     1
 90
        1
176
     1
 90
        6
176
     1
 90
        2
176
     1
 62
     7
176
     1
 90
        3
176
     1
 90
        0
176
     1
 90
        0
176
     1
290
     0
176
     1
 90
        5
176
     1
 40
0.0
176
     1
 90
        0
176
     1
290
     0
176
     1
290
     1
176
     1
290
     1
176
     1
290
     0
176
     1
290
     0
176
     1
290
     0
176
     1
290
     0
176
     1
290
     0
176
     1
290
     0
176
     1
 90
       50
176
     1
 40
0.0
176
     1
 40
1.0
176
     1
 90
        0
176
     1
 62
    18
420
        0
176
     1
 90
       50
176
     1
 90
        3
176
     1
 62
     5
420
      255
176
     1
290
     0
176
     1
 90
       50
176
     1
 90
       50
176
     1
 90
       50
176
     1
290
     0
176
     1
 90
       50
176
     1
 62
   256
176
     0
 40
1.0
176
     0
 90
        2
176
     1
  1
strokes_ogs.tif
176
     1
290
     0
176
     1
 40
1.0
176
     1
 40
1.0
176
     1
  0
VISUALSTYLE
  5
525
102
{ACAD_REACTORS
330
4B0
102
}
330
4B0
100
AcDbVisualStyle
  2
Shades of Gray
 70
    23
177
     3
291
     0
 70
    58
 90
        2
176
     1
 90
        2
176
     1
 90
        3
176
     1
 90
        0
176
     1
 40
0.6
176
     1
 40
30.0
176
     1
 62
     7
420
 16777215
176
     1
 90
        2
176
     1
 90
        2
176
     1
 62
     7
176
     1
 62
     7
176
     1
 90
        1
176
     1
 90
        1
176
     1
 40
40.0
176
     1
 90
        8
176
     1
 62
     7
176
     1
 40
1.0
176
     1
 90
        1
176
     1
 90
        6
176
     1
 90
        2
176
     1
 62
     7
176
     1
 90
        3
176
     1
 90
        0
176
     1
 90
        0
176
     1
290
     0
176
     1
 90
        1
176
     1
 40
0.0
176
     1
 90
        0
176
     1
290
     0
176
     1
290
     1
176
     1
290
     1
176
     1
290
     0
176
     1
290
     0
176
     1
290
     0
176
     1
290
     0
176
     1
290
     0
176
     1
290
     0
176
     1
 90
       50
176
     1
 40
0.0
176
     1
 40
1.0
176
     1
 90
        0
176
     1
 62
    18
420
        0
176
     1
 90
       50
176
     1
 90
        3
176
     1
 62
     5
420
      255
176
     1
290
     0
176
     1
 90
       50
176
     1
 90
       50
176
     1
 90
       50
176
     1
290
     0
176
     1
 90
       50
176
     1
 62
   256
176
     0
 40
1.0
176
     0
 90
        2
176
     1
  1
strokes_ogs.tif
176
     1
290
     0
176
     1
 40
1.0
176
     1
 40
1.0
176
     1
  0
VISUALSTYLE
  5
526
102
{ACAD_REACTORS
330
4B0
102
}
330
4B0
100
AcDbVisualStyle
  2
Sketchy
 70
    24
177
     3
291
     0
 70
    58
 90
        1
176
     1
 90
        2
176
     1
 90
        2
176
     1
 90
        0
176
     1
 40
0.6
176
     1
 40
30.0
176
     1
 62
     7
420
 16777215
176
     1
 90
        2
176
     1
 90
        2
176
     1
 62
     7
176
     1
 62
     7
176
     1
 90
        1
176
     1
 90
        1
176
     1
 40
40.0
176
     1
 90
       11
176
     1
 62
     7
176
     1
 40
1.0
176
     1
 90
        1
176
     1
 90
        6
176
     1
 90
        2
176
     1
 62
     7
176
     1
 90
        6
176
     1
 90
        0
176
     1
 90
        0
176
     1
290
     0
176
     1
 90
        1
176
     1
 40
0.0
176
     1
 90
        0
176
     1
290
     0
176
     1
290
     1
176
     1
290
     1
176
     1
290
     0
176
     1
290
     0
176
     1
290
     0
176
     1
290
     0
176
     1
290
     0
176
     1
290
     0
176
     1
 90
       50
176
     1
 40
0.0
176
     1
 40
1.0
176
     1
 90
        0
176
     1
 62
    18
420
        0
176
     1
 90
       50
176
     1
 90
        3
176
     1
 62
     5
420
      255
176
     1
290
     0
176
     1
 90
       50
176
     1
 90
       50
176
     1
 90
       50
176
     1
290
     0
176
     1
 90
       50
176
     1
 62
   256
176
     0
 40
1.0
176
     0
 90
        2
176
     1
  1
strokes_ogs.tif
176
     1
290
     0
176
     1
 40
1.0
176
     1
 40
1.0
176
     1
  0
VISUALSTYLE
  5
4BD
102
{ACAD_REACTORS
330
4B0
102
}
330
4B0
100
AcDbVisualStyle
  2
Thicken
 70
    13
177
     3
291
     1
 70
    58
 90
        2
176
     1
 90
        2
176
     1
 90
        0
176
     1
 90
        0
176
     1
 40
-0.6
176
     1
 40
-30.0
176
     1
 62
     7
176
     1
 90
        1
176
     1
 90
        4
176
     1
 62
     7
176
     1
 62
   257
176
     1
 90
        1
176
     1
 90
        1
176
     1
 40
1.0
176
     1
 90
       12
176
     1
 62
     7
176
     1
 40
1.0
176
     1
 90
        1
176
     1
 90
        6
176
     1
 90
        2
176
     1
 62
     7
176
     1
 90
        5
176
     1
 90
        0
176
     1
 90
        0
176
     1
290
     0
176
     1
 90
        1
176
     1
 40
0.0
176
     1
 90
        0
176
     1
290
     0
176
     1
290
     1
176
     1
290
     1
176
     1
290
     0
176
     1
290
     0
176
     1
290
     0
176
     1
290
     0
176
     1
290
     0
176
     1
290
     0
176
     1
 90
       50
176
     1
 40
0.0
176
     1
 40
1.0
176
     1
 90
        0
176
     1
 62
    18
420
        0
176
     1
 90
       50
176
     1
 90
        3
176
     1
 62
     5
420
      255
176
     1
290
     0
176
     1
 90
       50
176
     1
 90
       50
176
     1
 90
       50
176
     1
290
     0
176
     1
 90
       50
176
     1
 62
   256
176
     0
 40
1.0
176
     0
 90
        2
176
     1
  1
strokes_ogs.tif
176
     1
290
     0
176
     1
 40
1.0
176
     1
 40
1.0
176
     1
  0
VISUALSTYLE
  5
520
102
{ACAD_REACTORS
330
4B0
102
}
330
4B0
100
AcDbVisualStyle
  2
Wireframe
 70
     5
177
     3
291
     0
 70
    58
 90
        0
176
     1
 90
        2
176
     1
 90
        0
176
     1
 90
        0
176
     1
 40
0.6
176
     1
 40
30.0
176
     1
 62
     7
420
 16777215
176
     1
 90
        1
176
     1
 90
        4
176
     1
 62
     7
176
     1
 62
   257
176
     1
 90
        1
176
     1
 90
        1
176
     1
 40
1.0
176
     1
 90
        0
176
     1
 62
   257
176
     1
 40
1.0
176
     1
 90
        1
176
     1
 90
        6
176
     1
 90
        2
176
     1
 62
     7
176
     1
 90
        3
176
     1
 90
        0
176
     1
 90
        0
176
     1
290
     0
176
     1
 90
        1
176
     1
 40
0.0
176
     1
 90
        0
176
     1
290
     0
176
     1
290
     1
176
     1
290
     1
176
     1
290
     0
176
     1
290
     0
176
     1
290
     0
176
     1
290
     0
176
     1
290
     0
176
     1
290
     0
176
     1
 90
       50
176
     1
 40
0.0
176
     1
 40
1.0
176
     1
 90
        0
176
     1
 62
    18
420
        0
176
     1
 90
       50
176
     1
 90
        3
176
     1
 62
     5
420
      255
176
     1
290
     0
176
     1
 90
       50
176
     1
 90
       50
176
     1
 90
       50
176
     1
290
     0
176
     1
 90
       50
176
     1
 62
   256
176
     0
 40
1.0
176
     0
 90
        2
176
     1
  1
strokes_ogs.tif
176
     1
290
     0
176
     1
 40
1.0
176
     1
 40
1.0
176
     1
  0
VISUALSTYLE
  5
527
102
{ACAD_REACTORS
330
4B0
102
}
330
4B0
100
AcDbVisualStyle
  2
X-Ray
 70
    25
177
     3
291
     0
 70
    58
 90
        2
176
     1
 90
        2
176
     1
 90
        1
176
     1
 90
        1
176
     1
 40
0.5
176
     1
 40
30.0
176
     1
 62
     7
420
 16777215
176
     1
 90
        1
176
     1
 90
        0
176
     1
 62
     7
176
     1
 62
   257
176
     1
 90
        1
176
     1
 90
        1
176
     1
 40
1.0
176
     1
 90
        8
176
     1
 62
     7
176
     1
 40
1.0
176
     1
 90
        1
176
     1
 90
        6
176
     1
 90
        2
176
     1
 62
     7
176
     1
 90
        3
176
     1
 90
        0
176
     1
 90
        0
176
     1
290
     0
176
     1
 90
       13
176
     1
 40
0.0
176
     1
 90
        0
176
     1
290
     0
176
     1
290
     1
176
     1
290
     1
176
     1
290
     0
176
     1
290
     0
176
     1
290
     0
176
     1
290
     0
176
     1
290
     0
176
     1
290
     0
176
     1
 90
       50
176
     1
 40
0.0
176
     1
 40
1.0
176
     1
 90
        0
176
     1
 62
    18
420
        0
176
     1
 90
       50
176
     1
 90
        3
176
     1
 62
     5
420
      255
176
     1
290
     0
176
     1
 90
       50
176
     1
 90
       50
176
     1
 90
       50
176
     1
290
     0
176
     1
 90
       50
176
     1
 62
   256
176
     0
 40
1.0
176
     0
 90
        2
176
     1
  1
strokes_ogs.tif
176
     1
290
     0
176
     1
 40
1.0
176
     1
 40
1.0
176
     1
  0
DICTIONARYVAR
  5
52E
102
{ACAD_REACTORS
330
4D9
102
}
330
4D9
100
DictionaryVariables
280
     0
  1
1:1
  0
DICTIONARYVAR
  5
530
102
{ACAD_REACTORS
330
4D9
102
}
330
4D9
100
DictionaryVariables
280
     0
  1
Standard
  0
DICTIONARYVAR
  5
52F
102
{ACAD_REACTORS
330
4D9
102
}
330
4D9
100
DictionaryVariables
280
     0
  1
Standard
  0
DICTIONARYVAR
  5
4DD
102
{ACAD_REACTORS
330
4D9
102
}
330
4D9
100
DictionaryVariables
280
     0
  1
2
  0
DICTIONARYVAR
  5
4DE
102
{ACAD_REACTORS
330
4D9
102
}
330
4D9
100
DictionaryVariables
280
     0
  1
1
  0
DICTIONARYVAR
  5
4DC
102
{ACAD_REACTORS
330
4D9
102
}
330
4D9
100
DictionaryVariables
280
     0
  1
0
  0
DICTIONARY
  5
57B
330
52B
100
AcDbDictionary
280
     1
281
     1
  3
ACAD_ROUNDTRIP_2008_TABLESTYLE_CELLSTYLEMAP
360
57C
  0
CELLSTYLEMAP
  5
57C
102
{ACAD_REACTORS
330
57B
102
}
330
57B
100
AcDbCellStyleMap
 90
        3
300
CELLSTYLE
  1
TABLEFORMAT_BEGIN
 90
        5
170
     1
 91
        0
 92
    32768
 62
   257
 93
        1
300
CONTENTFORMAT
  1
CONTENTFORMAT_BEGIN
 90
        0
 91
        0
 92
        4
 93
        0
300

 40
0.0
140
1.0
 94
        5
 62
     0
340
11
144
6.0
309
CONTENTFORMAT_END
171
     1
301
MARGIN
  1
CELLMARGIN_BEGIN
 40
1.5
 40
1.5
 40
1.5
 40
1.5
 40
1.5
 40
1.5
309
CELLMARGIN_END
 94
        6
 95
        1
302
GRIDFORMAT
  1
GRIDFORMAT_BEGIN
 90
        0
 91
        1
 62
     0
 92
       -2
340
14
 93
        0
 40
0.045
309
GRIDFORMAT_END
 95
        2
302
GRIDFORMAT
  1
GRIDFORMAT_BEGIN
 90
        0
 91
        1
 62
     0
 92
       -2
340
14
 93
        0
 40
0.045
309
GRIDFORMAT_END
 95
        4
302
GRIDFORMAT
  1
GRIDFORMAT_BEGIN
 90
        0
 91
        1
 62
     0
 92
       -2
340
14
 93
        0
 40
0.045
309
GRIDFORMAT_END
 95
        8
302
GRIDFORMAT
  1
GRIDFORMAT_BEGIN
 90
        0
 91
        1
 62
     0
 92
       -2
340
14
 93
        0
 40
0.045
309
GRIDFORMAT_END
 95
       16
302
GRIDFORMAT
  1
GRIDFORMAT_BEGIN
 90
        0
 91
        1
 62
     0
 92
       -2
340
14
 93
        0
 40
0.045
309
GRIDFORMAT_END
 95
       32
302
GRIDFORMAT
  1
GRIDFORMAT_BEGIN
 90
        0
 91
        1
 62
     0
 92
       -2
340
14
 93
        0
 40
0.045
309
GRIDFORMAT_END
309
TABLEFORMAT_END
  1
CELLSTYLE_BEGIN
 90
        1
 91
        1
300
_TITLE
309
CELLSTYLE_END
300
CELLSTYLE
  1
TABLEFORMAT_BEGIN
 90
        5
170
     1
 91
        0
 92
        0
 62
   257
 93
        1
300
CONTENTFORMAT
  1
CONTENTFORMAT_BEGIN
 90
        0
 91
        0
 92
        4
 93
        0
300

 40
0.0
140
1.0
 94
        5
 62
     0
340
11
144
4.5
309
CONTENTFORMAT_END
171
     1
301
MARGIN
  1
CELLMARGIN_BEGIN
 40
1.5
 40
1.5
 40
1.5
 40
1.5
 40
1.5
 40
1.5
309
CELLMARGIN_END
 94
        6
 95
        1
302
GRIDFORMAT
  1
GRIDFORMAT_BEGIN
 90
        0
 91
        1
 62
     0
 92
       -2
340
14
 93
        0
 40
0.045
309
GRIDFORMAT_END
 95
        2
302
GRIDFORMAT
  1
GRIDFORMAT_BEGIN
 90
        0
 91
        1
 62
     0
 92
       -2
340
14
 93
        0
 40
0.045
309
GRIDFORMAT_END
 95
        4
302
GRIDFORMAT
  1
GRIDFORMAT_BEGIN
 90
        0
 91
        1
 62
     0
 92
       -2
340
14
 93
        0
 40
0.045
309
GRIDFORMAT_END
 95
        8
302
GRIDFORMAT
  1
GRIDFORMAT_BEGIN
 90
        0
 91
        1
 62
     0
 92
       -2
340
14
 93
        0
 40
0.045
309
GRIDFORMAT_END
 95
       16
302
GRIDFORMAT
  1
GRIDFORMAT_BEGIN
 90
        0
 91
        1
 62
     0
 92
       -2
340
14
 93
        0
 40
0.045
309
GRIDFORMAT_END
 95
       32
302
GRIDFORMAT
  1
GRIDFORMAT_BEGIN
 90
        0
 91
        1
 62
     0
 92
       -2
340
14
 93
        0
 40
0.045
309
GRIDFORMAT_END
309
TABLEFORMAT_END
  1
CELLSTYLE_BEGIN
 90
        2
 91
        1
300
_HEADER
309
CELLSTYLE_END
300
CELLSTYLE
  1
TABLEFORMAT_BEGIN
 90
        5
170
     1
 91
        0
 92
        0
 62
   257
 93
        1
300
CONTENTFORMAT
  1
CONTENTFORMAT_BEGIN
 90
        0
 91
        0
 92
        4
 93
        0
300

 40
0.0
140
1.0
 94
        2
 62
     0
340
11
144
4.5
309
CONTENTFORMAT_END
171
     1
301
MARGIN
  1
CELLMARGIN_BEGIN
 40
1.5
 40
1.5
 40
1.5
 40
1.5
 40
1.5
 40
1.5
309
CELLMARGIN_END
 94
        6
 95
        1
302
GRIDFORMAT
  1
GRIDFORMAT_BEGIN
 90
        0
 91
        1
 62
     0
 92
       -2
340
14
 93
        0
 40
0.045
309
GRIDFORMAT_END
 95
        2
302
GRIDFORMAT
  1
GRIDFORMAT_BEGIN
 90
        0
 91
        1
 62
     0
 92
       -2
340
14
 93
        0
 40
0.045
309
GRIDFORMAT_END
 95
        4
302
GRIDFORMAT
  1
GRIDFORMAT_BEGIN
 90
        0
 91
        1
 62
     0
 92
       -2
340
14
 93
        0
 40
0.045
309
GRIDFORMAT_END
 95
        8
302
GRIDFORMAT
  1
GRIDFORMAT_BEGIN
 90
        0
 91
        1
 62
     0
 92
       -2
340
14
 93
        0
 40
0.045
309
GRIDFORMAT_END
 95
       16
302
GRIDFORMAT
  1
GRIDFORMAT_BEGIN
 90
        0
 91
        1
 62
     0
 92
       -2
340
14
 93
        0
 40
0.045
309
GRIDFORMAT_END
 95
       32
302
GRIDFORMAT
  1
GRIDFORMAT_BEGIN
 90
        0
 91
        1
 62
     0
 92
       -2
340
14
 93
        0
 40
0.045
309
GRIDFORMAT_END
309
TABLEFORMAT_END
  1
CELLSTYLE_BEGIN
 90
        3
 91
        2
300
_DATA
309
CELLSTYLE_END
  0
ENDSEC
  0
EOF
