  0
SECTION
  2
HEADER
  9
$ACADVER
  1
AC1027
  9
$ACADMAINTVER
 70
   105
  9
$DWGCODEPAGE
  3
ANSI_1252
  9
$REQUIREDVERSIONS
160
                 0
  9
$LASTSAVEDBY
  1
matthias.ochs
  9
$INSBASE
 10
0.0
 20
0.0
 30
0.0
  9
$EXTMIN
 10
-38.42941740802683
 20
-61.39711212277962
 30
0.0
  9
$EXTMAX
 10
95.58277771392429
 20
63.76142446258613
 30
0.0
  9
$LIMMIN
 10
0.0
 20
0.0
  9
$LIMMAX
 10
210.0
 20
297.0
  9
$ORTHOMODE
 70
     0
  9
$REGENMODE
 70
     1
  9
$FILLMODE
 70
     1
  9
$QTEXTMODE
 70
     0
  9
$MIRRTEXT
 70
     1
  9
$LTSCALE
 40
1.0
  9
$ATTMODE
 70
     1
  9
$TEXTSIZE
 40
3.5
  9
$TRACEWID
 40
1.0
  9
$TEXTSTYLE
  7
STANDARD
  9
$CLAYER
  8
1
  9
$CELTYPE
  6
BYLAYER
  9
$CECOLOR
 62
   256
  9
$CELTSCALE
 40
1.0
  9
$DISPSILH
 70
     0
  9
$DIMSCALE
 40
1.0
  9
$DIMASZ
 40
3.5
  9
$DIMEXO
 40
0.0
  9
$DIMDLI
 40
3.75
  9
$DIMRND
 40
0.0
  9
$DIMDLE
 40
0.0
  9
$DIMEXE
 40
1.0
  9
$DIMTP
 40
0.0
  9
$DIMTM
 40
0.0
  9
$DIMTXT
 40
3.5
  9
$DIMCEN
 40
2.5
  9
$DIMTSZ
 40
0.0
  9
$DIMTOL
 70
     0
  9
$DIMLIM
 70
     0
  9
$DIMTIH
 70
     1
  9
$DIMTOH
 70
     1
  9
$DIMSE1
 70
     0
  9
$DIMSE2
 70
     0
  9
$DIMTAD
 70
     1
  9
$DIMZIN
 70
     0
  9
$DIMBLK
  1

  9
$DIMASO
 70
     1
  9
$DIMSHO
 70
     1
  9
$DIMPOST
  1

  9
$DIMAPOST
  1

  9
$DIMALT
 70
     0
  9
$DIMALTD
 70
     3
  9
$DIMALTF
 40
0.0393700787
  9
$DIMLFAC
 40
1.0
  9
$DIMTOFL
 70
     1
  9
$DIMTVP
 40
0.0
  9
$DIMTIX
 70
     0
  9
$DIMSOXD
 70
     0
  9
$DIMSAH
 70
     0
  9
$DIMBLK1
  1

  9
$DIMBLK2
  1

  9
$DIMSTYLE
  2
ISO-25
  9
$DIMCLRD
 70
     0
  9
$DIMCLRE
 70
     0
  9
$DIMCLRT
 70
     0
  9
$DIMTFAC
 40
1.0
  9
$DIMGAP
 40
1.5
  9
$DIMJUST
 70
     0
  9
$DIMSD1
 70
     0
  9
$DIMSD2
 70
     0
  9
$DIMTOLJ
 70
     0
  9
$DIMTZIN
 70
     0
  9
$DIMALTZ
 70
     0
  9
$DIMALTTZ
 70
     0
  9
$DIMUPT
 70
     0
  9
$DIMDEC
 70
     2
  9
$DIMTDEC
 70
     3
  9
$DIMALTU
 70
     2
  9
$DIMALTTD
 70
     3
  9
$DIMTXSTY
  7
STANDARD
  9
$DIMAUNIT
 70
     0
  9
$DIMADEC
 70
     0
  9
$DIMALTRND
 40
0.0
  9
$DIMAZIN
 70
     0
  9
$DIMDSEP
 70
    46
  9
$DIMATFIT
 70
     3
  9
$DIMFRAC
 70
     0
  9
$DIMLDRBLK
  1

  9
$DIMLUNIT
 70
     2
  9
$DIMLWD
 70
    -2
  9
$DIMLWE
 70
    -2
  9
$DIMTMOVE
 70
     2
  9
$DIMFXL
 40
1.0
  9
$DIMFXLON
 70
     0
  9
$DIMJOGANG
 40
0.7853981633974483
  9
$DIMTFILL
 70
     0
  9
$DIMTFILLCLR
 70
     0
  9
$DIMARCSYM
 70
     0
  9
$DIMLTYPE
  6

  9
$DIMLTEX1
  6

  9
$DIMLTEX2
  6

  9
$DIMTXTDIRECTION
 70
     0
  9
$LUNITS
 70
     2
  9
$LUPREC
 70
     2
  9
$SKETCHINC
 40
1.0
  9
$FILLETRAD
 40
10.0
  9
$AUNITS
 70
     0
  9
$AUPREC
 70
     2
  9
$MENU
  1
.
  9
$ELEVATION
 40
0.0
  9
$PELEVATION
 40
0.0
  9
$THICKNESS
 40
0.0
  9
$LIMCHECK
 70
     0
  9
$CHAMFERA
 40
0.0
  9
$CHAMFERB
 40
0.0
  9
$CHAMFERC
 40
0.0
  9
$CHAMFERD
 40
0.0
  9
$SKPOLY
 70
     0
  9
$TDCREATE
 40
2456966.440510995
  9
$TDUCREATE
 40
2456966.357177662
  9
$TDUPDATE
 40
2458677.478084896
  9
$TDUUPDATE
 40
2458677.394751562
  9
$TDINDWG
 40
0.0164843981
  9
$TDUSRTIMER
 40
0.0035066088
  9
$USRTIMER
 70
     1
  9
$ANGBASE
 50
0.0
  9
$ANGDIR
 70
     0
  9
$PDMODE
 70
     0
  9
$PDSIZE
 40
-1.0
  9
$PLINEWID
 40
0.0
  9
$SPLFRAME
 70
     0
  9
$SPLINETYPE
 70
     6
  9
$SPLINESEGS
 70
     8
  9
$HANDSEED
  5
450
  9
$SURFTAB1
 70
     6
  9
$SURFTAB2
 70
     6
  9
$SURFTYPE
 70
     6
  9
$SURFU
 70
     6
  9
$SURFV
 70
     6
  9
$UCSBASE
  2

  9
$UCSNAME
  2

  9
$UCSORG
 10
0.0
 20
0.0
 30
0.0
  9
$UCSXDIR
 10
1.0
 20
0.0
 30
0.0
  9
$UCSYDIR
 10
0.0
 20
1.0
 30
0.0
  9
$UCSORTHOREF
  2

  9
$UCSORTHOVIEW
 70
     0
  9
$UCSORGTOP
 10
0.0
 20
0.0
 30
0.0
  9
$UCSORGBOTTOM
 10
0.0
 20
0.0
 30
0.0
  9
$UCSORGLEFT
 10
0.0
 20
0.0
 30
0.0
  9
$UCSORGRIGHT
 10
0.0
 20
0.0
 30
0.0
  9
$UCSORGFRONT
 10
0.0
 20
0.0
 30
0.0
  9
$UCSORGBACK
 10
0.0
 20
0.0
 30
0.0
  9
$PUCSBASE
  2

  9
$PUCSNAME
  2

  9
$PUCSORG
 10
0.0
 20
0.0
 30
0.0
  9
$PUCSXDIR
 10
1.0
 20
0.0
 30
0.0
  9
$PUCSYDIR
 10
0.0
 20
1.0
 30
0.0
  9
$PUCSORTHOREF
  2

  9
$PUCSORTHOVIEW
 70
     0
  9
$PUCSORGTOP
 10
0.0
 20
0.0
 30
0.0
  9
$PUCSORGBOTTOM
 10
0.0
 20
0.0
 30
0.0
  9
$PUCSORGLEFT
 10
0.0
 20
0.0
 30
0.0
  9
$PUCSORGRIGHT
 10
0.0
 20
0.0
 30
0.0
  9
$PUCSORGFRONT
 10
0.0
 20
0.0
 30
0.0
  9
$PUCSORGBACK
 10
0.0
 20
0.0
 30
0.0
  9
$USERI1
 70
     0
  9
$USERI2
 70
     0
  9
$USERI3
 70
     0
  9
$USERI4
 70
     0
  9
$USERI5
 70
     0
  9
$USERR1
 40
0.0
  9
$USERR2
 40
0.0
  9
$USERR3
 40
0.0
  9
$USERR4
 40
0.0
  9
$USERR5
 40
0.0
  9
$WORLDVIEW
 70
     1
  9
$SHADEDGE
 70
     3
  9
$SHADEDIF
 70
    70
  9
$TILEMODE
 70
     1
  9
$MAXACTVP
 70
    64
  9
$PINSBASE
 10
0.0
 20
0.0
 30
0.0
  9
$PLIMCHECK
 70
     0
  9
$PEXTMIN
 10
1.000000000000000E+20
 20
1.000000000000000E+20
 30
1.000000000000000E+20
  9
$PEXTMAX
 10
-1.000000000000000E+20
 20
-1.000000000000000E+20
 30
-1.000000000000000E+20
  9
$PLIMMIN
 10
0.0
 20
0.0
  9
$PLIMMAX
 10
0.0
 20
0.0
  9
$UNITMODE
 70
     0
  9
$VISRETAIN
 70
     1
  9
$PLINEGEN
 70
     0
  9
$PSLTSCALE
 70
     1
  9
$TREEDEPTH
 70
  3020
  9
$CMLSTYLE
  2
STANDARD
  9
$CMLJUST
 70
     0
  9
$CMLSCALE
 40
20.0
  9
$PROXYGRAPHICS
 70
     1
  9
$MEASUREMENT
 70
     1
  9
$CELWEIGHT
370
    -1
  9
$ENDCAPS
280
     0
  9
$JOINSTYLE
280
     0
  9
$LWDISPLAY
290
     0
  9
$INSUNITS
 70
     0
  9
$HYPERLINKBASE
  1

  9
$STYLESHEET
  1

  9
$XEDIT
290
     1
  9
$CEPSNTYPE
380
     0
  9
$PSTYLEMODE
290
     1
  9
$FINGERPRINTGUID
  2
{33FF94B8-7A7F-4FA1-8B56-AA0930F983D4}
  9
$VERSIONGUID
  2
{FAEB1C32-E019-11D5-929B-00C0DF256EC4}
  9
$EXTNAMES
290
     1
  9
$PSVPSCALE
 40
0.0
  9
$OLESTARTUP
290
     0
  9
$SORTENTS
280
   127
  9
$INDEXCTL
280
     0
  9
$HIDETEXT
280
     1
  9
$XCLIPFRAME
280
     2
  9
$HALOGAP
280
     0
  9
$OBSCOLOR
 70
   257
  9
$OBSLTYPE
280
     0
  9
$INTERSECTIONDISPLAY
280
     0
  9
$INTERSECTIONCOLOR
 70
   257
  9
$DIMASSOC
280
     2
  9
$PROJECTNAME
  1

  9
$CAMERADISPLAY
290
     0
  9
$LENSLENGTH
 40
50.0
  9
$CAMERAHEIGHT
 40
0.0
  9
$STEPSPERSEC
 40
2.0
  9
$STEPSIZE
 40
6.0
  9
$3DDWFPREC
 40
2.0
  9
$PSOLWIDTH
 40
0.25
  9
$PSOLHEIGHT
 40
4.0
  9
$LOFTANG1
 40
1.570796326794897
  9
$LOFTANG2
 40
1.570796326794897
  9
$LOFTMAG1
 40
0.0
  9
$LOFTMAG2
 40
0.0
  9
$LOFTPARAM
 70
     7
  9
$LOFTNORMALS
280
     1
  9
$LATITUDE
 40
37.795
  9
$LONGITUDE
 40
-122.394
  9
$NORTHDIRECTION
 40
0.0
  9
$TIMEZONE
 70
 -8000
  9
$LIGHTGLYPHDISPLAY
280
     1
  9
$TILEMODELIGHTSYNCH
280
     1
  9
$SOLIDHIST
280
     0
  9
$SHOWHIST
280
     1
  9
$DWFFRAME
280
     2
  9
$DGNFRAME
280
     2
  9
$REALWORLDSCALE
290
     1
  9
$INTERFERECOLOR
 62
   256
  9
$CSHADOW
280
     0
  9
$SHADOWPLANELOCATION
 40
0.0
  0
ENDSEC
  0
SECTION
  2
CLASSES
  0
CLASS
  1
ACDBDICTIONARYWDFLT
  2
AcDbDictionaryWithDefault
  3
ObjectDBX Classes
 90
        0
 91
       13
280
     0
281
     0
  0
CLASS
  1
VISUALSTYLE
  2
AcDbVisualStyle
  3
ObjectDBX Classes
 90
     4095
 91
       13
280
     0
281
     0
  0
CLASS
  1
MATERIAL
  2
AcDbMaterial
  3
ObjectDBX Classes
 90
     1153
 91
       13
280
     0
281
     0
  0
CLASS
  1
SCALE
  2
AcDbScale
  3
ObjectDBX Classes
 90
     1153
 91
       13
280
     0
281
     0
  0
CLASS
  1
SUN
  2
AcDbSun
  3
SCENEOE
 90
     1153
 91
       13
280
     0
281
     0
  0
CLASS
  1
XRECORD
  2
AcDbXrecord
  3
ObjectDBX Classes
 90
        0
 91
        1
280
     0
281
     0
  0
CLASS
  1
LWPOLYLINE
  2
AcDbPolyline
  3
ObjectDBX Classes
 90
        0
 91
        1
280
     0
281
     1
  0
CLASS
  1
HATCH
  2
AcDbHatch
  3
ObjectDBX Classes
 90
        0
 91
        1
280
     0
281
     1
  0
CLASS
  1
DICTIONARYVAR
  2
AcDbDictionaryVar
  3
ObjectDBX Classes
 90
        0
 91
       11
280
     0
281
     0
  0
CLASS
  1
ACDBPLACEHOLDER
  2
AcDbPlaceHolder
  3
ObjectDBX Classes
 90
        0
 91
        1
280
     0
281
     0
  0
CLASS
  1
LAYOUT
  2
AcDbLayout
  3
ObjectDBX Classes
 90
        0
 91
        1
280
     0
281
     0
  0
CLASS
  1
TABLESTYLE
  2
AcDbTableStyle
  3
ObjectDBX Classes
 90
     4095
 91
       13
280
     0
281
     0
  0
CLASS
  1
MLEADERSTYLE
  2
AcDbMLeaderStyle
  3
ACDB_MLEADERSTYLE_CLASS
 90
     4095
 91
       13
280
     0
281
     0
  0
CLASS
  1
CELLSTYLEMAP
  2
AcDbCellStyleMap
  3
ObjectDBX Classes
 90
     1152
 91
        8
280
     0
281
     0
  0
ENDSEC
  0
SECTION
  2
TABLES
  0
TABLE
  2
VPORT
  5
8
330
0
100
AcDbSymbolTable
 70
     1
  0
VPORT
  5
29
330
8
100
AcDbSymbolTableRecord
100
AcDbViewportTableRecord
  2
*ACTIVE
 70
     0
 10
0.0
 20
0.0
 11
1.0
 21
1.0
 12
7.650466324627871
 22
4.082975998477009
 13
0.0
 23
0.0
 14
10.0
 24
10.0
 15
10.0
 25
10.0
 16
0.0
 26
0.0
 36
1.0
 17
0.0
 27
0.0
 37
0.0
 40
174.4266538324168
 41
1.831002331002331
 42
50.0
 43
0.0
 44
0.0
 50
0.0
 51
0.0
 71
    16
 72
  2000
 73
     1
 74
     3
 75
     1
 76
     0
 77
     0
 78
     0
281
     0
 65
     1
110
0.0
120
0.0
130
0.0
111
1.0
121
0.0
131
0.0
112
0.0
122
1.0
132
0.0
 79
     0
146
0.0
348
37D
 60
     3
 61
     5
292
     1
282
     1
141
0.0
142
0.0
 63
   256
361
417
  0
ENDTAB
  0
TABLE
  2
LTYPE
  5
5
330
0
100
AcDbSymbolTable
 70
     9
  0
LTYPE
  5
14
330
5
100
AcDbSymbolTableRecord
100
AcDbLinetypeTableRecord
  2
BYBLOCK
 70
     0
  3

 72
    65
 73
     0
 40
0.0
  0
LTYPE
  5
15
330
5
100
AcDbSymbolTableRecord
100
AcDbLinetypeTableRecord
  2
BYLAYER
 70
     0
  3

 72
    65
 73
     0
 40
0.0
  0
LTYPE
  5
16
330
5
100
AcDbSymbolTableRecord
100
AcDbLinetypeTableRecord
  2
CONTINUOUS
 70
     0
  3
Solid line
 72
    65
 73
     0
 40
0.0
  0
LTYPE
  5
6A
330
5
100
AcDbSymbolTableRecord
100
AcDbLinetypeTableRecord
  2
HIDDEN
 70
     0
  3
Hidden __ __ __ __ __ __ __ __ __ __ __ __ __ __
 72
    65
 73
     2
 40
1.905
 49
1.27
 74
     0
 49
-0.635
 74
     0
  0
LTYPE
  5
6B
330
5
100
AcDbSymbolTableRecord
100
AcDbLinetypeTableRecord
  2
PHANTOM
 70
     0
  3
Phantom ______  __  __  ______  __  __  ______
 72
    65
 73
     6
 40
12.7
 49
6.35
 74
     0
 49
-1.27
 74
     0
 49
1.27
 74
     0
 49
-1.27
 74
     0
 49
1.27
 74
     0
 49
-1.27
 74
     0
  0
LTYPE
  5
6C
330
5
100
AcDbSymbolTableRecord
100
AcDbLinetypeTableRecord
  2
CENTER
 70
     0
  3
Center ____ _ ____ _ ____ _ ____ _ ____ _ ____
 72
    65
 73
     4
 40
10.16
 49
6.35
 74
     0
 49
-1.27
 74
     0
 49
1.27
 74
     0
 49
-1.27
 74
     0
  0
LTYPE
  5
6D
330
5
100
AcDbSymbolTableRecord
100
AcDbLinetypeTableRecord
  2
CENTERX2
 70
     0
  3
Center (2x) ________  __  ________  __  _____
 72
    65
 73
     4
 40
20.32
 49
12.7
 74
     0
 49
-2.54
 74
     0
 49
2.54
 74
     0
 49
-2.54
 74
     0
  0
LTYPE
  5
6E
330
5
100
AcDbSymbolTableRecord
100
AcDbLinetypeTableRecord
  2
DOT2
 70
     0
  3
Dot (.5x) ........................................
 72
    65
 73
     2
 40
0.635
 49
0.0
 74
     0
 49
-0.635
 74
     0
  0
LTYPE
  5
3D1
330
5
100
AcDbSymbolTableRecord
100
AcDbLinetypeTableRecord
  2
DASH
 70
     0
  3
DASH _ _ _ _ _
 72
    65
 73
     2
 40
0.75
 49
0.4
 74
     0
 49
-0.35
 74
     0
  0
LTYPE
  5
3D2
330
5
100
AcDbSymbolTableRecord
100
AcDbLinetypeTableRecord
  2
LONGDASH_DASH
 70
     0
  3
LONGDASH_DASH __ . __ . __
 72
    65
 73
     4
 40
0.85
 49
0.4
 74
     0
 49
-0.2
 74
     0
 49
0.05
 74
     0
 49
-0.2
 74
     0
  0
LTYPE
  5
3D3
330
5
100
AcDbSymbolTableRecord
100
AcDbLinetypeTableRecord
  2
LONGDASH_DASH_DASH
 70
     0
  3
LONGDASH_DASH_DASH __ . . __ . . __
 72
    65
 73
     6
 40
1.1
 49
0.4
 74
     0
 49
-0.2
 74
     0
 49
0.05
 74
     0
 49
-0.2
 74
     0
 49
0.05
 74
     0
 49
-0.2
 74
     0
  0
ENDTAB
  0
TABLE
  2
LAYER
  5
2
102
{ACAD_XDICTIONARY
360
3F3
102
}
330
0
100
AcDbSymbolTable
 70
    16
  0
LAYER
  5
38E
330
2
100
AcDbSymbolTableRecord
100
AcDbLayerTableRecord
  2
200
 70
     0
 62
     2
  6
CONTINUOUS
370
    50
390
3E4
347
38C
348
0
  0
LAYER
  5
391
330
2
100
AcDbSymbolTableRecord
100
AcDbLayerTableRecord
  2
Defpoints
 70
     0
 62
     7
  6
CONTINUOUS
290
     0
370
    -3
390
3E4
347
38C
348
0
  0
LAYER
  5
3D4
330
2
100
AcDbSymbolTableRecord
100
AcDbLayerTableRecord
  2
0
 70
     0
 62
     1
  6
CONTINUOUS
370
    -3
390
3E4
347
38C
348
0
  0
LAYER
  5
3D5
330
2
100
AcDbSymbolTableRecord
100
AcDbLayerTableRecord
  2
1
 70
     0
 62
     4
  6
CONTINUOUS
370
    50
390
3E4
347
38C
348
0
  0
LAYER
  5
3D6
330
2
100
AcDbSymbolTableRecord
100
AcDbLayerTableRecord
  2
2
 70
     0
 62
     7
  6
CONTINUOUS
370
    25
390
3E4
347
38C
348
0
  0
LAYER
  5
3D7
330
2
100
AcDbSymbolTableRecord
100
AcDbLayerTableRecord
  2
3
 70
     0
 62
     1
  6
DASH
370
    35
390
3E4
347
38C
348
0
  0
LAYER
  5
3D8
330
2
100
AcDbSymbolTableRecord
100
AcDbLayerTableRecord
  2
4
 70
     0
 62
     2
  6
LONGDASH_DASH
370
    25
390
3E4
347
38C
348
0
  0
LAYER
  5
3D9
330
2
100
AcDbSymbolTableRecord
100
AcDbLayerTableRecord
  2
6
 70
     0
 62
     5
  6
CONTINUOUS
370
    -3
390
3E4
347
38C
348
0
  0
LAYER
  5
3DA
330
2
100
AcDbSymbolTableRecord
100
AcDbLayerTableRecord
  2
CUT
 70
     0
 62
     1
  6
CONTINUOUS
370
    25
390
3E4
347
38C
348
0
  0
LAYER
  5
3DB
330
2
100
AcDbSymbolTableRecord
100
AcDbLayerTableRecord
  2
NOCUT
 70
     0
 62
     7
  6
CONTINUOUS
370
    25
390
3E4
347
38C
348
0
  0
LAYER
  5
3DC
330
2
100
AcDbSymbolTableRecord
100
AcDbLayerTableRecord
  2
SK1
 70
     0
 62
     4
  6
CONTINUOUS
370
    50
390
3E4
347
38C
348
0
  0
LAYER
  5
3DD
330
2
100
AcDbSymbolTableRecord
100
AcDbLayerTableRecord
  2
SK2
 70
     0
 62
     7
  6
CONTINUOUS
370
    25
390
3E4
347
38C
348
0
  0
LAYER
  5
3DE
330
2
100
AcDbSymbolTableRecord
100
AcDbLayerTableRecord
  2
SK3
 70
     0
 62
     1
  6
DASH
370
    35
390
3E4
347
38C
348
0
  0
LAYER
  5
3DF
330
2
100
AcDbSymbolTableRecord
100
AcDbLayerTableRecord
  2
SK4
 70
     0
 62
     2
  6
LONGDASH_DASH
370
    25
390
3E4
347
38C
348
0
  0
LAYER
  5
3E0
330
2
100
AcDbSymbolTableRecord
100
AcDbLayerTableRecord
  2
SK6
 70
     0
 62
     5
  6
CONTINUOUS
370
    -3
390
3E4
347
38C
348
0
  0
LAYER
  5
3E1
330
2
100
AcDbSymbolTableRecord
100
AcDbLayerTableRecord
  2
INFTOTAL
 70
     0
 62
     9
  6
CONTINUOUS
370
    18
390
3E4
347
38C
348
0
  0
ENDTAB
  0
TABLE
  2
STYLE
  5
3
330
0
100
AcDbSymbolTable
 70
     4
  0
STYLE
  5
11
330
3
100
AcDbSymbolTableRecord
100
AcDbTextStyleTableRecord
  2
STANDARD
 70
     0
 40
0.0
 41
1.0
 50
0.0
 71
     0
 42
3.5
  3
txt
  4

  0
STYLE
  5
32F
330
3
100
AcDbSymbolTableRecord
100
AcDbTextStyleTableRecord
  2
SLDTEXTSTYLE0
 70
     0
 40
0.0
 41
0.605
 50
0.0
 71
     0
 42
3.5
  3
TXT
  4

  0
STYLE
  5
347
330
3
100
AcDbSymbolTableRecord
100
AcDbTextStyleTableRecord
  2
SLDTEXTSTYLE1
 70
     0
 40
0.0
 41
0.575
 50
0.0
 71
     0
 42
3.5
  3
TXT
  4

  0
STYLE
  5
38D
330
3
100
AcDbSymbolTableRecord
100
AcDbTextStyleTableRecord
  2
BMG_Text
 70
     0
 40
3.5
 41
1.0
 50
0.0
 71
     0
 42
3.5
  3
monos.ttf
  4

1001
ACAD
1000
Monospac821 BT
1071
       49
  0
ENDTAB
  0
TABLE
  2
VIEW
  5
6
330
0
100
AcDbSymbolTable
 70
     0
  0
ENDTAB
  0
TABLE
  2
UCS
  5
7
330
0
100
AcDbSymbolTable
 70
     0
  0
ENDTAB
  0
TABLE
  2
APPID
  5
9
330
0
100
AcDbSymbolTable
 70
     5
  0
APPID
  5
12
330
9
100
AcDbSymbolTableRecord
100
AcDbRegAppTableRecord
  2
ACAD
 70
     0
  0
APPID
  5
3A4
330
9
100
AcDbSymbolTableRecord
100
AcDbRegAppTableRecord
  2
ACAD_DSTYLE_DIM_LINETYPE
 70
     0
  0
APPID
  5
3A5
330
9
100
AcDbSymbolTableRecord
100
AcDbRegAppTableRecord
  2
ACAD_DSTYLE_DIM_EXT1_LINETYPE
 70
     0
  0
APPID
  5
3A6
330
9
100
AcDbSymbolTableRecord
100
AcDbRegAppTableRecord
  2
ACAD_DSTYLE_DIM_EXT2_LINETYPE
 70
     0
  0
APPID
  5
41F
330
9
100
AcDbSymbolTableRecord
100
AcDbRegAppTableRecord
  2
FX_DIMP_FAV_VERSION
 70
     0
  0
ENDTAB
  0
TABLE
  2
DIMSTYLE
  5
A
330
0
100
AcDbSymbolTable
 70
     4
100
AcDbDimStyleTable
  0
DIMSTYLE
105
27
330
A
100
AcDbSymbolTableRecord
100
AcDbDimStyleTableRecord
  2
ISO-25
 70
     0
 41
2.5
 42
0.625
 43
3.75
 44
1.25
 73
     0
 74
     0
 77
     1
 78
     8
140
2.5
141
2.5
143
0.0393700787
147
0.625
171
     3
172
     1
178
     0
271
     2
272
     2
274
     3
283
     0
284
     8
340
11
  0
DIMSTYLE
105
330
102
{ACAD_REACTORS
330
32E
102
}
330
A
100
AcDbSymbolTableRecord
100
AcDbDimStyleTableRecord
  2
SLDDIMSTYLE0
 70
     0
 41
3.5
 44
0.0
 45
0.000000001
 73
     0
 74
     0
 77
     1
 78
    12
140
3.5
147
0.875
173
     1
178
     0
271
     0
272
     3
284
    12
340
32F
  0
DIMSTYLE
105
33D
102
{ACAD_REACTORS
330
33C
102
}
330
A
100
AcDbSymbolTableRecord
100
AcDbDimStyleTableRecord
  2
SLDDIMSTYLE1
 70
     0
 41
3.5
 44
0.0
 45
0.000000001
 73
     0
 74
     0
 77
     1
 78
    12
140
3.5
147
0.875
173
     1
178
     0
271
     2
272
     3
284
    12
340
32F
  0
DIMSTYLE
105
34A
102
{ACAD_REACTORS
330
349
102
}
330
A
100
AcDbSymbolTableRecord
100
AcDbDimStyleTableRecord
  2
SLDDIMSTYLE2
 70
     0
 41
3.5
 44
0.0
 45
0.000000001
 73
     0
 74
     0
 77
     1
 78
    12
140
3.5
147
0.875
173
     1
178
     0
271
     2
272
     3
284
    12
340
32F
  0
ENDTAB
  0
TABLE
  2
BLOCK_RECORD
  5
1
330
0
100
AcDbSymbolTable
 70
     3
  0
BLOCK_RECORD
  5
1F
330
1
100
AcDbSymbolTableRecord
100
AcDbBlockTableRecord
  2
*MODEL_SPACE
340
376
 70
     0
280
     1
281
     0
  0
BLOCK_RECORD
  5
1B
330
1
100
AcDbSymbolTableRecord
100
AcDbBlockTableRecord
  2
*PAPER_SPACE
340
377
 70
     0
280
     1
281
     0
  0
BLOCK_RECORD
  5
331
330
1
100
AcDbSymbolTableRecord
100
AcDbBlockTableRecord
  2
_D
340
0
 70
     0
280
     1
281
     0
  0
BLOCK_RECORD
  5
33E
330
1
100
AcDbSymbolTableRecord
100
AcDbBlockTableRecord
  2
_D_1
340
0
 70
     0
280
     1
281
     0
  0
BLOCK_RECORD
  5
34B
330
1
100
AcDbSymbolTableRecord
100
AcDbBlockTableRecord
  2
_D_2
340
0
 70
     0
280
     1
281
     0
  0
ENDTAB
  0
ENDSEC
  0
SECTION
  2
BLOCKS
  0
BLOCK
  5
20
330
1F
100
AcDbEntity
  8
0
100
AcDbBlockBegin
  2
*MODEL_SPACE
 70
     0
 10
0.0
 20
0.0
 30
0.0
  3
*MODEL_SPACE
  1

  0
ENDBLK
  5
21
330
1F
100
AcDbEntity
  8
0
100
AcDbBlockEnd
  0
BLOCK
  5
1C
330
1B
100
AcDbEntity
 67
     1
  8
0
100
AcDbBlockBegin
  2
*PAPER_SPACE
 70
     0
 10
0.0
 20
0.0
 30
0.0
  3
*PAPER_SPACE
  1

  0
ENDBLK
  5
1D
330
1B
100
AcDbEntity
 67
     1
  8
0
100
AcDbBlockEnd
  0
BLOCK
  5
332
330
331
100
AcDbEntity
  8
0
100
AcDbBlockBegin
  2
_D
 70
     0
 10
0.0
 20
0.0
 30
0.0
  3
_D
  1
_D
  0
LINE
  5
334
330
331
100
AcDbEntity
  8
SK2
  6
ByBlock
370
    -2
100
AcDbLine
 10
55.05269209734914
 20
-26.5010903946
 30
0.0
 11
62.77204755204914
 21
-26.5010903946
 31
0.0
  0
LINE
  5
335
330
331
100
AcDbEntity
  8
SK2
  6
ByBlock
370
    -2
100
AcDbLine
 10
55.01510251284914
 20
26.5046552282
 30
0.0
 11
62.77204755204914
 21
26.5046552282
 31
0.0
  0
LINE
  5
336
330
331
100
AcDbEntity
  8
SK2
  6
ByBlock
370
    -2
100
AcDbLine
 10
62.77204755204914
 20
-23.0010903946
 30
0.0
 11
62.77204755204914
 21
23.0046552282
 31
0.0
  0
SOLID
  5
337
330
331
100
AcDbEntity
  8
SK2
100
AcDbTrace
 10
62.18871421871581
 20
-23.0010903946
 30
0.0
 11
63.35538088538248
 21
-23.0010903946
 31
0.0
 12
62.77204755204914
 22
-26.5010903946
 32
0.0
 13
62.77204755204914
 23
-26.5010903946
 33
0.0
  0
SOLID
  5
338
330
331
100
AcDbEntity
  8
SK2
100
AcDbTrace
 10
63.35538088538248
 20
23.0046552282
 30
0.0
 11
62.18871421871581
 21
23.0046552282
 31
0.0
 12
62.77204755204914
 22
26.5046552282
 32
0.0
 13
62.77204755204914
 23
26.5046552282
 33
0.0
  0
MTEXT
  5
339
330
331
100
AcDbEntity
  8
SK2
100
AcDbMText
 10
60.03504755204914
 20
0.0017824168
 30
0.0
 40
3.5
 41
0.0
 46
0.0
 71
     5
 72
     1
  1
\A1;%%c53 - 70
  7
BMG_Text
 11
0.0
 21
1.0
 31
0.0
 73
     1
 44
1.0
  0
POINT
  5
33A
330
331
100
AcDbEntity
  8
Defpoints
 62
     0
100
AcDbPoint
 10
54.99019209734914
 20
-26.5010903946
 30
0.0
  0
POINT
  5
33B
330
331
100
AcDbEntity
  8
Defpoints
 62
     0
100
AcDbPoint
 10
54.95260251284914
 20
26.5046552282
 30
0.0
  0
POINT
  5
392
330
331
100
AcDbEntity
  8
Defpoints
 62
     0
100
AcDbPoint
 10
62.77204755204914
 20
26.5046552282
 30
0.0
  0
ENDBLK
  5
333
330
331
100
AcDbEntity
  8
0
100
AcDbBlockEnd
  0
BLOCK
  5
33F
330
33E
100
AcDbEntity
  8
0
100
AcDbBlockBegin
  2
_D_1
 70
     0
 10
0.0
 20
0.0
 30
0.0
  3
_D_1
  1
_D_1
  0
LINE
  5
341
330
33E
100
AcDbEntity
  8
SK2
  6
ByBlock
370
    -2
100
AcDbLine
 10
42.21509844704914
 20
31.0000070796
 30
0.0
 11
72.03710055344915
 21
31.0000070796
 31
0.0
  0
LINE
  5
342
330
33E
100
AcDbEntity
  8
SK2
  6
ByBlock
370
    -2
100
AcDbLine
 10
42.21510381574915
 20
-31.0000070796
 30
0.0
 11
72.03710055344915
 21
-31.0000070796
 31
0.0
  0
LINE
  5
343
330
33E
100
AcDbEntity
  8
SK2
  6
ByBlock
370
    -2
100
AcDbLine
 10
72.03710055344915
 20
27.5000070796
 30
0.0
 11
72.03710055344915
 21
-27.5000070796
 31
0.0
  0
SOLID
  5
344
330
33E
100
AcDbEntity
  8
SK2
100
AcDbTrace
 10
72.62043388678248
 20
27.5000070796
 30
0.0
 11
71.45376722011582
 21
27.5000070796
 31
0.0
 12
72.03710055344915
 22
31.0000070796
 32
0.0
 13
72.03710055344915
 23
31.0000070796
 33
0.0
  0
SOLID
  5
345
330
33E
100
AcDbEntity
  8
SK2
100
AcDbTrace
 10
71.45376722011582
 20
-27.5000070796
 30
0.0
 11
72.62043388678248
 21
-27.5000070796
 31
0.0
 12
72.03710055344915
 22
-31.0000070796
 32
0.0
 13
72.03710055344915
 23
-31.0000070796
 33
0.0
  0
MTEXT
  5
346
330
33E
100
AcDbEntity
  8
SK2
100
AcDbMText
 10
69.30010055344916
 20
0.0
 30
0.0
 40
3.5
 41
0.0
 46
0.0
 71
     5
 72
     1
  1
\A1;%%c64 - 81
  7
BMG_Text
 11
0.0
 21
1.0
 31
0.0
 73
     1
 44
1.0
  0
POINT
  5
348
330
33E
100
AcDbEntity
  8
Defpoints
 62
     0
100
AcDbPoint
 10
42.15259844704914
 20
31.0000070796
 30
0.0
  0
POINT
  5
393
330
33E
100
AcDbEntity
  8
Defpoints
 62
     0
100
AcDbPoint
 10
42.15260381574915
 20
-31.0000070796
 30
0.0
  0
POINT
  5
394
330
33E
100
AcDbEntity
  8
Defpoints
 62
     0
100
AcDbPoint
 10
72.03710055344915
 20
-31.0000070796
 30
0.0
  0
ENDBLK
  5
340
330
33E
100
AcDbEntity
  8
0
100
AcDbBlockEnd
  0
BLOCK
  5
34C
330
34B
100
AcDbEntity
  8
0
100
AcDbBlockBegin
  2
_D_2
 70
     0
 10
0.0
 20
0.0
 30
0.0
  3
_D_2
  1
_D_2
  0
LINE
  5
34E
330
34B
100
AcDbEntity
  8
2
  6
ByBlock
370
    -2
100
AcDbLine
 10
55.15260275577459
 20
26.36715455809998
 30
0.0
 11
55.15259301538643
 21
38.64713001888833
 31
0.0
  0
LINE
  5
34F
330
34B
100
AcDbEntity
  8
2
  6
ByBlock
370
    -2
100
AcDbLine
 10
-3.397394550625408
 20
24.60667545089998
 30
0.0
 11
-3.397405687376109
 21
38.64708357745069
 31
0.0
  0
LINE
  5
350
330
34B
100
AcDbEntity
  8
2
  6
ByBlock
370
    -2
100
AcDbLine
 10
51.65259301538753
 20
38.64712724271352
 30
0.0
 11
0.1025943126227906
 21
38.6470863536255
 31
0.0
  0
SOLID
  5
351
330
34B
100
AcDbEntity
  8
2
100
AcDbTrace
 10
51.65259347808333
 20
38.06379390938037
 30
0.0
 11
51.65259255269173
 21
39.23046057604667
 31
0.0
 12
55.15259301538643
 22
38.64713001888833
 32
0.0
 13
55.15259301538643
 23
38.64713001888833
 33
0.0
  0
SOLID
  5
395
330
34B
100
AcDbEntity
  8
2
100
AcDbTrace
 10
0.1025938499269884
 20
39.23041968695865
 30
0.0
 11
0.1025947753185928
 21
38.06375302029235
 31
0.0
 12
-3.397405687376109
 22
38.64708357745069
 32
0.0
 13
-3.397405687376109
 23
38.64708357745069
 33
0.0
  0
MTEXT
  5
396
330
34B
100
AcDbEntity
  8
2
100
AcDbMText
 10
8.587130194134973
 20
41.33334308349916
 30
0.0
 40
3.5
 41
0.0
 46
0.0
 71
     5
 72
     1
  1
\A1;88
  7
BMG_Text
 11
0.9999999999996856
 21
7.931928037810980E-7
 31
0.0
 73
     1
 44
1.0
  0
POINT
  5
397
330
34B
100
AcDbEntity
  8
Defpoints
 62
     0
100
AcDbPoint
 10
55.15260280534915
 20
26.3046545581
 30
0.0
  0
POINT
  5
398
330
34B
100
AcDbEntity
  8
Defpoints
 62
     0
100
AcDbPoint
 10
-3.397394501050858
 20
24.5441754509
 30
0.0
  0
POINT
  5
399
330
34B
100
AcDbEntity
  8
Defpoints
 62
     0
100
AcDbPoint
 10
-3.397405687376097
 20
38.64708357745069
 30
0.0
  0
ENDBLK
  5
34D
330
34B
100
AcDbEntity
  8
0
100
AcDbBlockEnd
  0
ENDSEC
  0
SECTION
  2
ENTITIES
  0
LINE
  5
75
330
1F
100
AcDbEntity
  8
1
100
AcDbLine
 10
9.994016074549142
 20
-28.8643239572
 30
0.0
 11
10.25146716184914
 21
-29.0617047383
 31
0.0
  0
LINE
  5
76
330
1F
100
AcDbEntity
  8
1
100
AcDbLine
 10
14.55374532284914
 20
-29.0617047383
 30
0.0
 11
14.81119268484914
 21
-28.8643239572
 31
0.0
  0
LINE
  5
77
330
1F
100
AcDbEntity
  8
SK4
100
AcDbLine
 10
-5.130424821650858
 20
0.0
 30
0.0
 11
33.28657620494914
 21
0.0
 31
0.0
  0
LINE
  5
78
330
1F
100
AcDbEntity
  8
1
100
AcDbLine
 10
9.102606253249142
 20
17.999991991
 30
0.0
 11
-0.426274795550858
 21
17.9999927867
 31
0.0
  0
LINE
  5
79
330
1F
100
AcDbEntity
  8
1
100
AcDbLine
 10
9.602603541249142
 20
17.4999928403
 30
0.0
 11
9.350814895249142
 21
17.7517833489
 31
0.0
  0
LINE
  5
7A
330
1F
100
AcDbEntity
  8
1
100
AcDbLine
 10
9.350814895249142
 20
17.7517833489
 30
0.0
 11
9.102606253249142
 21
17.999991991
 31
0.0
  0
LINE
  5
7B
330
1F
100
AcDbEntity
  8
1
100
AcDbLine
 10
9.602603541249142
 20
11.8315315175
 30
0.0
 11
9.602603541249142
 21
17.4999928403
 31
0.0
  0
LINE
  5
7C
330
1F
100
AcDbEntity
  8
1
100
AcDbLine
 10
10.84819023234914
 20
8.5293532399
 30
0.0
 11
-0.1653436877508579
 21
8.5293532399
 31
0.0
  0
LINE
  5
7D
330
1F
100
AcDbEntity
  8
1
100
AcDbLine
 10
42.15260381574915
 20
-17.8127005672
 30
0.0
 11
41.03028560744914
 21
-16.8709602182
 31
0.0
  0
LINE
  5
7E
330
1F
100
AcDbEntity
  8
1
100
AcDbLine
 10
41.03028560744914
 20
-16.8709602182
 30
0.0
 11
39.89071185464914
 21
-15.9147452538
 31
0.0
  0
LINE
  5
7F
330
1F
100
AcDbEntity
  8
1
100
AcDbLine
 10
39.89071185464914
 20
-15.9147452538
 30
0.0
 11
38.73669887654914
 21
-14.9464165767
 31
0.0
  0
LINE
  5
80
330
1F
100
AcDbEntity
  8
1
100
AcDbLine
 10
38.73669887654914
 20
-14.9464165767
 30
0.0
 11
37.57110024564915
 21
-13.9683583727
 31
0.0
  0
LINE
  5
81
330
1F
100
AcDbEntity
  8
1
100
AcDbLine
 10
37.57110024564915
 20
-13.9683583727
 30
0.0
 11
36.39676953424915
 21
-12.9829827671
 31
0.0
  0
LINE
  5
82
330
1F
100
AcDbEntity
  8
1
100
AcDbLine
 10
36.39676953424915
 20
-12.9829827671
 30
0.0
 11
35.21661991944914
 21
-11.9927186494
 31
0.0
  0
LINE
  5
83
330
1F
100
AcDbEntity
  8
1
100
AcDbLine
 10
35.21661991944914
 20
-11.9927186494
 30
0.0
 11
34.03355712764915
 21
-11.000007016
 31
0.0
  0
LINE
  5
84
330
1F
100
AcDbEntity
  8
1
100
AcDbLine
 10
42.15260381574915
 20
-31.0000070796
 30
0.0
 11
42.15260381574915
 21
-17.8127005672
 31
0.0
  0
LINE
  5
85
330
1F
100
AcDbEntity
  8
1
100
AcDbLine
 10
5.152607146449142
 20
-31.0000070796
 30
0.0
 11
42.15260381574915
 21
-31.0000070796
 31
0.0
  0
LINE
  5
86
330
1F
100
AcDbEntity
  8
1
100
AcDbLine
 10
5.152607146449142
 20
-31.0000070796
 30
0.0
 11
5.152607146449142
 21
-10.6484816835
 31
0.0
  0
LINE
  5
87
330
1F
100
AcDbEntity
  8
1
100
AcDbLine
 10
7.902605268949142
 20
-13.0814995111
 30
0.0
 11
7.991062287049142
 21
-12.0435852052
 31
0.0
  0
LINE
  5
88
330
1F
100
AcDbEntity
  8
1
100
AcDbLine
 10
7.991062287049142
 20
-12.0435852052
 30
0.0
 11
8.280610475549143
 21
-11.0000075267
 31
0.0
  0
LINE
  5
89
330
1F
100
AcDbEntity
  8
1
100
AcDbLine
 10
7.902605268949142
 20
-13.0814995111
 30
0.0
 11
7.902605268949142
 21
-17.9866050796
 31
0.0
  0
LINE
  5
8A
330
1F
100
AcDbEntity
  8
1
100
AcDbLine
 10
16.90260479914914
 20
-17.9866050796
 30
0.0
 11
7.902605268949142
 21
-17.9866050796
 31
0.0
  0
LINE
  5
8B
330
1F
100
AcDbEntity
  8
1
100
AcDbLine
 10
16.90260479914914
 20
-13.0814990004
 30
0.0
 11
16.90260479914914
 21
-17.9866050796
 31
0.0
  0
LINE
  5
8C
330
1F
100
AcDbEntity
  8
1
100
AcDbLine
 10
16.52459959264914
 20
-11.000007016
 30
0.0
 11
16.80714423524914
 21
-12.0042502855
 31
0.0
  0
LINE
  5
8D
330
1F
100
AcDbEntity
  8
1
100
AcDbLine
 10
16.80714423524914
 20
-12.0042502855
 30
0.0
 11
16.90260479914914
 21
-13.0814990004
 31
0.0
  0
LINE
  5
8E
330
1F
100
AcDbEntity
  8
1
100
AcDbLine
 10
15.65250479524914
 20
-28.8201382889
 30
0.0
 11
15.60245179474914
 21
-29.0592479094
 31
0.0
  0
LINE
  5
8F
330
1F
100
AcDbEntity
  8
1
100
AcDbLine
 10
15.60245179474914
 20
-29.0592479094
 30
0.0
 11
15.46363630244914
 21
-29.2789431795
 31
0.0
  0
LINE
  5
90
330
1F
100
AcDbEntity
  8
1
100
AcDbLine
 10
15.46363630244914
 20
-29.2789431795
 30
0.0
 11
15.23909070434914
 21
-29.4740943744
 31
0.0
  0
LINE
  5
91
330
1F
100
AcDbEntity
  8
1
100
AcDbLine
 10
15.23909070434914
 20
-29.4740943744
 30
0.0
 11
14.93636616414914
 21
-29.6423340722
 31
0.0
  0
LINE
  5
92
330
1F
100
AcDbEntity
  8
1
100
AcDbLine
 10
14.93636616414914
 20
-29.6423340722
 30
0.0
 11
14.55961265504914
 21
-29.7826527192
 31
0.0
  0
LINE
  5
93
330
1F
100
AcDbEntity
  8
1
100
AcDbLine
 10
14.55961265504914
 20
-29.7826527192
 30
0.0
 11
14.12227102464914
 21
-29.8934484406
 31
0.0
  0
LINE
  5
94
330
1F
100
AcDbEntity
  8
1
100
AcDbLine
 10
14.12227102464914
 20
-29.8934484406
 30
0.0
 11
13.63274552764914
 21
-29.974844171
 31
0.0
  0
LINE
  5
95
330
1F
100
AcDbEntity
  8
1
100
AcDbLine
 10
13.63274552764914
 20
-29.974844171
 30
0.0
 11
13.10772919004914
 21
-30.0268510862
 31
0.0
  0
LINE
  5
96
330
1F
100
AcDbEntity
  8
1
100
AcDbLine
 10
13.10772919004914
 20
-30.0268510862
 30
0.0
 11
12.56676860994914
 21
-30.0495306536
 31
0.0
  0
LINE
  5
97
330
1F
100
AcDbEntity
  8
1
100
AcDbLine
 10
12.56676860994914
 20
-30.0495306536
 30
0.0
 11
12.02109926284914
 21
-30.0439259543
 31
0.0
  0
LINE
  5
98
330
1F
100
AcDbEntity
  8
1
100
AcDbLine
 10
12.02109926284914
 20
-30.0439259543
 30
0.0
 11
11.49150454344914
 21
-30.0102083518
 31
0.0
  0
LINE
  5
99
330
1F
100
AcDbEntity
  8
1
100
AcDbLine
 10
11.49150454344914
 20
-30.0102083518
 30
0.0
 11
10.98738335914914
 21
-29.9484057858
 31
0.0
  0
LINE
  5
9A
330
1F
100
AcDbEntity
  8
1
100
AcDbLine
 10
10.98738335914914
 20
-29.9484057858
 30
0.0
 11
10.52091368384914
 21
-29.8573243006
 31
0.0
  0
LINE
  5
9B
330
1F
100
AcDbEntity
  8
1
100
AcDbLine
 10
10.52091368384914
 20
-29.8573243006
 30
0.0
 11
10.10668747964914
 21
-29.7371855511
 31
0.0
  0
LINE
  5
9C
330
1F
100
AcDbEntity
  8
1
100
AcDbLine
 10
10.10668747964914
 20
-29.7371855511
 30
0.0
 11
9.753060572749142
 21
-29.5857860281
 31
0.0
  0
LINE
  5
9D
330
1F
100
AcDbEntity
  8
1
100
AcDbLine
 10
9.753060572749142
 20
-29.5857860281
 30
0.0
 11
9.474114560549141
 21
-29.4056645169
 31
0.0
  0
LINE
  5
9E
330
1F
100
AcDbEntity
  8
1
100
AcDbLine
 10
9.474114560549141
 20
-29.4056645169
 30
0.0
 11
9.278950327049142
 21
-29.1983744635
 31
0.0
  0
LINE
  5
9F
330
1F
100
AcDbEntity
  8
1
100
AcDbLine
 10
9.278950327049142
 20
-29.1983744635
 30
0.0
 11
9.172269188849143
 21
-28.968125446
 31
0.0
  0
LINE
  5
A0
330
1F
100
AcDbEntity
  8
1
100
AcDbLine
 10
9.172269188849143
 20
-28.968125446
 30
0.0
 11
9.158295624949142
 21
-28.7227424367
 31
0.0
  0
LINE
  5
A1
330
1F
100
AcDbEntity
  8
1
100
AcDbLine
 10
9.158295624949142
 20
-28.7227424367
 30
0.0
 11
9.234425657449142
 21
-28.4669751807
 31
0.0
  0
LINE
  5
A2
330
1F
100
AcDbEntity
  8
1
100
AcDbLine
 10
9.234425657449142
 20
-28.4669751807
 30
0.0
 11
9.398520969849143
 21
-28.2101182773
 31
0.0
  0
LINE
  5
A3
330
1F
100
AcDbEntity
  8
1
100
AcDbLine
 10
9.398520969849143
 20
-28.2101182773
 30
0.0
 11
9.644751482649141
 21
-27.9598979785
 31
0.0
  0
LINE
  5
A4
330
1F
100
AcDbEntity
  8
1
100
AcDbLine
 10
9.644751482649141
 20
-27.9598979785
 30
0.0
 11
9.970408909949143
 21
-27.7237779035
 31
0.0
  0
LINE
  5
A5
330
1F
100
AcDbEntity
  8
1
100
AcDbLine
 10
9.970408909949143
 20
-27.7237779035
 30
0.0
 11
10.36364682854914
 21
-27.5133567437
 31
0.0
  0
LINE
  5
A6
330
1F
100
AcDbEntity
  8
1
100
AcDbLine
 10
10.36364682854914
 20
-27.5133567437
 30
0.0
 11
10.81918650214914
 21
-27.3366028949
 31
0.0
  0
LINE
  5
A7
330
1F
100
AcDbEntity
  8
1
100
AcDbLine
 10
10.81918650214914
 20
-27.3366028949
 30
0.0
 11
11.32013373914914
 21
-27.2033101453
 31
0.0
  0
LINE
  5
A8
330
1F
100
AcDbEntity
  8
1
100
AcDbLine
 10
11.32013373914914
 20
-27.2033101453
 30
0.0
 11
11.85041018674914
 21
-27.1210575982
 31
0.0
  0
LINE
  5
A9
330
1F
100
AcDbEntity
  8
1
100
AcDbLine
 10
11.85041018674914
 20
-27.1210575982
 30
0.0
 11
12.39663460204914
 21
-27.0924157037
 31
0.0
  0
LINE
  5
AA
330
1F
100
AcDbEntity
  8
1
100
AcDbLine
 10
12.39663460204914
 20
-27.0924157037
 30
0.0
 11
12.93652229854914
 21
-27.1191875025
 31
0.0
  0
LINE
  5
AB
330
1F
100
AcDbEntity
  8
1
100
AcDbLine
 10
12.93652229854914
 20
-27.1191875025
 30
0.0
 11
13.46135609694914
 21
-27.1983983501
 31
0.0
  0
LINE
  5
AC
330
1F
100
AcDbEntity
  8
1
100
AcDbLine
 10
13.46135609694914
 20
-27.1983983501
 30
0.0
 11
13.95575799884914
 21
-27.3268593981
 31
0.0
  0
LINE
  5
AD
330
1F
100
AcDbEntity
  8
1
100
AcDbLine
 10
13.95575799884914
 20
-27.3268593981
 30
0.0
 11
14.40709927024914
 21
-27.4977626785
 31
0.0
  0
LINE
  5
AE
330
1F
100
AcDbEntity
  8
1
100
AcDbLine
 10
14.40709927024914
 20
-27.4977626785
 30
0.0
 11
14.80681174344914
 21
-27.7065577491
 31
0.0
  0
LINE
  5
AF
330
1F
100
AcDbEntity
  8
1
100
AcDbLine
 10
14.80681174344914
 20
-27.7065577491
 30
0.0
 11
15.13919331974914
 21
-27.9419718816
 31
0.0
  0
LINE
  5
B0
330
1F
100
AcDbEntity
  8
1
100
AcDbLine
 10
15.13919331974914
 20
-27.9419718816
 30
0.0
 11
15.39525487364914
 21
-28.1961577519
 31
0.0
  0
LINE
  5
B1
330
1F
100
AcDbEntity
  8
1
100
AcDbLine
 10
15.39525487364914
 20
-28.1961577519
 30
0.0
 11
15.56640216054914
 21
-28.4577569499
 31
0.0
  0
LINE
  5
B2
330
1F
100
AcDbEntity
  8
1
100
AcDbLine
 10
15.56640216054914
 20
-28.4577569499
 30
0.0
 11
15.65250479524914
 21
-28.8201382889
 31
0.0
  0
LINE
  5
B3
330
1F
100
AcDbEntity
  8
1
100
AcDbLine
 10
-0.1653437357508579
 20
6.0499918697
 30
0.0
 11
-0.1653436877508579
 21
8.5293532399
 31
0.0
  0
LINE
  5
B5
330
1F
100
AcDbEntity
  8
1
100
AcDbLine
 10
4.568399671249142
 20
-8.6158981041
 30
0.0
 11
4.720074865749142
 21
-8.7879264222
 31
0.0
  0
LINE
  5
B6
330
1F
100
AcDbEntity
  8
1
100
AcDbLine
 10
4.720074865749142
 20
-8.7879264222
 30
0.0
 11
4.873154494749142
 21
-9.0754452587
 31
0.0
  0
LINE
  5
B7
330
1F
100
AcDbEntity
  8
1
100
AcDbLine
 10
4.873154494749142
 20
-9.0754452587
 30
0.0
 11
4.980673823349142
 21
-9.3844152481
 31
0.0
  0
LINE
  5
B8
330
1F
100
AcDbEntity
  8
1
100
AcDbLine
 10
4.980673823349142
 20
-9.3844152481
 30
0.0
 11
5.111420336949142
 21
-10.010032119
 31
0.0
  0
LINE
  5
B9
330
1F
100
AcDbEntity
  8
1
100
AcDbLine
 10
5.111420336949142
 20
-10.010032119
 30
0.0
 11
5.152607146449142
 21
-10.6484816835
 31
0.0
  0
LINE
  5
BA
330
1F
100
AcDbEntity
  8
1
100
AcDbLine
 10
-0.1653437357508579
 20
-8.5293676783
 30
0.0
 11
4.352604070649142
 21
-8.5293676783
 31
0.0
  0
LINE
  5
BB
330
1F
100
AcDbEntity
  8
1
100
AcDbLine
 10
-0.1653437357508579
 20
-8.5293676783
 30
0.0
 11
-0.1653437357508579
 21
6.0499918697
 31
0.0
  0
LINE
  5
BC
330
1F
100
AcDbEntity
  8
1
100
AcDbLine
 10
34.03355712764915
 20
-11.000007016
 30
0.0
 11
10.84819023234914
 21
8.5293532399
 31
0.0
  0
LINE
  5
BD
330
1F
100
AcDbEntity
  8
1
100
AcDbLine
 10
0.1905793640491421
 20
-24.9998071395
 30
0.0
 11
4.352604070649142
 21
-24.9998071395
 31
0.0
  0
LINE
  5
BE
330
1F
100
AcDbEntity
  8
1
100
AcDbLine
 10
-0.0493186549508579
 20
-24.3723000146
 30
0.0
 11
0.0800276631491421
 21
-24.3475454434
 31
0.0
  0
LINE
  5
BF
330
1F
100
AcDbEntity
  8
1
100
AcDbLine
 10
0.0800276631491421
 20
-24.3475454434
 30
0.0
 11
0.1658993298491421
 21
-24.3138967588
 31
0.0
  0
LINE
  5
C0
330
1F
100
AcDbEntity
  8
1
100
AcDbLine
 10
0.1658993298491421
 20
-24.3138967588
 30
0.0
 11
0.2003396386491421
 21
-24.2738852783
 31
0.0
  0
LINE
  5
C1
330
1F
100
AcDbEntity
  8
1
100
AcDbLine
 10
0.2003396386491421
 20
-24.2738852783
 30
0.0
 11
0.1771571571491421
 21
-24.2313555016
 31
0.0
  0
LINE
  5
C2
330
1F
100
AcDbEntity
  8
1
100
AcDbLine
 10
0.1771571571491421
 20
-24.2313555016
 30
0.0
 11
0.0965903038491421
 21
-24.1917873307
 31
0.0
  0
LINE
  5
C3
330
1F
100
AcDbEntity
  8
1
100
AcDbLine
 10
0.0965903038491421
 20
-24.1917873307
 30
0.0
 11
-0.0312281315508579
 21
-24.1610760375
 31
0.0
  0
LINE
  5
C4
330
1F
100
AcDbEntity
  8
1
100
AcDbLine
 10
-0.0312281315508579
 20
-24.1610760375
 30
0.0
 11
-0.0493181412508579
 21
-24.1581609978
 31
0.0
  0
LINE
  5
C5
330
1F
100
AcDbEntity
  8
1
100
AcDbLine
 10
-0.0493188734508579
 20
-22.1631470237
 30
0.0
 11
-0.0133953854508579
 21
-22.1512157769
 31
0.0
  0
LINE
  5
C6
330
1F
100
AcDbEntity
  8
1
100
AcDbLine
 10
-0.0133953854508579
 20
-22.1512157769
 30
0.0
 11
0.0958934560491421
 21
-22.0965434165
 31
0.0
  0
LINE
  5
C7
330
1F
100
AcDbEntity
  8
1
100
AcDbLine
 10
0.0958934560491421
 20
-22.0965434165
 30
0.0
 11
0.1726567879491421
 21
-22.021216184
 31
0.0
  0
LINE
  5
C8
330
1F
100
AcDbEntity
  8
1
100
AcDbLine
 10
0.1726567879491421
 20
-22.021216184
 30
0.0
 11
0.2006299927491421
 21
-21.9278529585
 31
0.0
  0
LINE
  5
C9
330
1F
100
AcDbEntity
  8
1
100
AcDbLine
 10
0.2006299927491421
 20
-21.9278529585
 30
0.0
 11
0.1625873282491421
 21
-21.8258917631
 31
0.0
  0
LINE
  5
CA
330
1F
100
AcDbEntity
  8
1
100
AcDbLine
 10
0.1625873282491421
 20
-21.8258917631
 30
0.0
 11
0.0536784663491421
 21
-21.7342198194
 31
0.0
  0
LINE
  5
CB
330
1F
100
AcDbEntity
  8
1
100
AcDbLine
 10
0.0536784663491421
 20
-21.7342198194
 30
0.0
 11
-0.0493183597508579
 21
-21.689179197
 31
0.0
  0
LINE
  5
CC
330
1F
100
AcDbEntity
  8
1
100
AcDbLine
 10
4.352604070649142
 20
-24.9998071395
 30
0.0
 11
4.561969110749142
 21
-25.0277859323
 31
0.0
  0
LINE
  5
CD
330
1F
100
AcDbEntity
  8
1
100
AcDbLine
 10
4.561969110749142
 20
-25.0277859323
 30
0.0
 11
4.728713104449142
 21
-25.0962269657
 31
0.0
  0
LINE
  5
CE
330
1F
100
AcDbEntity
  8
1
100
AcDbLine
 10
-3.347394017950858
 20
-12.3783664478
 30
0.0
 11
-3.297395034250858
 21
-12.4285926742
 31
0.0
  0
LINE
  5
CF
330
1F
100
AcDbEntity
  8
1
100
AcDbLine
 10
-3.297394873250858
 20
12.4285781295
 30
0.0
 11
-3.347394017950858
 21
12.3783519792
 31
0.0
  0
LINE
  5
D0
330
1F
100
AcDbEntity
  8
1
100
AcDbLine
 10
12.40260624234914
 20
-11.4397032692
 30
0.0
 11
12.88971030064914
 21
-11.4700522779
 31
0.0
  0
LINE
  5
D1
330
1F
100
AcDbEntity
  8
1
100
AcDbLine
 10
12.88971030064914
 20
-11.4700522779
 30
0.0
 11
13.36733722034914
 21
-11.5605088457
 31
0.0
  0
LINE
  5
D2
330
1F
100
AcDbEntity
  8
1
100
AcDbLine
 10
13.36733722034914
 20
-11.5605088457
 30
0.0
 11
13.82618495174914
 21
-11.709313704
 31
0.0
  0
LINE
  5
D3
330
1F
100
AcDbEntity
  8
1
100
AcDbLine
 10
13.82618495174914
 20
-11.709313704
 30
0.0
 11
14.25732397384914
 21
-11.9135685771
 31
0.0
  0
LINE
  5
D4
330
1F
100
AcDbEntity
  8
1
100
AcDbLine
 10
14.25732397384914
 20
-11.9135685771
 30
0.0
 11
14.65236120764914
 21
-12.1692985802
 31
0.0
  0
LINE
  5
D5
330
1F
100
AcDbEntity
  8
1
100
AcDbLine
 10
14.65236120764914
 20
-12.1692985802
 30
0.0
 11
15.00361137934914
 21
-12.4715267255
 31
0.0
  0
LINE
  5
D6
330
1F
100
AcDbEntity
  8
1
100
AcDbLine
 10
15.00361137934914
 20
-12.4715267255
 30
0.0
 11
15.30423485584914
 21
-12.8143698483
 31
0.0
  0
LINE
  5
D7
330
1F
100
AcDbEntity
  8
1
100
AcDbLine
 10
15.30423485584914
 20
-12.8143698483
 30
0.0
 11
15.54838293144914
 21
-13.1911550223
 31
0.0
  0
LINE
  5
D8
330
1F
100
AcDbEntity
  8
1
100
AcDbLine
 10
15.54838293144914
 20
-13.1911550223
 30
0.0
 11
15.73130213564914
 21
-13.5945490136
 31
0.0
  0
LINE
  5
D9
330
1F
100
AcDbEntity
  8
1
100
AcDbLine
 10
15.73130213564914
 20
-13.5945490136
 30
0.0
 11
15.84943109104914
 21
-14.0166998415
 31
0.0
  0
LINE
  5
DA
330
1F
100
AcDbEntity
  8
1
100
AcDbLine
 10
15.84943109104914
 20
-14.0166998415
 30
0.0
 11
15.90047129334914
 21
-14.4493913784
 31
0.0
  0
LINE
  5
DB
330
1F
100
AcDbEntity
  8
1
100
AcDbLine
 10
15.90047129334914
 20
-14.4493913784
 30
0.0
 11
15.88343181554914
 21
-14.8841998114
 31
0.0
  0
LINE
  5
DC
330
1F
100
AcDbEntity
  8
1
100
AcDbLine
 10
15.88343181554914
 20
-14.8841998114
 30
0.0
 11
15.79864048304914
 21
-15.3126650064
 31
0.0
  0
LINE
  5
DD
330
1F
100
AcDbEntity
  8
1
100
AcDbLine
 10
15.79864048304914
 20
-15.3126650064
 30
0.0
 11
15.64774759954914
 21
-15.7264451071
 31
0.0
  0
LINE
  5
DE
330
1F
100
AcDbEntity
  8
1
100
AcDbLine
 10
15.64774759954914
 20
-15.7264451071
 30
0.0
 11
15.43369241894914
 21
-16.1174869671
 31
0.0
  0
LINE
  5
DF
330
1F
100
AcDbEntity
  8
1
100
AcDbLine
 10
15.43369241894914
 20
-16.1174869671
 30
0.0
 11
15.16064354124914
 21
-16.4781807496
 31
0.0
  0
LINE
  5
E0
330
1F
100
AcDbEntity
  8
1
100
AcDbLine
 10
15.16064354124914
 20
-16.4781807496
 30
0.0
 11
14.83390950504914
 21
-16.8015042826
 31
0.0
  0
LINE
  5
E1
330
1F
100
AcDbEntity
  8
1
100
AcDbLine
 10
14.83390950504914
 20
-16.8015042826
 30
0.0
 11
14.45985310614914
 21
-17.0811636879
 31
0.0
  0
LINE
  5
E2
330
1F
100
AcDbEntity
  8
1
100
AcDbLine
 10
14.45985310614914
 20
-17.0811636879
 30
0.0
 11
14.04575728714914
 21
-17.3117181792
 31
0.0
  0
LINE
  5
E3
330
1F
100
AcDbEntity
  8
1
100
AcDbLine
 10
14.04575728714914
 20
-17.3117181792
 30
0.0
 11
13.59967612564914
 21
-17.4886787816
 31
0.0
  0
LINE
  5
E4
330
1F
100
AcDbEntity
  8
1
100
AcDbLine
 10
13.59967612564914
 20
-17.4886787816
 30
0.0
 11
13.13029699864914
 21
-17.6086014642
 31
0.0
  0
LINE
  5
E5
330
1F
100
AcDbEntity
  8
1
100
AcDbLine
 10
13.13029699864914
 20
-17.6086014642
 30
0.0
 11
12.64675431794914
 21
-17.6691523327
 31
0.0
  0
LINE
  5
E6
330
1F
100
AcDbEntity
  8
1
100
AcDbLine
 10
12.64675431794914
 20
-17.6691523327
 30
0.0
 11
12.15845816674914
 21
-17.6691523327
 31
0.0
  0
LINE
  5
E7
330
1F
100
AcDbEntity
  8
1
100
AcDbLine
 10
12.15845816674914
 20
-17.6691523327
 30
0.0
 11
11.67491548604914
 21
-17.6086014642
 31
0.0
  0
LINE
  5
E8
330
1F
100
AcDbEntity
  8
1
100
AcDbLine
 10
11.67491548604914
 20
-17.6086014642
 30
0.0
 11
11.20553635904914
 21
-17.4886787816
 31
0.0
  0
LINE
  5
E9
330
1F
100
AcDbEntity
  8
1
100
AcDbLine
 10
11.20553635904914
 20
-17.4886787816
 30
0.0
 11
10.75945519754914
 21
-17.3117181792
 31
0.0
  0
LINE
  5
EA
330
1F
100
AcDbEntity
  8
1
100
AcDbLine
 10
10.75945519754914
 20
-17.3117181792
 30
0.0
 11
10.34535565324914
 21
-17.0811636879
 31
0.0
  0
LINE
  5
EB
330
1F
100
AcDbEntity
  8
1
100
AcDbLine
 10
10.34535565324914
 20
-17.0811636879
 30
0.0
 11
9.971299254349143
 21
-16.8015042826
 31
0.0
  0
LINE
  5
EC
330
1F
100
AcDbEntity
  8
1
100
AcDbLine
 10
9.971299254349143
 20
-16.8015042826
 30
0.0
 11
9.644568943449142
 21
-16.4781807496
 31
0.0
  0
LINE
  5
ED
330
1F
100
AcDbEntity
  8
1
100
AcDbLine
 10
9.644568943449142
 20
-16.4781807496
 30
0.0
 11
9.371516340449142
 21
-16.1174869671
 31
0.0
  0
LINE
  5
EE
330
1F
100
AcDbEntity
  8
1
100
AcDbLine
 10
9.371516340449142
 20
-16.1174869671
 30
0.0
 11
9.157461159849142
 21
-15.7264451071
 31
0.0
  0
LINE
  5
EF
330
1F
100
AcDbEntity
  8
1
100
AcDbLine
 10
9.157461159849142
 20
-15.7264451071
 30
0.0
 11
9.006568276349142
 21
-15.3126650064
 31
0.0
  0
LINE
  5
F0
330
1F
100
AcDbEntity
  8
1
100
AcDbLine
 10
9.006568276349142
 20
-15.3126650064
 30
0.0
 11
8.921776943849142
 21
-14.8841998114
 31
0.0
  0
LINE
  5
F1
330
1F
100
AcDbEntity
  8
1
100
AcDbLine
 10
8.921776943849142
 20
-14.8841998114
 30
0.0
 11
8.904737466049141
 21
-14.4493913784
 31
0.0
  0
LINE
  5
F2
330
1F
100
AcDbEntity
  8
1
100
AcDbLine
 10
8.904737466049141
 20
-14.4493913784
 30
0.0
 11
8.955777668449143
 21
-14.0166998415
 31
0.0
  0
LINE
  5
F3
330
1F
100
AcDbEntity
  8
1
100
AcDbLine
 10
8.955777668449143
 20
-14.0166998415
 30
0.0
 11
9.073906623749142
 21
-13.5945490136
 31
0.0
  0
LINE
  5
F4
330
1F
100
AcDbEntity
  8
1
100
AcDbLine
 10
9.073906623749142
 20
-13.5945490136
 30
0.0
 11
9.256825828049141
 21
-13.1911550223
 31
0.0
  0
LINE
  5
F5
330
1F
100
AcDbEntity
  8
1
100
AcDbLine
 10
9.256825828049141
 20
-13.1911550223
 30
0.0
 11
9.500973903549141
 21
-12.8143698483
 31
0.0
  0
LINE
  5
F6
330
1F
100
AcDbEntity
  8
1
100
AcDbLine
 10
9.500973903549141
 20
-12.8143698483
 30
0.0
 11
9.801597380049142
 21
-12.4715267255
 31
0.0
  0
LINE
  5
F7
330
1F
100
AcDbEntity
  8
1
100
AcDbLine
 10
9.801597380049142
 20
-12.4715267255
 30
0.0
 11
10.15284755174914
 21
-12.1692985802
 31
0.0
  0
LINE
  5
F8
330
1F
100
AcDbEntity
  8
1
100
AcDbLine
 10
10.15284755174914
 20
-12.1692985802
 30
0.0
 11
10.54788851084914
 21
-11.9135685771
 31
0.0
  0
LINE
  5
F9
330
1F
100
AcDbEntity
  8
1
100
AcDbLine
 10
10.54788851084914
 20
-11.9135685771
 30
0.0
 11
10.97902753294914
 21
-11.709313704
 31
0.0
  0
LINE
  5
FA
330
1F
100
AcDbEntity
  8
1
100
AcDbLine
 10
10.97902753294914
 20
-11.709313704
 30
0.0
 11
11.43787526434914
 21
-11.5605088457
 31
0.0
  0
LINE
  5
FB
330
1F
100
AcDbEntity
  8
1
100
AcDbLine
 10
11.43787526434914
 20
-11.5605088457
 30
0.0
 11
11.91549845874914
 21
-11.4700522779
 31
0.0
  0
LINE
  5
FC
330
1F
100
AcDbEntity
  8
1
100
AcDbLine
 10
11.91549845874914
 20
-11.4700522779
 30
0.0
 11
12.40260624234914
 21
-11.4397032692
 31
0.0
  0
LINE
  5
FD
330
1F
100
AcDbEntity
  8
1
100
AcDbLine
 10
-3.347394017950858
 20
12.3783519792
 30
0.0
 11
-3.377194477750858
 21
12.3508844825
 31
0.0
  0
LINE
  5
FE
330
1F
100
AcDbEntity
  8
1
100
AcDbLine
 10
-3.377194477750858
 20
12.3508844825
 30
0.0
 11
-3.436603544750858
 21
12.3134518342
 31
0.0
  0
LINE
  5
FF
330
1F
100
AcDbEntity
  8
1
100
AcDbLine
 10
-3.436603544750858
 20
12.3134518342
 30
0.0
 11
-3.478336109350858
 21
12.3054489794
 31
0.0
  0
LINE
  5
100
330
1F
100
AcDbEntity
  8
1
100
AcDbLine
 10
-3.478336109350858
 20
12.3054489794
 30
0.0
 11
-3.514270259550858
 21
12.3166295069
 31
0.0
  0
LINE
  5
101
330
1F
100
AcDbEntity
  8
1
100
AcDbLine
 10
-3.514270259550858
 20
12.3166295069
 30
0.0
 11
-3.550012557250858
 21
12.3556118759
 31
0.0
  0
LINE
  5
102
330
1F
100
AcDbEntity
  8
1
100
AcDbLine
 10
-3.550012557250858
 20
12.3556118759
 30
0.0
 11
-3.583780451250858
 21
12.4548405709
 31
0.0
  0
LINE
  5
103
330
1F
100
AcDbEntity
  8
1
100
AcDbLine
 10
-3.583780451250858
 20
12.4548405709
 30
0.0
 11
-3.597394524650858
 21
12.6247436108
 31
0.0
  0
LINE
  5
105
330
1F
100
AcDbEntity
  8
1
100
AcDbLine
 10
-3.597394524650858
 20
13.3674910592
 30
0.0
 11
-3.564196600150858
 21
13.7018628719
 31
0.0
  0
LINE
  5
106
330
1F
100
AcDbEntity
  8
1
100
AcDbLine
 10
-3.564196600150858
 20
13.7018628719
 30
0.0
 11
-3.347394017950858
 21
14.4534532281
 31
0.0
  0
LINE
  5
107
330
1F
100
AcDbEntity
  8
1
100
AcDbLine
 10
-3.347394017950858
 20
14.4534532281
 30
0.0
 11
-3.297395034250858
 21
14.5798877182
 31
0.0
  0
LINE
  5
109
330
1F
100
AcDbEntity
  8
1
100
AcDbLine
 10
-3.597394524650858
 20
-12.6247580794
 30
0.0
 11
-3.585324584050858
 21
-12.4632443932
 31
0.0
  0
LINE
  5
10A
330
1F
100
AcDbEntity
  8
1
100
AcDbLine
 10
-3.585324584050858
 20
-12.4632443932
 30
0.0
 11
-3.564634321750858
 21
-12.3860442711
 31
0.0
  0
LINE
  5
10B
330
1F
100
AcDbEntity
  8
1
100
AcDbLine
 10
-3.564634321750858
 20
-12.3860442711
 30
0.0
 11
-3.526405392650858
 21
-12.3258482365
 31
0.0
  0
LINE
  5
10C
330
1F
100
AcDbEntity
  8
1
100
AcDbLine
 10
-3.526405392650858
 20
-12.3258482365
 30
0.0
 11
-3.491600005450858
 21
-12.3072273729
 31
0.0
  0
LINE
  5
10D
330
1F
100
AcDbEntity
  8
1
100
AcDbLine
 10
-3.491600005450858
 20
-12.3072273729
 30
0.0
 11
-3.448643682950858
 21
-12.3093200547
 31
0.0
  0
LINE
  5
10E
330
1F
100
AcDbEntity
  8
1
100
AcDbLine
 10
-3.448643682950858
 20
-12.3093200547
 30
0.0
 11
-3.406432418650858
 21
-12.3292689843
 31
0.0
  0
LINE
  5
10F
330
1F
100
AcDbEntity
  8
1
100
AcDbLine
 10
-3.406432418650858
 20
-12.3292689843
 30
0.0
 11
-3.347394017950858
 21
-12.3783664478
 31
0.0
  0
LINE
  5
110
330
1F
100
AcDbEntity
  8
1
100
AcDbLine
 10
-3.297394873350858
 20
-14.5799023428
 30
0.0
 11
-3.347394017950858
 21
-14.4534676967
 31
0.0
  0
LINE
  5
112
330
1F
100
AcDbEntity
  8
1
100
AcDbLine
 10
-3.347394017950858
 20
-19.4210743231
 30
0.0
 11
-3.297395034250858
 21
-19.462028302
 31
0.0
  0
LINE
  5
114
330
1F
100
AcDbEntity
  8
1
100
AcDbLine
 10
-3.297395034250858
 20
17.999991991
 30
0.0
 11
-0.426274795550858
 21
17.9999927867
 31
0.0
  0
LINE
  5
116
330
1F
100
AcDbEntity
  8
1
100
AcDbLine
 10
-3.597394524650858
 20
-19.4458884818
 30
0.0
 11
-3.591093196050858
 21
-19.3916836453
 31
0.0
  0
LINE
  5
117
330
1F
100
AcDbEntity
  8
1
100
AcDbLine
 10
-3.591093196050858
 20
-19.3916836453
 30
0.0
 11
-3.563190771750858
 21
-19.3459110034
 31
0.0
  0
LINE
  5
118
330
1F
100
AcDbEntity
  8
1
100
AcDbLine
 10
-3.563190771750858
 20
-19.3459110034
 30
0.0
 11
-3.520210234950858
 21
-19.3329004271
 31
0.0
  0
LINE
  5
119
330
1F
100
AcDbEntity
  8
1
100
AcDbLine
 10
-3.520210234950858
 20
-19.3329004271
 30
0.0
 11
-3.461894540550858
 21
-19.347157113
 31
0.0
  0
LINE
  5
11A
330
1F
100
AcDbEntity
  8
1
100
AcDbLine
 10
-3.461894540550858
 20
-19.347157113
 30
0.0
 11
-3.379684834250858
 21
-19.3959826303
 31
0.0
  0
LINE
  5
11B
330
1F
100
AcDbEntity
  8
1
100
AcDbLine
 10
-3.379684834250858
 20
-19.3959826303
 30
0.0
 11
-3.347394017950858
 21
-19.4210743231
 31
0.0
  0
LINE
  5
11C
330
1F
100
AcDbEntity
  8
1
100
AcDbLine
 10
-3.297395066450858
 20
-20.5005634765
 30
0.0
 11
-3.347394050150858
 21
-20.419320483
 31
0.0
  0
LINE
  5
11F
330
1F
100
AcDbEntity
  8
1
100
AcDbLine
 10
-3.297395034250858
 20
17.999991991
 30
0.0
 11
-3.431959970450858
 21
17.8654270548
 31
0.0
  0
LINE
  5
120
330
1F
100
AcDbEntity
  8
1
100
AcDbLine
 10
-3.431959970450858
 20
17.8654270548
 30
0.0
 11
-3.501904158450858
 21
17.7954847294
 31
0.0
  0
LINE
  5
121
330
1F
100
AcDbEntity
  8
1
100
AcDbLine
 10
-3.501904158450858
 20
17.7954847294
 30
0.0
 11
-3.554168118650858
 21
17.7432207692
 31
0.0
  0
LINE
  5
122
330
1F
100
AcDbEntity
  8
1
100
AcDbLine
 10
-3.554168118650858
 20
17.7432207692
 30
0.0
 11
-3.586468248150858
 21
17.710918777
 31
0.0
  0
LINE
  5
123
330
1F
100
AcDbEntity
  8
1
100
AcDbLine
 10
-3.586468248150858
 20
17.710918777
 30
0.0
 11
-3.597394524650858
 21
17.6999925005
 31
0.0
  0
LINE
  5
124
330
1F
100
AcDbEntity
  8
1
100
AcDbLine
 10
15.60621806324914
 20
-28.6114046856
 30
0.0
 11
15.59854396524914
 21
-28.6310071631
 31
0.0
  0
LINE
  5
125
330
1F
100
AcDbEntity
  8
1
100
AcDbLine
 10
15.59854396524914
 20
-28.6310071631
 30
0.0
 11
15.47853373834914
 21
-28.839407353
 31
0.0
  0
LINE
  5
126
330
1F
100
AcDbEntity
  8
1
100
AcDbLine
 10
15.47853373834914
 20
-28.839407353
 30
0.0
 11
15.29296585264914
 21
-29.0376542642
 31
0.0
  0
LINE
  5
127
330
1F
100
AcDbEntity
  8
1
100
AcDbLine
 10
15.29296585264914
 20
-29.0376542642
 30
0.0
 11
15.04579656664914
 21
-29.2215234174
 31
0.0
  0
LINE
  5
128
330
1F
100
AcDbEntity
  8
1
100
AcDbLine
 10
15.04579656664914
 20
-29.2215234174
 30
0.0
 11
14.74228971544914
 21
-29.3870920821
 31
0.0
  0
LINE
  5
129
330
1F
100
AcDbEntity
  8
1
100
AcDbLine
 10
14.74228971544914
 20
-29.3870920821
 30
0.0
 11
14.38891985364914
 21
-29.5308361336
 31
0.0
  0
LINE
  5
12A
330
1F
100
AcDbEntity
  8
1
100
AcDbLine
 10
14.38891985364914
 20
-29.5308361336
 30
0.0
 11
13.99321206754914
 21
-29.6496896579
 31
0.0
  0
LINE
  5
12B
330
1F
100
AcDbEntity
  8
1
100
AcDbLine
 10
13.99321206754914
 20
-29.6496896579
 30
0.0
 11
13.56360413974914
 21
-29.7411194577
 31
0.0
  0
LINE
  5
12C
330
1F
100
AcDbEntity
  8
1
100
AcDbLine
 10
13.56360413974914
 20
-29.7411194577
 30
0.0
 11
13.10925283374914
 21
-29.8031772061
 31
0.0
  0
LINE
  5
12D
330
1F
100
AcDbEntity
  8
1
100
AcDbLine
 10
13.10925283374914
 20
-29.8031772061
 30
0.0
 11
12.63984017914914
 21
-29.8345404251
 31
0.0
  0
LINE
  5
12E
330
1F
100
AcDbEntity
  8
1
100
AcDbLine
 10
12.63984017914914
 20
-29.8345404251
 30
0.0
 11
12.16536858024914
 21
-29.8345404251
 31
0.0
  0
LINE
  5
12F
330
1F
100
AcDbEntity
  8
1
100
AcDbLine
 10
12.16536858024914
 20
-29.8345404251
 30
0.0
 11
11.69595592564914
 21
-29.8031772061
 31
0.0
  0
LINE
  5
130
330
1F
100
AcDbEntity
  8
1
100
AcDbLine
 10
11.69595592564914
 20
-29.8031772061
 30
0.0
 11
11.24160461964914
 21
-29.7411194577
 31
0.0
  0
LINE
  5
131
330
1F
100
AcDbEntity
  8
1
100
AcDbLine
 10
11.24160461964914
 20
-29.7411194577
 30
0.0
 11
10.81199669184914
 21
-29.6496896579
 31
0.0
  0
LINE
  5
132
330
1F
100
AcDbEntity
  8
1
100
AcDbLine
 10
10.81199669184914
 20
-29.6496896579
 30
0.0
 11
10.41628890574914
 21
-29.5308361336
 31
0.0
  0
LINE
  5
133
330
1F
100
AcDbEntity
  8
1
100
AcDbLine
 10
10.41628890574914
 20
-29.5308361336
 30
0.0
 11
10.06291904394914
 21
-29.3870920821
 31
0.0
  0
LINE
  5
134
330
1F
100
AcDbEntity
  8
1
100
AcDbLine
 10
10.06291904394914
 20
-29.3870920821
 30
0.0
 11
9.759412192749142
 21
-29.2215234174
 31
0.0
  0
LINE
  5
135
330
1F
100
AcDbEntity
  8
1
100
AcDbLine
 10
9.759412192749142
 20
-29.2215234174
 30
0.0
 11
9.512242906749142
 21
-29.0376542642
 31
0.0
  0
LINE
  5
136
330
1F
100
AcDbEntity
  8
1
100
AcDbLine
 10
9.512242906749142
 20
-29.0376542642
 30
0.0
 11
9.326675021149143
 21
-28.839407353
 31
0.0
  0
LINE
  5
137
330
1F
100
AcDbEntity
  8
1
100
AcDbLine
 10
9.326675021149143
 20
-28.839407353
 30
0.0
 11
9.206668519449142
 21
-28.6310071631
 31
0.0
  0
LINE
  5
138
330
1F
100
AcDbEntity
  8
1
100
AcDbLine
 10
9.206668519449142
 20
-28.6310071631
 30
0.0
 11
9.185248100249142
 21
-28.5716055467
 31
0.0
  0
LINE
  5
139
330
1F
100
AcDbEntity
  8
1
100
AcDbLine
 10
-3.347394017950858
 20
-23.0028757525
 30
0.0
 11
-3.297395034250858
 21
-23.0449789835
 31
0.0
  0
LINE
  5
13A
330
1F
100
AcDbEntity
  8
1
100
AcDbLine
 10
-3.297394987350858
 20
-23.5790731827
 30
0.0
 11
-3.347394132050858
 21
-23.5158397815
 31
0.0
  0
LINE
  5
13C
330
1F
100
AcDbEntity
  8
1
100
AcDbLine
 10
-3.597394524650858
 20
-22.9107083452
 30
0.0
 11
-3.592214508450858
 21
-22.8872501922
 31
0.0
  0
LINE
  5
13D
330
1F
100
AcDbEntity
  8
1
100
AcDbLine
 10
-3.592214508450858
 20
-22.8872501922
 30
0.0
 11
-3.559702037350858
 21
-22.8738298339
 31
0.0
  0
LINE
  5
13E
330
1F
100
AcDbEntity
  8
1
100
AcDbLine
 10
-3.559702037350858
 20
-22.8738298339
 30
0.0
 11
-3.505383579550858
 21
-22.8918155355
 31
0.0
  0
LINE
  5
13F
330
1F
100
AcDbEntity
  8
1
100
AcDbLine
 10
-3.505383579550858
 20
-22.8918155355
 30
0.0
 11
-3.434861971550858
 21
-22.9348966552
 31
0.0
  0
LINE
  5
140
330
1F
100
AcDbEntity
  8
1
100
AcDbLine
 10
-3.434861971550858
 20
-22.9348966552
 30
0.0
 11
-3.347394017950858
 21
-23.0028757525
 31
0.0
  0
LINE
  5
142
330
1F
100
AcDbEntity
  8
1
100
AcDbLine
 10
-3.347394017950858
 20
-24.6796773446
 30
0.0
 11
-3.297395034250858
 21
-24.725930549
 31
0.0
  0
LINE
  5
143
330
1F
100
AcDbEntity
  8
1
100
AcDbLine
 10
-3.597394524650858
 20
-24.5441754979
 30
0.0
 11
-3.597394524650858
 21
17.6999925005
 31
0.0
  0
LINE
  5
144
330
1F
100
AcDbEntity
  8
1
100
AcDbLine
 10
-3.297394873250858
 20
-24.8932150334
 30
0.0
 11
-3.347394017950858
 21
-24.8403006864
 31
0.0
  0
LINE
  5
146
330
1F
100
AcDbEntity
  8
CUT
100
AcDbLine
 10
55.15260518614915
 20
-26.3046545808
 30
0.0
 11
55.15260299564915
 21
-23.7046541909
 31
0.0
  0
LINE
  5
147
330
1F
100
AcDbEntity
  8
CUT
100
AcDbLine
 10
55.10386881614915
 20
-26.4354948814
 30
0.0
 11
54.81443279334914
 21
-26.029294221
 31
0.0
  0
LINE
  5
148
330
1F
100
AcDbEntity
  8
CUT
100
AcDbLine
 10
54.81960314464914
 20
-23.7700489694
 30
0.0
 11
55.08687467744915
 21
-23.5564276216
 31
0.0
  0
LINE
  5
149
330
1F
100
AcDbEntity
  8
CUT
100
AcDbLine
 10
42.95260184354915
 20
-26.029294221
 30
0.0
 11
54.81443279334914
 21
-26.029294221
 31
0.0
  0
LINE
  5
14A
330
1F
100
AcDbEntity
  8
CUT
100
AcDbLine
 10
42.95259971064914
 20
-23.7700491283
 30
0.0
 11
54.81960314464914
 21
-23.7700489694
 31
0.0
  0
LINE
  5
14B
330
1F
100
AcDbEntity
  8
CUT
100
AcDbLine
 10
54.88174878904914
 20
-26.4992190525
 30
0.0
 11
54.99019209734914
 21
-26.5010903946
 31
0.0
  0
LINE
  5
14C
330
1F
100
AcDbEntity
  8
CUT
100
AcDbLine
 10
54.15260516944915
 20
-26.4354271814
 30
0.0
 11
54.88174878904914
 21
-26.4992190525
 31
0.0
  0
LINE
  5
14D
330
1F
100
AcDbEntity
  8
CUT
100
AcDbLine
 10
42.95260513374915
 20
-26.4354271814
 30
0.0
 11
54.15260516944915
 21
-26.4354271814
 31
0.0
  0
LINE
  5
14E
330
1F
100
AcDbEntity
  8
CUT
100
AcDbLine
 10
54.92725480234914
 20
-23.5061085854
 30
0.0
 11
54.15260303654914
 21
-23.5738809292
 31
0.0
  0
LINE
  5
14F
330
1F
100
AcDbEntity
  8
CUT
100
AcDbLine
 10
54.97265118994915
 20
-23.5056615506
 30
0.0
 11
54.92725480234914
 21
-23.5061085854
 31
0.0
  0
LINE
  5
150
330
1F
100
AcDbEntity
  8
CUT
100
AcDbLine
 10
54.15260303654914
 20
-23.5738809292
 30
0.0
 11
42.95260300084914
 21
-23.5738811577
 31
0.0
  0
LINE
  5
151
330
1F
100
AcDbEntity
  8
CUT
100
AcDbLine
 10
53.15260194604915
 20
26.4354274528
 30
0.0
 11
53.15260194604915
 21
23.5738802696
 31
0.0
  0
LINE
  5
153
330
1F
100
AcDbEntity
  8
CUT
100
AcDbLine
 10
45.66668929724914
 20
26.4354274528
 30
0.0
 11
54.15260397254914
 21
26.4354274528
 31
0.0
  0
LINE
  5
154
330
1F
100
AcDbEntity
  8
CUT
100
AcDbLine
 10
42.95260184344914
 20
26.4354275033
 30
0.0
 11
45.66668929724914
 21
26.4354274528
 31
0.0
  0
LINE
  5
155
330
1F
100
AcDbEntity
  8
CUT
100
AcDbLine
 10
54.15260397254914
 20
23.5738802696
 30
0.0
 11
42.95260064664915
 21
23.5738802696
 31
0.0
  0
LINE
  5
156
330
1F
100
AcDbEntity
  8
CUT
100
AcDbLine
 10
54.92725573834915
 20
23.5061079258
 30
0.0
 11
54.15260397254914
 21
23.5738802696
 31
0.0
  0
LINE
  5
157
330
1F
100
AcDbEntity
  8
CUT
100
AcDbLine
 10
54.15260397254914
 20
26.4354274528
 30
0.0
 11
54.88174759214914
 21
26.4992193239
 31
0.0
  0
LINE
  5
158
330
1F
100
AcDbEntity
  8
CUT
100
AcDbLine
 10
54.88174759214914
 20
26.4992193239
 30
0.0
 11
54.99019079264914
 21
26.5010912822
 31
0.0
  0
LINE
  5
159
330
1F
100
AcDbEntity
  8
CUT
100
AcDbLine
 10
54.97265212594914
 20
23.505660891
 30
0.0
 11
54.92725573834915
 21
23.5061079258
 31
0.0
  0
LINE
  5
15A
330
1F
100
AcDbEntity
  8
CUT
100
AcDbLine
 10
55.15260280534915
 20
26.3046545581
 30
0.0
 11
55.15260486764915
 21
23.7046538835
 31
0.0
  0
LINE
  5
161
330
1F
100
AcDbEntity
  8
1
100
AcDbLine
 10
21.01862900794914
 20
-26.500007002
 30
0.0
 11
21.88465469424914
 21
-25.0000076874
 31
0.0
  0
LINE
  5
162
330
1F
100
AcDbEntity
  8
1
100
AcDbLine
 10
21.88465469424914
 20
-25.0000076874
 30
0.0
 11
21.01862900794914
 21
-23.5000065102
 31
0.0
  0
LINE
  5
163
330
1F
100
AcDbEntity
  8
1
100
AcDbLine
 10
21.01862900794914
 20
-23.5000065102
 30
0.0
 11
19.28658136074914
 21
-23.5000065102
 31
0.0
  0
LINE
  5
164
330
1F
100
AcDbEntity
  8
1
100
AcDbLine
 10
19.28658136074914
 20
-23.5000065102
 30
0.0
 11
18.42055567444914
 21
-25.0000076874
 31
0.0
  0
LINE
  5
165
330
1F
100
AcDbEntity
  8
1
100
AcDbLine
 10
18.42055567444914
 20
-25.0000076874
 30
0.0
 11
19.28658136074914
 21
-26.500007002
 31
0.0
  0
LINE
  5
166
330
1F
100
AcDbEntity
  8
1
100
AcDbLine
 10
19.28658136074914
 20
-26.500007002
 30
0.0
 11
21.01862900794914
 21
-26.500007002
 31
0.0
  0
LINE
  5
167
330
1F
100
AcDbEntity
  8
1
100
AcDbLine
 10
35.88465326374914
 20
-25.0000076874
 30
0.0
 11
35.01862757744914
 21
-23.5000065102
 31
0.0
  0
LINE
  5
168
330
1F
100
AcDbEntity
  8
1
100
AcDbLine
 10
35.01862757744914
 20
-23.5000065102
 30
0.0
 11
33.28657620494914
 21
-23.5000065102
 31
0.0
  0
LINE
  5
169
330
1F
100
AcDbEntity
  8
1
100
AcDbLine
 10
33.28657620494914
 20
-26.500007002
 30
0.0
 11
35.01862757744914
 21
-26.500007002
 31
0.0
  0
LINE
  5
16A
330
1F
100
AcDbEntity
  8
1
100
AcDbLine
 10
32.42055796924915
 20
-25.0000076874
 30
0.0
 11
33.28657620494914
 21
-26.500007002
 31
0.0
  0
LINE
  5
16B
330
1F
100
AcDbEntity
  8
1
100
AcDbLine
 10
35.01862757744914
 20
-26.500007002
 30
0.0
 11
35.88465326374914
 21
-25.0000076874
 31
0.0
  0
LINE
  5
16C
330
1F
100
AcDbEntity
  8
1
100
AcDbLine
 10
33.28657620494914
 20
-23.5000065102
 30
0.0
 11
32.42055796924915
 21
-25.0000076874
 31
0.0
  0
LINE
  5
16D
330
1F
100
AcDbEntity
  8
1
100
AcDbLine
 10
14.90260385814914
 20
-28.4834037109
 30
0.0
 11
14.86851000134914
 21
-28.296593441
 31
0.0
  0
LINE
  5
16E
330
1F
100
AcDbEntity
  8
1
100
AcDbLine
 10
14.86851000134914
 20
-28.296593441
 30
0.0
 11
14.76714857764914
 21
-28.1148793682
 31
0.0
  0
LINE
  5
16F
330
1F
100
AcDbEntity
  8
1
100
AcDbLine
 10
14.76714857764914
 20
-28.1148793682
 30
0.0
 11
14.60129120294914
 21
-27.9432161286
 31
0.0
  0
LINE
  5
170
330
1F
100
AcDbEntity
  8
1
100
AcDbLine
 10
14.60129120294914
 20
-27.9432161286
 30
0.0
 11
14.37545665444914
 21
-27.7862882747
 31
0.0
  0
LINE
  5
171
330
1F
100
AcDbEntity
  8
1
100
AcDbLine
 10
14.37545665444914
 20
-27.7862882747
 30
0.0
 11
14.09581028764914
 21
-27.6483761652
 31
0.0
  0
LINE
  5
172
330
1F
100
AcDbEntity
  8
1
100
AcDbLine
 10
14.09581028764914
 20
-27.6483761652
 30
0.0
 11
13.76997404644914
 21
-27.5332404806
 31
0.0
  0
LINE
  5
173
330
1F
100
AcDbEntity
  8
1
100
AcDbLine
 10
13.76997404644914
 20
-27.5332404806
 30
0.0
 11
13.40684392394914
 21
-27.4440235033
 31
0.0
  0
LINE
  5
174
330
1F
100
AcDbEntity
  8
1
100
AcDbLine
 10
13.40684392394914
 20
-27.4440235033
 30
0.0
 11
13.01631801674914
 21
-27.3831578477
 31
0.0
  0
LINE
  5
175
330
1F
100
AcDbEntity
  8
1
100
AcDbLine
 10
13.01631801674914
 20
-27.3831578477
 30
0.0
 11
12.60905438014914
 21
-27.3523049935
 31
0.0
  0
LINE
  5
176
330
1F
100
AcDbEntity
  8
1
100
AcDbLine
 10
12.60905438014914
 20
-27.3523049935
 30
0.0
 11
12.19615810454914
 21
-27.3523049935
 31
0.0
  0
LINE
  5
177
330
1F
100
AcDbEntity
  8
1
100
AcDbLine
 10
12.19615810454914
 20
-27.3523049935
 30
0.0
 11
11.78889074274914
 21
-27.3831578477
 31
0.0
  0
LINE
  5
178
330
1F
100
AcDbEntity
  8
1
100
AcDbLine
 10
11.78889074274914
 20
-27.3831578477
 30
0.0
 11
11.39836483544914
 21
-27.4440235033
 31
0.0
  0
LINE
  5
179
330
1F
100
AcDbEntity
  8
1
100
AcDbLine
 10
11.39836483544914
 20
-27.4440235033
 30
0.0
 11
11.03523471304914
 21
-27.5332404806
 31
0.0
  0
LINE
  5
17A
330
1F
100
AcDbEntity
  8
1
100
AcDbLine
 10
11.03523471304914
 20
-27.5332404806
 30
0.0
 11
10.70940219704914
 21
-27.6483761652
 31
0.0
  0
LINE
  5
17B
330
1F
100
AcDbEntity
  8
1
100
AcDbLine
 10
10.70940219704914
 20
-27.6483761652
 30
0.0
 11
10.42975210494914
 21
-27.7862882747
 31
0.0
  0
LINE
  5
17C
330
1F
100
AcDbEntity
  8
1
100
AcDbLine
 10
10.42975210494914
 20
-27.7862882747
 30
0.0
 11
10.20392128174914
 21
-27.9432161286
 31
0.0
  0
LINE
  5
17D
330
1F
100
AcDbEntity
  8
1
100
AcDbLine
 10
10.20392128174914
 20
-27.9432161286
 30
0.0
 11
10.03806018174914
 21
-28.1148793682
 31
0.0
  0
LINE
  5
17E
330
1F
100
AcDbEntity
  8
1
100
AcDbLine
 10
10.03806018174914
 20
-28.1148793682
 30
0.0
 11
9.936702483349142
 21
-28.296593441
 31
0.0
  0
LINE
  5
17F
330
1F
100
AcDbEntity
  8
1
100
AcDbLine
 10
9.936702483349142
 20
-28.296593441
 30
0.0
 11
9.902604901249141
 21
-28.4834037109
 31
0.0
  0
LINE
  5
180
330
1F
100
AcDbEntity
  8
1
100
AcDbLine
 10
9.902604901249141
 20
-28.4834037109
 30
0.0
 11
9.936702483349142
 21
-28.6702158435
 31
0.0
  0
LINE
  5
181
330
1F
100
AcDbEntity
  8
1
100
AcDbLine
 10
9.936702483349142
 20
-28.6702158435
 30
0.0
 11
10.03806018174914
 21
-28.8519299163
 31
0.0
  0
LINE
  5
182
330
1F
100
AcDbEntity
  8
1
100
AcDbLine
 10
10.03806018174914
 20
-28.8519299163
 30
0.0
 11
10.20392128174914
 21
-29.0235931559
 31
0.0
  0
LINE
  5
183
330
1F
100
AcDbEntity
  8
1
100
AcDbLine
 10
10.20392128174914
 20
-29.0235931559
 30
0.0
 11
10.42975210494914
 21
-29.1805210098
 31
0.0
  0
LINE
  5
184
330
1F
100
AcDbEntity
  8
1
100
AcDbLine
 10
10.42975210494914
 20
-29.1805210098
 30
0.0
 11
10.70940219704914
 21
-29.3184331193
 31
0.0
  0
LINE
  5
185
330
1F
100
AcDbEntity
  8
1
100
AcDbLine
 10
10.70940219704914
 20
-29.3184331193
 30
0.0
 11
11.03523471304914
 21
-29.4335688039
 31
0.0
  0
LINE
  5
186
330
1F
100
AcDbEntity
  8
1
100
AcDbLine
 10
11.03523471304914
 20
-29.4335688039
 30
0.0
 11
11.39836483544914
 21
-29.5227857812
 31
0.0
  0
LINE
  5
187
330
1F
100
AcDbEntity
  8
1
100
AcDbLine
 10
11.39836483544914
 20
-29.5227857812
 30
0.0
 11
11.78889074274914
 21
-29.5836514368
 31
0.0
  0
LINE
  5
188
330
1F
100
AcDbEntity
  8
1
100
AcDbLine
 10
11.78889074274914
 20
-29.5836514368
 30
0.0
 11
12.19615810454914
 21
-29.614504291
 31
0.0
  0
LINE
  5
189
330
1F
100
AcDbEntity
  8
1
100
AcDbLine
 10
12.19615810454914
 20
-29.614504291
 30
0.0
 11
12.60905438014914
 21
-29.614504291
 31
0.0
  0
LINE
  5
18A
330
1F
100
AcDbEntity
  8
1
100
AcDbLine
 10
12.60905438014914
 20
-29.614504291
 30
0.0
 11
13.01631801674914
 21
-29.5836514368
 31
0.0
  0
LINE
  5
18B
330
1F
100
AcDbEntity
  8
1
100
AcDbLine
 10
13.01631801674914
 20
-29.5836514368
 30
0.0
 11
13.40684392394914
 21
-29.5227857812
 31
0.0
  0
LINE
  5
18C
330
1F
100
AcDbEntity
  8
1
100
AcDbLine
 10
13.40684392394914
 20
-29.5227857812
 30
0.0
 11
13.76997404644914
 21
-29.4335688039
 31
0.0
  0
LINE
  5
18D
330
1F
100
AcDbEntity
  8
1
100
AcDbLine
 10
13.76997404644914
 20
-29.4335688039
 30
0.0
 11
14.09581028764914
 21
-29.3184331193
 31
0.0
  0
LINE
  5
18E
330
1F
100
AcDbEntity
  8
1
100
AcDbLine
 10
14.09581028764914
 20
-29.3184331193
 30
0.0
 11
14.37545665444914
 21
-29.1805210098
 31
0.0
  0
LINE
  5
18F
330
1F
100
AcDbEntity
  8
1
100
AcDbLine
 10
14.37545665444914
 20
-29.1805210098
 30
0.0
 11
14.60129120294914
 21
-29.0235931559
 31
0.0
  0
LINE
  5
190
330
1F
100
AcDbEntity
  8
1
100
AcDbLine
 10
14.60129120294914
 20
-29.0235931559
 30
0.0
 11
14.76714857764914
 21
-28.8519299163
 31
0.0
  0
LINE
  5
191
330
1F
100
AcDbEntity
  8
1
100
AcDbLine
 10
14.76714857764914
 20
-28.8519299163
 30
0.0
 11
14.86851000134914
 21
-28.6702158435
 31
0.0
  0
LINE
  5
192
330
1F
100
AcDbEntity
  8
1
100
AcDbLine
 10
14.86851000134914
 20
-28.6702158435
 30
0.0
 11
14.90260385814914
 21
-28.4834037109
 31
0.0
  0
LINE
  5
193
330
1F
100
AcDbEntity
  8
1
100
AcDbLine
 10
11.53658055604914
 20
-29.1643905028
 30
0.0
 11
10.67055486984914
 21
-28.4834037109
 31
0.0
  0
LINE
  5
194
330
1F
100
AcDbEntity
  8
1
100
AcDbLine
 10
13.26863192864914
 20
-29.1643905028
 30
0.0
 11
11.53658055604914
 21
-29.1643905028
 31
0.0
  0
LINE
  5
195
330
1F
100
AcDbEntity
  8
1
100
AcDbLine
 10
14.13465761484914
 20
-28.4834037109
 30
0.0
 11
13.26863192864914
 21
-29.1643905028
 31
0.0
  0
LINE
  5
196
330
1F
100
AcDbEntity
  8
1
100
AcDbLine
 10
13.26863192864914
 20
-27.8024187817
 30
0.0
 11
14.13465761484914
 21
-28.4834037109
 31
0.0
  0
LINE
  5
197
330
1F
100
AcDbEntity
  8
1
100
AcDbLine
 10
11.53658055604914
 20
-27.8024187817
 30
0.0
 11
13.26863192864914
 21
-27.8024187817
 31
0.0
  0
LINE
  5
198
330
1F
100
AcDbEntity
  8
1
100
AcDbLine
 10
10.67055486984914
 20
-28.4834037109
 30
0.0
 11
11.53658055604914
 21
-27.8024187817
 31
0.0
  0
LINE
  5
199
330
1F
100
AcDbEntity
  8
1
100
AcDbLine
 10
13.26863192864914
 20
-27.8024187817
 30
0.0
 11
13.26863192864914
 21
-29.1643905028
 31
0.0
  0
LINE
  5
19A
330
1F
100
AcDbEntity
  8
1
100
AcDbLine
 10
11.53658055604914
 20
-27.8024187817
 30
0.0
 11
11.53658055604914
 21
-29.1643905028
 31
0.0
  0
LINE
  5
19B
330
1F
100
AcDbEntity
  8
1
100
AcDbLine
 10
15.19854837004914
 20
26.3370966033
 30
0.0
 11
15.39846979924914
 21
26.7218948768
 31
0.0
  0
LINE
  5
19C
330
1F
100
AcDbEntity
  8
1
100
AcDbLine
 10
15.39846979924914
 20
26.7218948768
 30
0.0
 11
15.53212948984914
 21
27.1288549022
 31
0.0
  0
LINE
  5
19D
330
1F
100
AcDbEntity
  8
1
100
AcDbLine
 10
15.53212948984914
 20
27.1288549022
 30
0.0
 11
15.59657328674914
 21
27.5489763782
 31
0.0
  0
LINE
  5
19E
330
1F
100
AcDbEntity
  8
1
100
AcDbLine
 10
15.59657328674914
 20
27.5489763782
 30
0.0
 11
15.59037812894914
 21
27.9729702936
 31
0.0
  0
LINE
  5
19F
330
1F
100
AcDbEntity
  8
1
100
AcDbLine
 10
15.59037812894914
 20
27.9729702936
 30
0.0
 11
15.51367440164914
 21
28.3914545045
 31
0.0
  0
LINE
  5
1A0
330
1F
100
AcDbEntity
  8
1
100
AcDbLine
 10
15.51367440164914
 20
28.3914545045
 30
0.0
 11
15.36816828794914
 21
28.79517539
 31
0.0
  0
LINE
  5
1A1
330
1F
100
AcDbEntity
  8
1
100
AcDbLine
 10
15.36816828794914
 20
28.79517539
 30
0.0
 11
15.15706726254914
 21
29.1752052919
 31
0.0
  0
LINE
  5
1A2
330
1F
100
AcDbEntity
  8
1
100
AcDbLine
 10
15.15706726254914
 20
29.1752052919
 30
0.0
 11
14.88505029024914
 21
29.5231362299
 31
0.0
  0
LINE
  5
1A3
330
1F
100
AcDbEntity
  8
1
100
AcDbLine
 10
14.88505029024914
 20
29.5231362299
 30
0.0
 11
14.55812626424914
 21
29.8312754796
 31
0.0
  0
LINE
  5
1A4
330
1F
100
AcDbEntity
  8
1
100
AcDbLine
 10
14.55812626424914
 20
29.8312754796
 30
0.0
 11
14.18352969834914
 21
30.0928076223
 31
0.0
  0
LINE
  5
1A5
330
1F
100
AcDbEntity
  8
1
100
AcDbLine
 10
14.18352969834914
 20
30.0928076223
 30
0.0
 11
13.76954191274914
 21
30.3019454197
 31
0.0
  0
LINE
  5
1A6
330
1F
100
AcDbEntity
  8
1
100
AcDbLine
 10
13.76954191274914
 20
30.3019454197
 30
0.0
 11
13.32532339634914
 21
30.4540657864
 31
0.0
  0
LINE
  5
1A7
330
1F
100
AcDbEntity
  8
1
100
AcDbLine
 10
13.32532339634914
 20
30.4540657864
 30
0.0
 11
12.86069773974914
 21
30.5458047853
 31
0.0
  0
LINE
  5
1A8
330
1F
100
AcDbEntity
  8
1
100
AcDbLine
 10
12.86069773974914
 20
30.5458047853
 30
0.0
 11
12.38593929354914
 21
30.5751321332
 31
0.0
  0
LINE
  5
1A9
330
1F
100
AcDbEntity
  8
1
100
AcDbLine
 10
12.38593929354914
 20
30.5751321332
 30
0.0
 11
11.91154965104914
 21
30.5413996295
 31
0.0
  0
LINE
  5
1AA
330
1F
100
AcDbEntity
  8
1
100
AcDbLine
 10
11.91154965104914
 20
30.5413996295
 30
0.0
 11
11.44801922984914
 21
30.445354195
 31
0.0
  0
LINE
  5
1AB
330
1F
100
AcDbEntity
  8
1
100
AcDbLine
 10
11.44801922984914
 20
30.445354195
 30
0.0
 11
11.00560375394914
 21
30.2891192452
 31
0.0
  0
LINE
  5
1AC
330
1F
100
AcDbEntity
  8
1
100
AcDbLine
 10
11.00560375394914
 20
30.2891192452
 30
0.0
 11
10.59408211054914
 21
30.0761481241
 31
0.0
  0
LINE
  5
1AD
330
1F
100
AcDbEntity
  8
1
100
AcDbLine
 10
10.59408211054914
 20
30.0761481241
 30
0.0
 11
10.22256263444914
 21
29.8111551867
 31
0.0
  0
LINE
  5
1AE
330
1F
100
AcDbEntity
  8
1
100
AcDbLine
 10
10.22256263444914
 20
29.8111551867
 30
0.0
 11
9.899259590549143
 21
29.4999984519
 31
0.0
  0
LINE
  5
1AF
330
1F
100
AcDbEntity
  8
1
100
AcDbLine
 10
9.899259590549143
 20
29.4999984519
 30
0.0
 11
9.631325536449141
 21
29.1495603935
 31
0.0
  0
LINE
  5
1B0
330
1F
100
AcDbEntity
  8
1
100
AcDbLine
 10
9.631325536449141
 20
29.1495603935
 30
0.0
 11
9.424679958249142
 21
28.7675933407
 31
0.0
  0
LINE
  5
1B1
330
1F
100
AcDbEntity
  8
1
100
AcDbLine
 10
9.424679958249142
 20
28.7675933407
 30
0.0
 11
9.283897512649142
 21
28.3625425265
 31
0.0
  0
LINE
  5
1B2
330
1F
100
AcDbEntity
  8
1
100
AcDbLine
 10
9.283897512649142
 20
28.3625425265
 30
0.0
 11
9.212096267349143
 21
27.9433691368
 31
0.0
  0
LINE
  5
1B3
330
1F
100
AcDbEntity
  8
1
100
AcDbLine
 10
9.212096267349143
 20
27.9433691368
 30
0.0
 11
9.210855745749143
 21
27.5193416939
 31
0.0
  0
LINE
  5
1B4
330
1F
100
AcDbEntity
  8
1
100
AcDbLine
 10
9.210855745749143
 20
27.5193416939
 30
0.0
 11
9.280209475249142
 21
27.0998404787
 31
0.0
  0
LINE
  5
1B5
330
1F
100
AcDbEntity
  8
1
100
AcDbLine
 10
9.280209475249142
 20
27.0998404787
 30
0.0
 11
9.418618910949142
 21
26.694141464
 31
0.0
  0
LINE
  5
1B6
330
1F
100
AcDbEntity
  8
1
100
AcDbLine
 10
9.418618910949142
 20
26.694141464
 30
0.0
 11
9.623029314949141
 21
26.3112207369
 31
0.0
  0
LINE
  5
1B7
330
1F
100
AcDbEntity
  8
1
100
AcDbLine
 10
9.623029314949141
 20
26.3112207369
 30
0.0
 11
9.888910734149142
 21
25.9595440195
 31
0.0
  0
LINE
  5
1B8
330
1F
100
AcDbEntity
  8
1
100
AcDbLine
 10
9.888910734149142
 20
25.9595440195
 30
0.0
 11
10.21039211094914
 21
25.6468915806
 31
0.0
  0
LINE
  5
1B9
330
1F
100
AcDbEntity
  8
1
100
AcDbLine
 10
10.21039211094914
 20
25.6468915806
 30
0.0
 11
10.58035814114914
 21
25.3801775591
 31
0.0
  0
LINE
  5
1BA
330
1F
100
AcDbEntity
  8
1
100
AcDbLine
 10
10.58035814114914
 20
25.3801775591
 30
0.0
 11
10.99062436164914
 21
25.165300952
 31
0.0
  0
LINE
  5
1BB
330
1F
100
AcDbEntity
  8
1
100
AcDbLine
 10
10.99062436164914
 20
25.165300952
 30
0.0
 11
11.43212341614914
 21
25.0070133672
 31
0.0
  0
LINE
  5
1BC
330
1F
100
AcDbEntity
  8
1
100
AcDbLine
 10
11.43212341614914
 20
25.0070133672
 30
0.0
 11
11.89508386794914
 21
24.9088184402
 31
0.0
  0
LINE
  5
1BD
330
1F
100
AcDbEntity
  8
1
100
AcDbLine
 10
11.89508386794914
 20
24.9088184402
 30
0.0
 11
12.36927234474914
 21
24.87288429
 31
0.0
  0
LINE
  5
1BE
330
1F
100
AcDbEntity
  8
1
100
AcDbLine
 10
12.36927234474914
 20
24.87288429
 30
0.0
 11
12.84419470374914
 21
24.9000081287
 31
0.0
  0
LINE
  5
1BF
330
1F
100
AcDbEntity
  8
1
100
AcDbLine
 10
12.84419470374914
 20
24.9000081287
 30
0.0
 11
13.30935307684914
 21
24.9895901845
 31
0.0
  0
LINE
  5
1C0
330
1F
100
AcDbEntity
  8
1
100
AcDbLine
 10
13.30935307684914
 20
24.9895901845
 30
0.0
 11
13.75445448704914
 21
25.1396467404
 31
0.0
  0
LINE
  5
1C1
330
1F
100
AcDbEntity
  8
1
100
AcDbLine
 10
13.75445448704914
 20
25.1396467404
 30
0.0
 11
14.16965671724914
 21
25.3468622879
 31
0.0
  0
LINE
  5
1C2
330
1F
100
AcDbEntity
  8
1
100
AcDbLine
 10
14.16965671724914
 20
25.3468622879
 30
0.0
 11
14.54577692694914
 21
25.6066509948
 31
0.0
  0
LINE
  5
1C3
330
1F
100
AcDbEntity
  8
1
100
AcDbLine
 10
14.54577692694914
 20
25.6066509948
 30
0.0
 11
14.87450026814914
 21
25.9132684634
 31
0.0
  0
LINE
  5
1C4
330
1F
100
AcDbEntity
  8
1
100
AcDbLine
 10
14.87450026814914
 20
25.9132684634
 30
0.0
 11
15.14854752364914
 21
26.2599328027
 31
0.0
  0
LINE
  5
1C5
330
1F
100
AcDbEntity
  8
1
100
AcDbLine
 10
15.14854752364914
 20
26.2599328027
 30
0.0
 11
15.15720882364914
 21
26.2509362266
 31
0.0
  0
LINE
  5
1C6
330
1F
100
AcDbEntity
  8
1
100
AcDbLine
 10
15.20720967004914
 20
26.3281000273
 30
0.0
 11
15.19854837004914
 21
26.3370966033
 31
0.0
  0
LINE
  5
1C7
330
1F
100
AcDbEntity
  8
1
100
AcDbLine
 10
14.10706438964914
 20
26.7956966029
 30
0.0
 11
15.14854752364914
 21
26.2599328027
 31
0.0
  0
LINE
  5
1C8
330
1F
100
AcDbEntity
  8
1
100
AcDbLine
 10
15.19854837004914
 20
26.3370966033
 30
0.0
 11
14.15706151074914
 21
26.8728604035
 31
0.0
  0
LINE
  5
1C9
330
1F
100
AcDbEntity
  8
1
100
AcDbLine
 10
14.10706438964914
 20
26.7956966029
 30
0.0
 11
13.88113670894914
 21
26.5270547436
 31
0.0
  0
LINE
  5
1CA
330
1F
100
AcDbEntity
  8
1
100
AcDbLine
 10
13.88113670894914
 20
26.5270547436
 30
0.0
 11
13.60262283034914
 21
26.3009892271
 31
0.0
  0
LINE
  5
1CB
330
1F
100
AcDbEntity
  8
1
100
AcDbLine
 10
13.60262283034914
 20
26.3009892271
 30
0.0
 11
13.28141712494914
 21
26.1255392299
 31
0.0
  0
LINE
  5
1CC
330
1F
100
AcDbEntity
  8
1
100
AcDbLine
 10
13.28141712494914
 20
26.1255392299
 30
0.0
 11
12.92895623394914
 21
26.0069446133
 31
0.0
  0
LINE
  5
1CD
330
1F
100
AcDbEntity
  8
1
100
AcDbLine
 10
12.92895623394914
 20
26.0069446133
 30
0.0
 11
12.55777203384914
 21
25.9494242684
 31
0.0
  0
LINE
  5
1CE
330
1F
100
AcDbEntity
  8
1
100
AcDbLine
 10
12.55777203384914
 20
25.9494242684
 30
0.0
 11
12.18106695354914
 21
25.955027105
 31
0.0
  0
LINE
  5
1CF
330
1F
100
AcDbEntity
  8
1
100
AcDbLine
 10
12.18106695354914
 20
25.955027105
 30
0.0
 11
11.81224086234914
 21
26.0235500948
 31
0.0
  0
LINE
  5
1D0
330
1F
100
AcDbEntity
  8
1
100
AcDbLine
 10
11.81224086234914
 20
26.0235500948
 30
0.0
 11
11.46441795774914
 21
26.1525587604
 31
0.0
  0
LINE
  5
1D1
330
1F
100
AcDbEntity
  8
1
100
AcDbLine
 10
11.46441795774914
 20
26.1525587604
 30
0.0
 11
11.14996620364914
 21
26.3374616818
 31
0.0
  0
LINE
  5
1D2
330
1F
100
AcDbEntity
  8
1
100
AcDbLine
 10
11.14996620364914
 20
26.3374616818
 30
0.0
 11
10.88006892154914
 21
26.5716837213
 31
0.0
  0
LINE
  5
1D3
330
1F
100
AcDbEntity
  8
1
100
AcDbLine
 10
10.88006892154914
 20
26.5716837213
 30
0.0
 11
10.66432990974914
 21
26.8468914048
 31
0.0
  0
LINE
  5
1D4
330
1F
100
AcDbEntity
  8
1
100
AcDbLine
 10
10.66432990974914
 20
26.8468914048
 30
0.0
 11
10.51042326634914
 21
27.1532983945
 31
0.0
  0
LINE
  5
1D5
330
1F
100
AcDbEntity
  8
1
100
AcDbLine
 10
10.51042326634914
 20
27.1532983945
 30
0.0
 11
10.42382516804914
 21
27.4800026284
 31
0.0
  0
LINE
  5
1D6
330
1F
100
AcDbEntity
  8
1
100
AcDbLine
 10
10.42382516804914
 20
27.4800026284
 30
0.0
 11
10.40760897934914
 21
27.815384926
 31
0.0
  0
LINE
  5
1D7
330
1F
100
AcDbEntity
  8
1
100
AcDbLine
 10
10.40760897934914
 20
27.815384926
 30
0.0
 11
10.46235957094914
 21
28.1475131826
 31
0.0
  0
LINE
  5
1D8
330
1F
100
AcDbEntity
  8
1
100
AcDbLine
 10
10.46235957094914
 20
28.1475131826
 30
0.0
 11
10.58612489054914
 21
28.4645763651
 31
0.0
  0
LINE
  5
1D9
330
1F
100
AcDbEntity
  8
1
100
AcDbLine
 10
10.58612489054914
 20
28.4645763651
 30
0.0
 11
10.77450537034914
 21
28.7552961574
 31
0.0
  0
LINE
  5
1DA
330
1F
100
AcDbEntity
  8
1
100
AcDbLine
 10
10.77450537034914
 20
28.7552961574
 30
0.0
 11
11.02079548784914
 21
29.0093292908
 31
0.0
  0
LINE
  5
1DB
330
1F
100
AcDbEntity
  8
1
100
AcDbLine
 10
11.02079548784914
 20
29.0093292908
 30
0.0
 11
11.31623708554914
 21
29.2176400737
 31
0.0
  0
LINE
  5
1DC
330
1F
100
AcDbEntity
  8
1
100
AcDbLine
 10
11.31623708554914
 20
29.2176400737
 30
0.0
 11
11.65032484474914
 21
29.3728189037
 31
0.0
  0
LINE
  5
1DD
330
1F
100
AcDbEntity
  8
1
100
AcDbLine
 10
11.65032484474914
 20
29.3728189037
 30
0.0
 11
12.01116763894914
 21
29.4693486259
 31
0.0
  0
LINE
  5
1DE
330
1F
100
AcDbEntity
  8
1
100
AcDbLine
 10
12.01116763894914
 20
29.4693486259
 30
0.0
 11
12.38593556824914
 21
29.5037907974
 31
0.0
  0
LINE
  5
1DF
330
1F
100
AcDbEntity
  8
1
100
AcDbLine
 10
12.38593556824914
 20
29.5037907974
 30
0.0
 11
12.76129954404914
 21
29.4749253855
 31
0.0
  0
LINE
  5
1E0
330
1F
100
AcDbEntity
  8
1
100
AcDbLine
 10
12.76129954404914
 20
29.4749253855
 30
0.0
 11
13.12390067524914
 21
29.3837749825
 31
0.0
  0
LINE
  5
1E1
330
1F
100
AcDbEntity
  8
1
100
AcDbLine
 10
13.12390067524914
 20
29.3837749825
 30
0.0
 11
13.46084573214914
 21
29.2335843162
 31
0.0
  0
LINE
  5
1E2
330
1F
100
AcDbEntity
  8
1
100
AcDbLine
 10
13.46084573214914
 20
29.2335843162
 30
0.0
 11
13.76015045584914
 21
29.0296954528
 31
0.0
  0
LINE
  5
1E3
330
1F
100
AcDbEntity
  8
1
100
AcDbLine
 10
13.76015045584914
 20
29.0296954528
 30
0.0
 11
14.01116424144914
 21
28.7793596701
 31
0.0
  0
LINE
  5
1E4
330
1F
100
AcDbEntity
  8
1
100
AcDbLine
 10
14.01116424144914
 20
28.7793596701
 30
0.0
 11
14.20496129334914
 21
28.4914822743
 31
0.0
  0
LINE
  5
1E5
330
1F
100
AcDbEntity
  8
1
100
AcDbLine
 10
14.20496129334914
 20
28.4914822743
 30
0.0
 11
14.33464609924914
 21
28.1763040886
 31
0.0
  0
LINE
  5
1E6
330
1F
100
AcDbEntity
  8
1
100
AcDbLine
 10
14.33464609924914
 20
28.1763040886
 30
0.0
 11
14.39561047494914
 21
27.8450345115
 31
0.0
  0
LINE
  5
1E7
330
1F
100
AcDbEntity
  8
1
100
AcDbLine
 10
14.39561047494914
 20
27.8450345115
 30
0.0
 11
14.38567885104914
 21
27.5094584987
 31
0.0
  0
LINE
  5
1E8
330
1F
100
AcDbEntity
  8
1
100
AcDbLine
 10
14.38567885104914
 20
27.5094584987
 30
0.0
 11
14.30520885534914
 21
27.1815118805
 31
0.0
  0
LINE
  5
1E9
330
1F
100
AcDbEntity
  8
1
100
AcDbLine
 10
14.30520885534914
 20
27.1815118805
 30
0.0
 11
14.15706151074914
 21
26.8728604035
 31
0.0
  0
LINE
  5
1EA
330
1F
100
AcDbEntity
  8
1
100
AcDbLine
 10
14.10206132474914
 20
26.7937296496
 30
0.0
 11
14.10706438964914
 21
26.7956966029
 31
0.0
  0
LINE
  5
1EB
330
1F
100
AcDbEntity
  8
1
100
AcDbLine
 10
14.15706151074914
 20
26.8728604035
 30
0.0
 11
14.15206217104914
 21
26.8708934502
 31
0.0
  0
LINE
  5
1EC
330
1F
100
AcDbEntity
  8
1
100
AcDbLine
 10
15.20720967004914
 20
26.3281000273
 30
0.0
 11
14.15206217104914
 21
26.8708934502
 31
0.0
  0
LINE
  5
1ED
330
1F
100
AcDbEntity
  8
1
100
AcDbLine
 10
13.26863192864914
 20
27.0175022499
 30
0.0
 11
13.26863192864914
 21
28.851624714
 31
0.0
  0
LINE
  5
1EE
330
1F
100
AcDbEntity
  8
1
100
AcDbLine
 10
13.26863192864914
 20
27.0175022499
 30
0.0
 11
13.59459482974914
 21
26.5144558118
 31
0.0
  0
LINE
  5
1EF
330
1F
100
AcDbEntity
  8
1
100
AcDbLine
 10
11.53658055604914
 20
27.0175022499
 30
0.0
 11
11.53658055604914
 21
28.851624714
 31
0.0
  0
LINE
  5
1F0
330
1F
100
AcDbEntity
  8
1
100
AcDbLine
 10
11.21037551114914
 20
26.5140814201
 30
0.0
 11
11.53658055604914
 21
27.0175022499
 31
0.0
  0
LINE
  5
1F2
330
1F
100
AcDbEntity
  8
1
100
AcDbLine
 10
13.26863192864914
 20
27.0175022499
 30
0.0
 11
11.53658055604914
 21
27.0175022499
 31
0.0
  0
LINE
  5
1F3
330
1F
100
AcDbEntity
  8
1
100
AcDbLine
 10
9.631325536449141
 20
-15.9838365897
 30
0.0
 11
9.893816941449142
 21
-16.3281670346
 31
0.0
  0
LINE
  5
1F4
330
1F
100
AcDbEntity
  8
1
100
AcDbLine
 10
9.893816941449142
 20
-16.3281670346
 30
0.0
 11
10.20978488864914
 21
-16.6347733273
 31
0.0
  0
LINE
  5
1F5
330
1F
100
AcDbEntity
  8
1
100
AcDbLine
 10
10.20978488864914
 20
-16.6347733273
 30
0.0
 11
10.57248287744914
 21
-16.8971231713
 31
0.0
  0
LINE
  5
1F6
330
1F
100
AcDbEntity
  8
1
100
AcDbLine
 10
10.57248287744914
 20
-16.8971231713
 30
0.0
 11
10.97419210614914
 21
-17.1096230431
 31
0.0
  0
LINE
  5
1F7
330
1F
100
AcDbEntity
  8
1
100
AcDbLine
 10
10.97419210614914
 20
-17.1096230431
 30
0.0
 11
11.40634068194914
 21
-17.2677448525
 31
0.0
  0
LINE
  5
1F8
330
1F
100
AcDbEntity
  8
1
100
AcDbLine
 10
11.40634068194914
 20
-17.2677448525
 30
0.0
 11
11.85972713774914
 21
-17.3681172117
 31
0.0
  0
LINE
  5
1F9
330
1F
100
AcDbEntity
  8
1
100
AcDbLine
 10
11.85972713774914
 20
-17.3681172117
 30
0.0
 11
12.32468061984914
 21
-17.408601804
 31
0.0
  0
LINE
  5
1FA
330
1F
100
AcDbEntity
  8
1
100
AcDbLine
 10
12.32468061984914
 20
-17.408601804
 30
0.0
 11
12.79129930684914
 21
-17.3883343621
 31
0.0
  0
LINE
  5
1FB
330
1F
100
AcDbEntity
  8
1
100
AcDbLine
 10
12.79129930684914
 20
-17.3883343621
 30
0.0
 11
13.24962922284914
 21
-17.3077488824
 31
0.0
  0
LINE
  5
1FC
330
1F
100
AcDbEntity
  8
1
100
AcDbLine
 10
13.24962922284914
 20
-17.3077488824
 30
0.0
 11
13.68991010734914
 21
-17.1685627236
 31
0.0
  0
LINE
  5
1FD
330
1F
100
AcDbEntity
  8
1
100
AcDbLine
 10
13.68991010734914
 20
-17.1685627236
 30
0.0
 11
14.10275050344914
 21
-16.9737412169
 31
0.0
  0
LINE
  5
1FE
330
1F
100
AcDbEntity
  8
1
100
AcDbLine
 10
14.10275050344914
 20
-16.9737412169
 30
0.0
 11
14.47935872614914
 21
-16.7274380608
 31
0.0
  0
LINE
  5
1FF
330
1F
100
AcDbEntity
  8
1
100
AcDbLine
 10
14.47935872614914
 20
-16.7274380608
 30
0.0
 11
14.81170304954914
 21
-16.4349021896
 31
0.0
  0
LINE
  5
200
330
1F
100
AcDbEntity
  8
1
100
AcDbLine
 10
14.81170304954914
 20
-16.4349021896
 30
0.0
 11
15.09269797154914
 21
-16.1023660137
 31
0.0
  0
LINE
  5
201
330
1F
100
AcDbEntity
  8
1
100
AcDbLine
 10
15.09269797154914
 20
-16.1023660137
 30
0.0
 11
15.31636440104914
 21
-15.7369206234
 31
0.0
  0
LINE
  5
202
330
1F
100
AcDbEntity
  8
1
100
AcDbLine
 10
15.31636440104914
 20
-15.7369206234
 30
0.0
 11
15.47792651594914
 21
-15.3463537379
 31
0.0
  0
LINE
  5
203
330
1F
100
AcDbEntity
  8
1
100
AcDbLine
 10
15.47792651594914
 20
-15.3463537379
 30
0.0
 11
15.57394214814914
 21
-14.9389885872
 31
0.0
  0
LINE
  5
204
330
1F
100
AcDbEntity
  8
1
100
AcDbLine
 10
15.57394214814914
 20
-14.9389885872
 30
0.0
 11
15.60236611314914
 21
-14.5235078915
 31
0.0
  0
LINE
  5
205
330
1F
100
AcDbEntity
  8
1
100
AcDbLine
 10
15.60236611314914
 20
-14.5235078915
 30
0.0
 11
15.56259491384914
 21
-14.1087675973
 31
0.0
  0
LINE
  5
206
330
1F
100
AcDbEntity
  8
1
100
AcDbLine
 10
15.56259491384914
 20
-14.1087675973
 30
0.0
 11
15.45547419134914
 21
-13.7036068871
 31
0.0
  0
LINE
  5
207
330
1F
100
AcDbEntity
  8
1
100
AcDbLine
 10
15.45547419134914
 20
-13.7036068871
 30
0.0
 11
15.28328754844914
 21
-13.3166609838
 31
0.0
  0
LINE
  5
208
330
1F
100
AcDbEntity
  8
1
100
AcDbLine
 10
15.28328754844914
 20
-13.3166609838
 30
0.0
 11
15.04970067084914
 21
-12.9561767488
 31
0.0
  0
LINE
  5
209
330
1F
100
AcDbEntity
  8
1
100
AcDbLine
 10
15.04970067084914
 20
-12.9561767488
 30
0.0
 11
14.75969799704914
 21
-12.629836662
 31
0.0
  0
LINE
  5
20A
330
1F
100
AcDbEntity
  8
1
100
AcDbLine
 10
14.75969799704914
 20
-12.629836662
 30
0.0
 11
14.41945605814914
 21
-12.3445977031
 31
0.0
  0
LINE
  5
20B
330
1F
100
AcDbEntity
  8
1
100
AcDbLine
 10
14.41945605814914
 20
-12.3445977031
 30
0.0
 11
14.03623171994914
 21
-12.1065376832
 31
0.0
  0
LINE
  5
20C
330
1F
100
AcDbEntity
  8
1
100
AcDbLine
 10
14.03623171994914
 20
-12.1065376832
 30
0.0
 11
13.61818709314914
 21
-11.9207323103
 31
0.0
  0
LINE
  5
20D
330
1F
100
AcDbEntity
  8
1
100
AcDbLine
 10
13.61818709314914
 20
-11.9207323103
 30
0.0
 11
13.17423307244914
 21
-11.7911397054
 31
0.0
  0
LINE
  5
20E
330
1F
100
AcDbEntity
  8
1
100
AcDbLine
 10
13.17423307244914
 20
-11.7911397054
 30
0.0
 11
12.71383562034914
 21
-11.7205221712
 31
0.0
  0
LINE
  5
20F
330
1F
100
AcDbEntity
  8
1
100
AcDbLine
 10
12.71383562034914
 20
-11.7205221712
 30
0.0
 11
12.24680342624914
 21
-11.7103865876
 31
0.0
  0
LINE
  5
210
330
1F
100
AcDbEntity
  8
1
100
AcDbLine
 10
12.24680342624914
 20
-11.7103865876
 30
0.0
 11
11.78309419104914
 21
-11.7609471588
 31
0.0
  0
LINE
  5
211
330
1F
100
AcDbEntity
  8
1
100
AcDbLine
 10
11.78309419104914
 20
-11.7609471588
 30
0.0
 11
11.33258738464914
 21
-11.8711263447
 31
0.0
  0
LINE
  5
212
330
1F
100
AcDbEntity
  8
1
100
AcDbLine
 10
11.33258738464914
 20
-11.8711263447
 30
0.0
 11
10.90488680544914
 21
-12.0385772123
 31
0.0
  0
LINE
  5
213
330
1F
100
AcDbEntity
  8
1
100
AcDbLine
 10
10.90488680544914
 20
-12.0385772123
 30
0.0
 11
10.50910451354914
 21
-12.2597300022
 31
0.0
  0
LINE
  5
214
330
1F
100
AcDbEntity
  8
1
100
AcDbLine
 10
10.50910451354914
 20
-12.2597300022
 30
0.0
 11
10.15368201674914
 21
-12.5298703595
 31
0.0
  0
LINE
  5
215
330
1F
100
AcDbEntity
  8
1
100
AcDbLine
 10
10.15368201674914
 20
-12.5298703595
 30
0.0
 11
9.846189104949142
 21
-12.8432427107
 31
0.0
  0
LINE
  5
216
330
1F
100
AcDbEntity
  8
1
100
AcDbLine
 10
9.846189104949142
 20
-12.8432427107
 30
0.0
 11
9.593182289049142
 21
-13.1931666791
 31
0.0
  0
LINE
  5
217
330
1F
100
AcDbEntity
  8
1
100
AcDbLine
 10
9.593182289049142
 20
-13.1931666791
 30
0.0
 11
9.400055789449143
 21
-13.5721842333
 31
0.0
  0
LINE
  5
218
330
1F
100
AcDbEntity
  8
1
100
AcDbLine
 10
9.400055789449143
 20
-13.5721842333
 30
0.0
 11
9.270922326449142
 21
-13.9722170814
 31
0.0
  0
LINE
  5
219
330
1F
100
AcDbEntity
  8
1
100
AcDbLine
 10
9.270922326449142
 20
-13.9722170814
 30
0.0
 11
9.208534889849142
 21
-14.3847408279
 31
0.0
  0
LINE
  5
21A
330
1F
100
AcDbEntity
  8
1
100
AcDbLine
 10
9.208534889849142
 20
-14.3847408279
 30
0.0
 11
9.214223408149142
 21
-14.8009609937
 31
0.0
  0
LINE
  5
21B
330
1F
100
AcDbEntity
  8
1
100
AcDbLine
 10
9.214223408149142
 20
-14.8009609937
 30
0.0
 11
9.287864946749142
 21
-15.2120085939
 31
0.0
  0
LINE
  5
21C
330
1F
100
AcDbEntity
  8
1
100
AcDbLine
 10
9.287864946749142
 20
-15.2120085939
 30
0.0
 11
9.427894883849142
 21
-15.6091217457
 31
0.0
  0
LINE
  5
21D
330
1F
100
AcDbEntity
  8
1
100
AcDbLine
 10
9.427894883849142
 20
-15.6091217457
 30
0.0
 11
9.631325536449141
 21
-15.9838365897
 31
0.0
  0
LINE
  5
21E
330
1F
100
AcDbEntity
  8
1
100
AcDbLine
 10
10.67260377944914
 20
-15.4481770976
 30
0.0
 11
10.88559352704914
 21
-15.7162638887
 31
0.0
  0
LINE
  5
21F
330
1F
100
AcDbEntity
  8
1
100
AcDbLine
 10
10.88559352704914
 20
-15.7162638887
 30
0.0
 11
11.15024187514914
 21
-15.944912894
 31
0.0
  0
LINE
  5
220
330
1F
100
AcDbEntity
  8
1
100
AcDbLine
 10
11.15024187514914
 20
-15.944912894
 30
0.0
 11
11.45753734654914
 21
-16.1263419821
 31
0.0
  0
LINE
  5
221
330
1F
100
AcDbEntity
  8
1
100
AcDbLine
 10
11.45753734654914
 20
-16.1263419821
 30
0.0
 11
11.79701932614914
 21
-16.2543708964
 31
0.0
  0
LINE
  5
222
330
1F
100
AcDbEntity
  8
1
100
AcDbLine
 10
11.79701932614914
 20
-16.2543708964
 30
0.0
 11
12.15712078754914
 21
-16.324637322
 31
0.0
  0
LINE
  5
223
330
1F
100
AcDbEntity
  8
1
100
AcDbLine
 10
12.15712078754914
 20
-16.324637322
 30
0.0
 11
12.52558180034914
 21
-16.3347533478
 31
0.0
  0
LINE
  5
224
330
1F
100
AcDbEntity
  8
1
100
AcDbLine
 10
12.52558180034914
 20
-16.3347533478
 30
0.0
 11
12.88985558694914
 21
-16.2843706592
 31
0.0
  0
LINE
  5
225
330
1F
100
AcDbEntity
  8
1
100
AcDbLine
 10
12.88985558694914
 20
-16.2843706592
 30
0.0
 11
13.23753693044914
 21
-16.1752066149
 31
0.0
  0
LINE
  5
226
330
1F
100
AcDbEntity
  8
1
100
AcDbLine
 10
13.23753693044914
 20
-16.1752066149
 30
0.0
 11
13.55678313324914
 21
-16.0109771921
 31
0.0
  0
LINE
  5
227
330
1F
100
AcDbEntity
  8
1
100
AcDbLine
 10
13.55678313324914
 20
-16.0109771921
 30
0.0
 11
13.83672752324914
 21
-15.7972759142
 31
0.0
  0
LINE
  5
228
330
1F
100
AcDbEntity
  8
1
100
AcDbLine
 10
13.83672752324914
 20
-15.7972759142
 30
0.0
 11
14.06783708274914
 21
-15.5413819983
 31
0.0
  0
LINE
  5
229
330
1F
100
AcDbEntity
  8
1
100
AcDbLine
 10
14.06783708274914
 20
-15.5413819983
 30
0.0
 11
14.24223654814914
 21
-15.2520070358
 31
0.0
  0
LINE
  5
22A
330
1F
100
AcDbEntity
  8
1
100
AcDbLine
 10
14.24223654814914
 20
-15.2520070358
 30
0.0
 11
14.35398780644914
 21
-14.9390062823
 31
0.0
  0
LINE
  5
22B
330
1F
100
AcDbEntity
  8
1
100
AcDbLine
 10
14.35398780644914
 20
-14.9390062823
 30
0.0
 11
14.39929106184914
 21
-14.6130377932
 31
0.0
  0
LINE
  5
22C
330
1F
100
AcDbEntity
  8
1
100
AcDbLine
 10
14.39929106184914
 20
-14.6130377932
 30
0.0
 11
14.37659659334914
 21
-14.2852038651
 31
0.0
  0
LINE
  5
22D
330
1F
100
AcDbEntity
  8
1
100
AcDbLine
 10
14.37659659334914
 20
-14.2852038651
 30
0.0
 11
14.28667926134914
 21
-13.9666663988
 31
0.0
  0
LINE
  5
22E
330
1F
100
AcDbEntity
  8
1
100
AcDbLine
 10
14.28667926134914
 20
-13.9666663988
 30
0.0
 11
14.13260497994914
 21
-13.6682743712
 31
0.0
  0
LINE
  5
22F
330
1F
100
AcDbEntity
  8
1
100
AcDbLine
 10
14.13260497994914
 20
-13.6682743712
 30
0.0
 11
13.91961523244914
 21
-13.4001885115
 31
0.0
  0
LINE
  5
230
330
1F
100
AcDbEntity
  8
1
100
AcDbLine
 10
13.91961523244914
 20
-13.4001885115
 30
0.0
 11
13.65496688434914
 21
-13.1715376436
 31
0.0
  0
LINE
  5
231
330
1F
100
AcDbEntity
  8
1
100
AcDbLine
 10
13.65496688434914
 20
-13.1715376436
 30
0.0
 11
13.34767141284914
 21
-12.9901094868
 31
0.0
  0
LINE
  5
232
330
1F
100
AcDbEntity
  8
1
100
AcDbLine
 10
13.34767141284914
 20
-12.9901094868
 30
0.0
 11
13.00819315854914
 21
-12.8620815038
 31
0.0
  0
LINE
  5
233
330
1F
100
AcDbEntity
  8
1
100
AcDbLine
 10
13.00819315854914
 20
-12.8620815038
 30
0.0
 11
12.64809169714914
 21
-12.7918132155
 31
0.0
  0
LINE
  5
234
330
1F
100
AcDbEntity
  8
1
100
AcDbLine
 10
12.64809169714914
 20
-12.7918132155
 30
0.0
 11
12.27963068434914
 21
-12.7816990524
 31
0.0
  0
LINE
  5
235
330
1F
100
AcDbEntity
  8
1
100
AcDbLine
 10
12.27963068434914
 20
-12.7816990524
 30
0.0
 11
11.91535689774914
 21
-12.8320808097
 31
0.0
  0
LINE
  5
236
330
1F
100
AcDbEntity
  8
1
100
AcDbLine
 10
11.91535689774914
 20
-12.8320808097
 30
0.0
 11
11.56767555424914
 21
-12.9412457853
 31
0.0
  0
LINE
  5
237
330
1F
100
AcDbEntity
  8
1
100
AcDbLine
 10
11.56767555424914
 20
-12.9412457853
 30
0.0
 11
11.24842562624914
 21
-13.1054742767
 31
0.0
  0
LINE
  5
238
330
1F
100
AcDbEntity
  8
1
100
AcDbLine
 10
11.24842562624914
 20
-13.1054742767
 30
0.0
 11
10.96848123614914
 21
-13.3191746234
 31
0.0
  0
LINE
  5
239
330
1F
100
AcDbEntity
  8
1
100
AcDbLine
 10
10.96848123614914
 20
-13.3191746234
 30
0.0
 11
10.73737540194914
 21
-13.5750694706
 31
0.0
  0
LINE
  5
23A
330
1F
100
AcDbEntity
  8
1
100
AcDbLine
 10
10.73737540194914
 20
-13.5750694706
 30
0.0
 11
10.56297593654914
 21
-13.8644444331
 31
0.0
  0
LINE
  5
23B
330
1F
100
AcDbEntity
  8
1
100
AcDbLine
 10
10.56297593654914
 20
-13.8644444331
 30
0.0
 11
10.45122095294914
 21
-14.1774451866
 31
0.0
  0
LINE
  5
23C
330
1F
100
AcDbEntity
  8
1
100
AcDbLine
 10
10.45122095294914
 20
-14.1774451866
 30
0.0
 11
10.40592142284914
 21
-14.5034136756
 31
0.0
  0
LINE
  5
23D
330
1F
100
AcDbEntity
  8
1
100
AcDbLine
 10
10.40592142284914
 20
-14.5034136756
 30
0.0
 11
10.42861589134914
 21
-14.8312485351
 31
0.0
  0
LINE
  5
23E
330
1F
100
AcDbEntity
  8
1
100
AcDbLine
 10
10.42861589134914
 20
-14.8312485351
 30
0.0
 11
10.51852949804914
 21
-15.14978507
 31
0.0
  0
LINE
  5
23F
330
1F
100
AcDbEntity
  8
1
100
AcDbLine
 10
10.51852949804914
 20
-15.14978507
 30
0.0
 11
10.67260377944914
 21
-15.4481770976
 31
0.0
  0
LINE
  5
240
330
1F
100
AcDbEntity
  8
1
100
AcDbLine
 10
11.53658055604914
 20
-15.2646730228
 30
0.0
 11
11.53658055604914
 21
-13.4305514901
 31
0.0
  0
LINE
  5
241
330
1F
100
AcDbEntity
  8
1
100
AcDbLine
 10
11.53658055604914
 20
-15.2646730228
 30
0.0
 11
11.21135153714914
 21
-15.7665869727
 31
0.0
  0
LINE
  5
242
330
1F
100
AcDbEntity
  8
1
100
AcDbLine
 10
13.26863192854914
 20
-15.2646730228
 30
0.0
 11
13.26863192854914
 21
-13.4305514901
 31
0.0
  0
LINE
  5
243
330
1F
100
AcDbEntity
  8
1
100
AcDbLine
 10
13.26863192854914
 20
-15.2646730228
 30
0.0
 11
13.59483697354914
 21
-15.7680938526
 31
0.0
  0
LINE
  5
245
330
1F
100
AcDbEntity
  8
1
100
AcDbLine
 10
11.53658055604914
 20
-15.2646730228
 30
0.0
 11
13.26863192854914
 21
-15.2646730228
 31
0.0
  0
LINE
  5
246
330
1F
100
AcDbEntity
  8
1
100
AcDbLine
 10
12.45260378124914
 20
24.47788198
 30
0.0
 11
42.15260362034914
 21
24.4779055378
 31
0.0
  0
LINE
  5
247
330
1F
100
AcDbEntity
  8
1
100
AcDbLine
 10
42.15259844704914
 20
31.0000070796
 30
0.0
 11
42.15260859984915
 21
18.2000444642
 31
0.0
  0
LINE
  5
248
330
1F
100
AcDbEntity
  8
1
100
AcDbLine
 10
5.152606868749142
 20
24.4778761897
 30
0.0
 11
12.35260581374914
 21
24.4778819007
 31
0.0
  0
LINE
  5
249
330
1F
100
AcDbEntity
  8
1
100
AcDbLine
 10
12.35260581374914
 20
24.4778819007
 30
0.0
 11
12.35260648794914
 21
23.6278824133
 31
0.0
  0
LINE
  5
24A
330
1F
100
AcDbEntity
  8
1
100
AcDbLine
 10
12.35260648794914
 20
23.6278824133
 30
0.0
 11
12.45260445544914
 21
23.6278824926
 31
0.0
  0
LINE
  5
24B
330
1F
100
AcDbEntity
  8
1
100
AcDbLine
 10
12.45260445544914
 20
23.6278824926
 30
0.0
 11
12.45260378124914
 21
24.47788198
 31
0.0
  0
LINE
  5
24C
330
1F
100
AcDbEntity
  8
1
100
AcDbLine
 10
12.32760497274914
 20
23.0778699235
 30
0.0
 11
12.32760497274914
 21
21.8778700993
 31
0.0
  0
LINE
  5
24D
330
1F
100
AcDbEntity
  8
1
100
AcDbLine
 10
12.32760497274914
 20
21.8778700993
 30
0.0
 11
12.47760378664914
 21
21.8778700993
 31
0.0
  0
LINE
  5
24E
330
1F
100
AcDbEntity
  8
1
100
AcDbLine
 10
12.47760378664914
 20
21.8778700993
 30
0.0
 11
12.47760378664914
 21
23.0778699235
 31
0.0
  0
LINE
  5
24F
330
1F
100
AcDbEntity
  8
1
100
AcDbLine
 10
12.47760378664914
 20
23.0778699235
 30
0.0
 11
12.32760497274914
 21
23.0778699235
 31
0.0
  0
LINE
  5
251
330
1F
100
AcDbEntity
  8
1
100
AcDbLine
 10
18.78571235484914
 20
25.4310370849
 30
0.0
 11
18.75683017914914
 21
25.2977909015
 31
0.0
  0
LINE
  5
252
330
1F
100
AcDbEntity
  8
1
100
AcDbLine
 10
18.75683017914914
 20
25.2977909015
 30
0.0
 11
18.66984465064914
 21
25.1864028589
 31
0.0
  0
LINE
  5
253
330
1F
100
AcDbEntity
  8
1
100
AcDbLine
 10
18.66984465064914
 20
25.1864028589
 30
0.0
 11
18.40452947564914
 21
25.05420907
 31
0.0
  0
LINE
  5
254
330
1F
100
AcDbEntity
  8
1
100
AcDbLine
 10
18.40452947564914
 20
25.05420907
 30
0.0
 11
18.10512416904914
 21
24.9984787271
 31
0.0
  0
LINE
  5
255
330
1F
100
AcDbEntity
  8
1
100
AcDbLine
 10
18.10512416904914
 20
24.9984787271
 30
0.0
 11
17.79933371484914
 21
24.9841046945
 31
0.0
  0
LINE
  5
256
330
1F
100
AcDbEntity
  8
1
100
AcDbLine
 10
17.79933371484914
 20
25.8751121775
 30
0.0
 11
18.10463988134914
 21
25.8612112568
 31
0.0
  0
LINE
  5
257
330
1F
100
AcDbEntity
  8
1
100
AcDbLine
 10
18.10463988134914
 20
25.8612112568
 30
0.0
 11
18.40362423004914
 21
25.8058962838
 31
0.0
  0
LINE
  5
258
330
1F
100
AcDbEntity
  8
1
100
AcDbLine
 10
18.40362423004914
 20
25.8058962838
 30
0.0
 11
18.66895803154914
 21
25.6746673451
 31
0.0
  0
LINE
  5
259
330
1F
100
AcDbEntity
  8
1
100
AcDbLine
 10
18.66895803154914
 20
25.6746673451
 30
0.0
 11
18.75631608904914
 21
25.5639032886
 31
0.0
  0
LINE
  5
25A
330
1F
100
AcDbEntity
  8
1
100
AcDbLine
 10
18.75631608904914
 20
25.5639032886
 30
0.0
 11
18.78571235484914
 21
25.4310370849
 31
0.0
  0
LINE
  5
25B
330
1F
100
AcDbEntity
  8
1
100
AcDbLine
 10
16.81135320014914
 20
25.4310370849
 30
0.0
 11
16.84079044404914
 21
25.5640616135
 31
0.0
  0
LINE
  5
25C
330
1F
100
AcDbEntity
  8
1
100
AcDbLine
 10
16.84079044404914
 20
25.5640616135
 30
0.0
 11
16.92853220644914
 21
25.6748405711
 31
0.0
  0
LINE
  5
25D
330
1F
100
AcDbEntity
  8
1
100
AcDbLine
 10
16.92853220644914
 20
25.6748405711
 30
0.0
 11
17.19432421864914
 21
25.8059391246
 31
0.0
  0
LINE
  5
25E
330
1F
100
AcDbEntity
  8
1
100
AcDbLine
 10
17.19432421864914
 20
25.8059391246
 30
0.0
 11
17.49367737114914
 21
25.86122057
 31
0.0
  0
LINE
  5
25F
330
1F
100
AcDbEntity
  8
1
100
AcDbLine
 10
17.49367737114914
 20
25.86122057
 30
0.0
 11
17.79933371484914
 21
25.8751121775
 31
0.0
  0
LINE
  5
260
330
1F
100
AcDbEntity
  8
1
100
AcDbLine
 10
17.79933371484914
 20
24.9841046945
 30
0.0
 11
17.49327876514914
 21
24.9984675513
 31
0.0
  0
LINE
  5
261
330
1F
100
AcDbEntity
  8
1
100
AcDbLine
 10
17.49327876514914
 20
24.9984675513
 30
0.0
 11
17.19362013884914
 21
25.0542053447
 31
0.0
  0
LINE
  5
262
330
1F
100
AcDbEntity
  8
1
100
AcDbLine
 10
17.19362013884914
 20
25.0542053447
 30
0.0
 11
16.92802556694914
 21
25.1865723596
 31
0.0
  0
LINE
  5
263
330
1F
100
AcDbEntity
  8
1
100
AcDbLine
 10
16.92802556694914
 20
25.1865723596
 30
0.0
 11
16.84058182784914
 21
25.297772275
 31
0.0
  0
LINE
  5
264
330
1F
100
AcDbEntity
  8
1
100
AcDbLine
 10
16.84058182784914
 20
25.297772275
 30
0.0
 11
16.81135320014914
 21
25.4310370849
 31
0.0
  0
LINE
  5
265
330
1F
100
AcDbEntity
  8
1
100
AcDbLine
 10
15.90224606454914
 20
27.7685155932
 30
0.0
 11
15.85998229664914
 21
28.2091615227
 31
0.0
  0
LINE
  5
266
330
1F
100
AcDbEntity
  8
1
100
AcDbLine
 10
15.85998229664914
 20
28.2091615227
 30
0.0
 11
15.74818226764914
 21
28.6400508617
 31
0.0
  0
LINE
  5
267
330
1F
100
AcDbEntity
  8
1
100
AcDbLine
 10
15.74818226764914
 20
28.6400508617
 30
0.0
 11
15.56910351054914
 21
29.0525148615
 31
0.0
  0
LINE
  5
268
330
1F
100
AcDbEntity
  8
1
100
AcDbLine
 10
15.56910351054914
 20
29.0525148615
 30
0.0
 11
15.32633721174914
 21
29.4382610287
 31
0.0
  0
LINE
  5
269
330
1F
100
AcDbEntity
  8
1
100
AcDbLine
 10
15.32633721174914
 20
29.4382610287
 30
0.0
 11
15.02477095814914
 21
29.7895295876
 31
0.0
  0
LINE
  5
26A
330
1F
100
AcDbEntity
  8
1
100
AcDbLine
 10
15.02477095814914
 20
29.7895295876
 30
0.0
 11
14.67047325334914
 21
30.09925553
 31
0.0
  0
LINE
  5
26B
330
1F
100
AcDbEntity
  8
1
100
AcDbLine
 10
14.67047325334914
 20
30.09925553
 30
0.0
 11
14.27056313204914
 21
30.3612120386
 31
0.0
  0
LINE
  5
26C
330
1F
100
AcDbEntity
  8
1
100
AcDbLine
 10
14.27056313204914
 20
30.3612120386
 30
0.0
 11
13.83308350014914
 21
30.5701296969
 31
0.0
  0
LINE
  5
26D
330
1F
100
AcDbEntity
  8
1
100
AcDbLine
 10
13.83308350014914
 20
30.5701296969
 30
0.0
 11
13.36683722194914
 21
30.7218063842
 31
0.0
  0
LINE
  5
26E
330
1F
100
AcDbEntity
  8
1
100
AcDbLine
 10
13.36683722194914
 20
30.7218063842
 30
0.0
 11
12.88119713024914
 21
30.813192958
 31
0.0
  0
LINE
  5
26F
330
1F
100
AcDbEntity
  8
1
100
AcDbLine
 10
12.88119713024914
 20
30.813192958
 30
0.0
 11
12.38593466304914
 21
30.8424509951
 31
0.0
  0
LINE
  5
270
330
1F
100
AcDbEntity
  8
1
100
AcDbLine
 10
12.38593466304914
 20
30.8424509951
 30
0.0
 11
11.89100379634914
 21
30.808990045
 31
0.0
  0
LINE
  5
271
330
1F
100
AcDbEntity
  8
1
100
AcDbLine
 10
11.89100379634914
 20
30.808990045
 30
0.0
 11
11.40636595604914
 21
30.7134862559
 31
0.0
  0
LINE
  5
272
330
1F
100
AcDbEntity
  8
1
100
AcDbLine
 10
11.40636595604914
 20
30.7134862559
 30
0.0
 11
10.94175904934914
 21
30.5578600225
 31
0.0
  0
LINE
  5
273
330
1F
100
AcDbEntity
  8
1
100
AcDbLine
 10
10.94175904934914
 20
30.5578600225
 30
0.0
 11
10.50653727774914
 21
30.3452387335
 31
0.0
  0
LINE
  5
274
330
1F
100
AcDbEntity
  8
1
100
AcDbLine
 10
10.50653727774914
 20
30.3452387335
 30
0.0
 11
10.10944389404914
 21
30.0798990291
 31
0.0
  0
LINE
  5
275
330
1F
100
AcDbEntity
  8
1
100
AcDbLine
 10
10.10944389404914
 20
30.0798990291
 30
0.0
 11
9.758469642049143
 21
29.7671792566
 31
0.0
  0
LINE
  5
276
330
1F
100
AcDbEntity
  8
1
100
AcDbLine
 10
9.758469642049143
 20
29.7671792566
 30
0.0
 11
9.460673941449143
 21
29.4133677116
 31
0.0
  0
LINE
  5
277
330
1F
100
AcDbEntity
  8
1
100
AcDbLine
 10
9.460673941449143
 20
29.4133677116
 30
0.0
 11
9.222043328349143
 21
29.0255797035
 31
0.0
  0
LINE
  5
278
330
1F
100
AcDbEntity
  8
1
100
AcDbLine
 10
9.222043328349143
 20
29.0255797035
 30
0.0
 11
9.047379695849141
 21
28.6116141311
 31
0.0
  0
LINE
  5
279
330
1F
100
AcDbEntity
  8
1
100
AcDbLine
 10
9.047379695849141
 20
28.6116141311
 30
0.0
 11
8.940195985849142
 21
28.1797951585
 31
0.0
  0
LINE
  5
27A
330
1F
100
AcDbEntity
  8
1
100
AcDbLine
 10
8.940195985849142
 20
28.1797951585
 30
0.0
 11
8.902641684149142
 21
27.7388101643
 31
0.0
  0
LINE
  5
27B
330
1F
100
AcDbEntity
  8
1
100
AcDbLine
 10
8.902641684149142
 20
27.7388101643
 30
0.0
 11
8.935480468149143
 21
27.2975272028
 31
0.0
  0
LINE
  5
27C
330
1F
100
AcDbEntity
  8
1
100
AcDbLine
 10
8.935480468149143
 20
27.2975272028
 30
0.0
 11
9.038045503849142
 21
26.8648199148
 31
0.0
  0
LINE
  5
27D
330
1F
100
AcDbEntity
  8
1
100
AcDbLine
 10
9.038045503849142
 20
26.8648199148
 30
0.0
 11
9.208276698849142
 21
26.4493905769
 31
0.0
  0
LINE
  5
27E
330
1F
100
AcDbEntity
  8
1
100
AcDbLine
 10
9.208276698849142
 20
26.4493905769
 30
0.0
 11
9.442750504749142
 21
26.0595950125
 31
0.0
  0
LINE
  5
27F
330
1F
100
AcDbEntity
  8
1
100
AcDbLine
 10
9.442750504749142
 20
26.0595950125
 30
0.0
 11
9.736754422949142
 21
25.7032730913
 31
0.0
  0
LINE
  5
280
330
1F
100
AcDbEntity
  8
1
100
AcDbLine
 10
9.736754422949142
 20
25.7032730913
 30
0.0
 11
10.08436896164914
 21
25.3875904045
 31
0.0
  0
LINE
  5
281
330
1F
100
AcDbEntity
  8
1
100
AcDbLine
 10
10.08436896164914
 20
25.3875904045
 30
0.0
 11
10.47860547134914
 21
25.1188929785
 31
0.0
  0
LINE
  5
282
330
1F
100
AcDbEntity
  8
1
100
AcDbLine
 10
10.47860547134914
 20
25.1188929785
 30
0.0
 11
10.91154025484914
 21
24.9025899287
 31
0.0
  0
LINE
  5
283
330
1F
100
AcDbEntity
  8
1
100
AcDbLine
 10
10.91154025484914
 20
24.9025899287
 30
0.0
 11
11.37445985504914
 21
24.7430267992
 31
0.0
  0
LINE
  5
284
330
1F
100
AcDbEntity
  8
1
100
AcDbLine
 10
11.37445985504914
 20
24.7430267992
 30
0.0
 11
11.85805476884914
 21
24.6434166455
 31
0.0
  0
LINE
  5
285
330
1F
100
AcDbEntity
  8
1
100
AcDbLine
 10
11.85805476884914
 20
24.6434166455
 30
0.0
 11
12.35260571234914
 21
24.6057580782
 31
0.0
  0
LINE
  5
286
330
1F
100
AcDbEntity
  8
1
100
AcDbLine
 10
12.35260571234914
 20
24.6057580782
 30
0.0
 11
12.35260581374914
 21
24.4778819007
 31
0.0
  0
LINE
  5
287
330
1F
100
AcDbEntity
  8
1
100
AcDbLine
 10
5.152601695449142
 20
31.0000070796
 30
0.0
 11
42.15259844704914
 21
31.0000070796
 31
0.0
  0
LINE
  5
289
330
1F
100
AcDbEntity
  8
1
100
AcDbLine
 10
12.45260378124914
 20
24.47788198
 30
0.0
 11
12.45260367984914
 21
24.6057581575
 31
0.0
  0
LINE
  5
28A
330
1F
100
AcDbEntity
  8
1
100
AcDbLine
 10
15.40838563224914
 20
26.1262805782
 30
0.0
 11
16.27471714584914
 21
25.680619199
 31
0.0
  0
LINE
  5
28B
330
1F
100
AcDbEntity
  8
1
100
AcDbLine
 10
16.27471714584914
 20
25.680619199
 30
0.0
 11
16.32471793104914
 21
25.7577830393
 31
0.0
  0
LINE
  5
28C
330
1F
100
AcDbEntity
  8
1
100
AcDbLine
 10
16.32471793104914
 20
25.7577830393
 30
0.0
 11
15.45838269214914
 21
26.2034444184
 31
0.0
  0
LINE
  5
28D
330
1F
100
AcDbEntity
  8
1
100
AcDbLine
 10
15.90224613514914
 20
27.6794159626
 30
0.0
 11
16.90260206424914
 21
27.6794167561
 31
0.0
  0
LINE
  5
28E
330
1F
100
AcDbEntity
  8
1
100
AcDbLine
 10
16.90260206424914
 20
27.6794167561
 30
0.0
 11
16.90260199364914
 21
27.7685163867
 31
0.0
  0
LINE
  5
28F
330
1F
100
AcDbEntity
  8
1
100
AcDbLine
 10
16.90260199364914
 20
27.7685163867
 30
0.0
 11
15.90224606454914
 21
27.7685155932
 31
0.0
  0
LINE
  5
290
330
1F
100
AcDbEntity
  8
1
100
AcDbLine
 10
19.00260620654914
 20
27.7907756583
 30
0.0
 11
18.47760477014914
 21
27.7907756583
 31
0.0
  0
LINE
  5
292
330
1F
100
AcDbEntity
  8
1
100
AcDbLine
 10
18.47760477014914
 20
28.2585547731
 30
0.0
 11
18.32760595624914
 21
28.2585547731
 31
0.0
  0
LINE
  5
294
330
1F
100
AcDbEntity
  8
1
100
AcDbLine
 10
18.32760595624914
 20
27.7907756583
 30
0.0
 11
17.80260451974914
 21
27.7907756583
 31
0.0
  0
LINE
  5
295
330
1F
100
AcDbEntity
  8
1
100
AcDbLine
 10
17.80260451974914
 20
27.7907756583
 30
0.0
 11
17.80260451974914
 21
27.6571252809
 31
0.0
  0
LINE
  5
296
330
1F
100
AcDbEntity
  8
1
100
AcDbLine
 10
17.80260451974914
 20
27.6571252809
 30
0.0
 11
18.32760595624914
 21
27.6571252809
 31
0.0
  0
LINE
  5
297
330
1F
100
AcDbEntity
  8
1
100
AcDbLine
 10
18.32760595624914
 20
27.6571252809
 30
0.0
 11
18.32760595624914
 21
27.189346166
 31
0.0
  0
LINE
  5
298
330
1F
100
AcDbEntity
  8
1
100
AcDbLine
 10
18.32760595624914
 20
27.189346166
 30
0.0
 11
18.47760477014914
 21
27.189346166
 31
0.0
  0
LINE
  5
299
330
1F
100
AcDbEntity
  8
1
100
AcDbLine
 10
18.47760477014914
 20
27.189346166
 30
0.0
 11
18.47760477014914
 21
27.6571252809
 31
0.0
  0
LINE
  5
29A
330
1F
100
AcDbEntity
  8
1
100
AcDbLine
 10
18.47760477014914
 20
27.6571252809
 30
0.0
 11
19.00260620654914
 21
27.6571252809
 31
0.0
  0
LINE
  5
29B
330
1F
100
AcDbEntity
  8
1
100
AcDbLine
 10
19.00260620654914
 20
27.6571252809
 30
0.0
 11
19.00260620654914
 21
27.7907756583
 31
0.0
  0
LINE
  5
29E
330
1F
100
AcDbEntity
  8
1
100
AcDbLine
 10
42.15260796534915
 20
19.0000431052
 30
0.0
 11
5.152611213749142
 21
19.0000137571
 31
0.0
  0
LINE
  5
29F
330
1F
100
AcDbEntity
  8
1
100
AcDbLine
 10
5.152611213749142
 20
19.0000137571
 30
0.0
 11
5.152601695449142
 21
31.0000070796
 31
0.0
  0
LINE
  5
2A0
330
1F
100
AcDbEntity
  8
1
100
AcDbLine
 10
12.35260539594914
 20
24.4754684583
 30
0.0
 11
12.45260336344914
 21
24.4754684583
 31
0.0
  0
LINE
  5
2A1
330
1F
100
AcDbEntity
  8
1
100
AcDbLine
 10
15.45838269214914
 20
26.2034444184
 30
0.0
 11
15.45838269574914
 21
26.1989051522
 31
0.0
  0
LINE
  5
2A2
330
1F
100
AcDbEntity
  8
1
100
AcDbLine
 10
15.90224606454914
 20
27.7685155932
 30
0.0
 11
15.90224606814914
 21
27.763976327
 31
0.0
  0
LINE
  5
2A3
330
1F
100
AcDbEntity
  8
1
100
AcDbLine
 10
17.79933371484914
 20
25.8705729113
 30
0.0
 11
18.10463988134914
 21
25.8566719905
 31
0.0
  0
LINE
  5
2A4
330
1F
100
AcDbEntity
  8
1
100
AcDbLine
 10
18.10463988134914
 20
25.8566719905
 30
0.0
 11
18.40362423004914
 21
25.8013570176
 31
0.0
  0
LINE
  5
2A5
330
1F
100
AcDbEntity
  8
1
100
AcDbLine
 10
18.40362423004914
 20
25.8013570176
 30
0.0
 11
18.66895803154914
 21
25.6701262162
 31
0.0
  0
LINE
  5
2A6
330
1F
100
AcDbEntity
  8
1
100
AcDbLine
 10
18.66895803154914
 20
25.6701262162
 30
0.0
 11
18.75631608904914
 21
25.5593640224
 31
0.0
  0
LINE
  5
2A7
330
1F
100
AcDbEntity
  8
1
100
AcDbLine
 10
18.75631608904914
 20
25.5593640224
 30
0.0
 11
18.78571235484914
 21
25.426495956
 31
0.0
  0
LINE
  5
2A8
330
1F
100
AcDbEntity
  8
1
100
AcDbLine
 10
16.81135320014914
 20
25.426495956
 30
0.0
 11
16.84079044404914
 21
25.5595204846
 31
0.0
  0
LINE
  5
2A9
330
1F
100
AcDbEntity
  8
1
100
AcDbLine
 10
16.84079044404914
 20
25.5595204846
 30
0.0
 11
16.92853220644914
 21
25.6703013049
 31
0.0
  0
LINE
  5
2AA
330
1F
100
AcDbEntity
  8
1
100
AcDbLine
 10
16.92853220644914
 20
25.6703013049
 30
0.0
 11
17.19432421864914
 21
25.8013998584
 31
0.0
  0
LINE
  5
2AB
330
1F
100
AcDbEntity
  8
1
100
AcDbLine
 10
17.19432421864914
 20
25.8013998584
 30
0.0
 11
17.49367737114914
 21
25.8566794411
 31
0.0
  0
LINE
  5
2AC
330
1F
100
AcDbEntity
  8
1
100
AcDbLine
 10
17.49367737114914
 20
25.8566794411
 30
0.0
 11
17.79933371484914
 21
25.8705729113
 31
0.0
  0
LINE
  5
2AD
330
1F
100
AcDbEntity
  8
1
100
AcDbLine
 10
16.88827671954914
 20
25.4239981488
 30
0.0
 11
16.91801571194914
 21
25.3046100453
 31
0.0
  0
LINE
  5
2AE
330
1F
100
AcDbEntity
  8
1
100
AcDbLine
 10
16.91801571194914
 20
25.3046100453
 30
0.0
 11
17.00442382044914
 21
25.2094530926
 31
0.0
  0
LINE
  5
2AF
330
1F
100
AcDbEntity
  8
1
100
AcDbLine
 10
17.00442382044914
 20
25.2094530926
 30
0.0
 11
17.25160428234914
 21
25.1025782392
 31
0.0
  0
LINE
  5
2B0
330
1F
100
AcDbEntity
  8
1
100
AcDbLine
 10
17.25160428234914
 20
25.1025782392
 30
0.0
 11
17.79973604624914
 21
25.0481051818
 31
0.0
  0
LINE
  5
2B1
330
1F
100
AcDbEntity
  8
1
100
AcDbLine
 10
17.79973604624914
 20
25.0481051818
 30
0.0
 11
18.34689923474914
 21
25.1024385408
 31
0.0
  0
LINE
  5
2B2
330
1F
100
AcDbEntity
  8
1
100
AcDbLine
 10
18.34689923474914
 20
25.1024385408
 30
0.0
 11
18.59339424314914
 21
25.2095406369
 31
0.0
  0
LINE
  5
2B3
330
1F
100
AcDbEntity
  8
1
100
AcDbLine
 10
18.59339424314914
 20
25.2095406369
 30
0.0
 11
18.67921748104914
 21
25.3048503266
 31
0.0
  0
LINE
  5
2B4
330
1F
100
AcDbEntity
  8
1
100
AcDbLine
 10
18.67921748104914
 20
25.3048503266
 30
0.0
 11
18.70878883544914
 21
25.4239981488
 31
0.0
  0
LINE
  5
2B5
330
1F
100
AcDbEntity
  8
1
100
AcDbLine
 10
17.79973604624914
 20
25.0481051818
 30
0.0
 11
17.79973604624914
 21
25.0526444481
 31
0.0
  0
LINE
  5
2B6
330
1F
100
AcDbEntity
  8
1
100
AcDbLine
 10
16.88827671954914
 20
25.4239981488
 30
0.0
 11
16.88827671954914
 21
25.4285374151
 31
0.0
  0
LINE
  5
2B7
330
1F
100
AcDbEntity
  8
1
100
AcDbLine
 10
16.88827671954914
 20
25.4285374151
 30
0.0
 11
16.91801571194914
 21
25.3091493116
 31
0.0
  0
LINE
  5
2B8
330
1F
100
AcDbEntity
  8
1
100
AcDbLine
 10
16.91801571194914
 20
25.3091493116
 30
0.0
 11
17.00442382044914
 21
25.2139923588
 31
0.0
  0
LINE
  5
2B9
330
1F
100
AcDbEntity
  8
1
100
AcDbLine
 10
17.00442382044914
 20
25.2139923588
 30
0.0
 11
17.25160428234914
 21
25.1071193681
 31
0.0
  0
LINE
  5
2BA
330
1F
100
AcDbEntity
  8
1
100
AcDbLine
 10
17.25160428234914
 20
25.1071193681
 30
0.0
 11
17.79973604624914
 21
25.0526444481
 31
0.0
  0
LINE
  5
2BB
330
1F
100
AcDbEntity
  8
1
100
AcDbLine
 10
18.70878883544914
 20
25.4239981488
 30
0.0
 11
18.70878883544914
 21
25.4285374151
 31
0.0
  0
LINE
  5
2BC
330
1F
100
AcDbEntity
  8
1
100
AcDbLine
 10
17.79973604624914
 20
25.0526444481
 30
0.0
 11
18.34689923474914
 21
25.1069778071
 31
0.0
  0
LINE
  5
2BD
330
1F
100
AcDbEntity
  8
1
100
AcDbLine
 10
18.34689923474914
 20
25.1069778071
 30
0.0
 11
18.59339424314914
 21
25.2140817658
 31
0.0
  0
LINE
  5
2BE
330
1F
100
AcDbEntity
  8
1
100
AcDbLine
 10
18.59339424314914
 20
25.2140817658
 30
0.0
 11
18.67921748104914
 21
25.3093895928
 31
0.0
  0
LINE
  5
2BF
330
1F
100
AcDbEntity
  8
1
100
AcDbLine
 10
18.67921748104914
 20
25.3093895928
 30
0.0
 11
18.70878883544914
 21
25.4285374151
 31
0.0
  0
LINE
  5
2C0
330
1F
100
AcDbEntity
  8
1
100
AcDbLine
 10
17.79973604624914
 20
25.806572424
 30
0.0
 11
17.25117214864914
 21
25.7512201981
 31
0.0
  0
LINE
  5
2C1
330
1F
100
AcDbEntity
  8
1
100
AcDbLine
 10
17.25117214864914
 20
25.7512201981
 30
0.0
 11
17.00409972014914
 21
25.6436002866
 31
0.0
  0
LINE
  5
2C2
330
1F
100
AcDbEntity
  8
1
100
AcDbLine
 10
17.00409972014914
 20
25.6436002866
 30
0.0
 11
16.91806786604914
 21
25.5480242387
 31
0.0
  0
LINE
  5
2C3
330
1F
100
AcDbEntity
  8
1
100
AcDbLine
 10
16.91806786604914
 20
25.5480242387
 30
0.0
 11
16.88827671954914
 21
25.4285374151
 31
0.0
  0
LINE
  5
2C4
330
1F
100
AcDbEntity
  8
1
100
AcDbLine
 10
18.70878883544914
 20
25.4285374151
 30
0.0
 11
18.67947080084914
 21
25.547918068
 31
0.0
  0
LINE
  5
2C5
330
1F
100
AcDbEntity
  8
1
100
AcDbLine
 10
18.67947080084914
 20
25.547918068
 30
0.0
 11
18.59373324454914
 21
25.64348294
 31
0.0
  0
LINE
  5
2C6
330
1F
100
AcDbEntity
  8
1
100
AcDbLine
 10
18.59373324454914
 20
25.64348294
 30
0.0
 11
18.34740587414914
 21
25.7514455781
 31
0.0
  0
LINE
  5
2C7
330
1F
100
AcDbEntity
  8
1
100
AcDbLine
 10
18.34740587414914
 20
25.7514455781
 30
0.0
 11
17.79973604624914
 21
25.806572424
 31
0.0
  0
LINE
  5
2C8
330
1F
100
AcDbEntity
  8
1
100
AcDbLine
 10
17.79933371484914
 20
25.8705729113
 30
0.0
 11
17.79933371484914
 21
25.8751121775
 31
0.0
  0
LINE
  5
2C9
330
1F
100
AcDbEntity
  8
1
100
AcDbLine
 10
16.32251256184914
 20
25.7543781221
 30
0.0
 11
15.45838269574914
 21
26.1989051522
 31
0.0
  0
LINE
  5
2CA
330
1F
100
AcDbEntity
  8
1
100
AcDbLine
 10
18.32760595624914
 20
27.7862363921
 30
0.0
 11
17.80260451974914
 21
27.7862363921
 31
0.0
  0
LINE
  5
2CB
330
1F
100
AcDbEntity
  8
1
100
AcDbLine
 10
18.47760477014914
 20
28.2540136443
 30
0.0
 11
18.32760595624914
 21
28.2540136443
 31
0.0
  0
LINE
  5
2CC
330
1F
100
AcDbEntity
  8
1
100
AcDbLine
 10
19.00260620654914
 20
27.7862363921
 30
0.0
 11
18.47760477014914
 21
27.7862363921
 31
0.0
  0
LINE
  5
2CD
330
1F
100
AcDbEntity
  8
1
100
AcDbLine
 10
16.90260199724914
 20
27.7639771205
 30
0.0
 11
15.90224606814914
 21
27.763976327
 31
0.0
  0
LINE
  5
2CE
330
1F
100
AcDbEntity
  8
1
100
AcDbLine
 10
18.32760595624914
 20
27.7862363921
 30
0.0
 11
18.32760595624914
 21
28.2585547731
 31
0.0
  0
LINE
  5
2CF
330
1F
100
AcDbEntity
  8
1
100
AcDbLine
 10
18.47760477014914
 20
27.7862363921
 30
0.0
 11
18.47760477014914
 21
28.2585547731
 31
0.0
  0
LINE
  5
2D0
330
1F
100
AcDbEntity
  8
1
100
AcDbLine
 10
4.352609482049142
 20
18.2000144816
 30
0.0
 11
4.508684120649142
 21
18.3560856424
 31
0.0
  0
LINE
  5
2D1
330
1F
100
AcDbEntity
  8
1
100
AcDbLine
 10
4.508684120649142
 20
18.3560856424
 30
0.0
 11
4.658757321149142
 21
18.5061609438
 31
0.0
  0
LINE
  5
2D2
330
1F
100
AcDbEntity
  8
1
100
AcDbLine
 10
4.658757321149142
 20
18.5061609438
 30
0.0
 11
4.797066064349142
 21
18.6444699064
 31
0.0
  0
LINE
  5
2D3
330
1F
100
AcDbEntity
  8
1
100
AcDbLine
 10
4.797066064349142
 20
18.6444699064
 30
0.0
 11
4.918294365149142
 21
18.765700262
 31
0.0
  0
LINE
  5
2D4
330
1F
100
AcDbEntity
  8
1
100
AcDbLine
 10
4.918294365149142
 20
18.765700262
 30
0.0
 11
5.017785614149142
 21
18.8651898064
 31
0.0
  0
LINE
  5
2D5
330
1F
100
AcDbEntity
  8
1
100
AcDbLine
 10
5.017785614149142
 20
18.8651898064
 30
0.0
 11
5.091713941549142
 21
18.939118251
 31
0.0
  0
LINE
  5
2D6
330
1F
100
AcDbEntity
  8
1
100
AcDbLine
 10
5.091713941549142
 20
18.939118251
 30
0.0
 11
5.137236952949142
 21
18.9846431972
 31
0.0
  0
LINE
  5
2D7
330
1F
100
AcDbEntity
  8
1
100
AcDbLine
 10
5.137236952949142
 20
18.9846431972
 30
0.0
 11
5.152611213749142
 21
19.0000137571
 31
0.0
  0
LINE
  5
2D9
330
1F
100
AcDbEntity
  8
1
100
AcDbLine
 10
20.92427606234914
 20
0.0000194275
 30
0.0
 11
42.15260890714914
 21
17.8127372078
 31
0.0
  0
LINE
  5
2DA
330
1F
100
AcDbEntity
  8
1
100
AcDbLine
 10
4.352604088449142
 20
24.9998129404
 30
0.0
 11
0.3905790421491421
 21
24.9998097977
 31
0.0
  0
LINE
  5
2DB
330
1F
100
AcDbEntity
  8
1
100
AcDbLine
 10
42.15260890714914
 20
17.8127372078
 30
0.0
 11
42.15260859984915
 21
18.2000444642
 31
0.0
  0
LINE
  5
2DC
330
1F
100
AcDbEntity
  8
1
100
AcDbLine
 10
-3.097395287550858
 20
24.8932149007
 30
0.0
 11
-3.147394229350858
 21
24.8403008377
 31
0.0
  0
LINE
  5
2DD
330
1F
100
AcDbEntity
  8
1
100
AcDbLine
 10
-3.397389230950858
 20
17.8999916811
 30
0.0
 11
-3.397394501050858
 21
24.5441754509
 31
0.0
  0
LINE
  5
2DE
330
1F
100
AcDbEntity
  8
1
100
AcDbLine
 10
5.152607146449142
 20
-11.0000075267
 30
0.0
 11
8.280610475549143
 21
-11.0000075267
 31
0.0
  0
LINE
  5
2DF
330
1F
100
AcDbEntity
  8
1
100
AcDbLine
 10
16.52459959264914
 20
-11.000007016
 30
0.0
 11
34.03355712764915
 21
-11.000007016
 31
0.0
  0
LINE
  5
2E0
330
1F
100
AcDbEntity
  8
1
100
AcDbLine
 10
12.40260624234914
 20
-10.5486967175
 30
0.0
 11
12.40260513374914
 21
-7.9756911618
 31
0.0
  0
LINE
  5
2E1
330
1F
100
AcDbEntity
  8
1
100
AcDbLine
 10
4.352604070649142
 20
-24.9998071395
 30
0.0
 11
4.352604070649142
 21
-8.5293676783
 31
0.0
  0
LINE
  5
2E2
330
1F
100
AcDbEntity
  8
CUT
100
AcDbLine
 10
42.95260184354915
 20
-26.029294221
 30
0.0
 11
42.95260513374915
 21
-26.4354271814
 31
0.0
  0
LINE
  5
2E3
330
1F
100
AcDbEntity
  8
CUT
100
AcDbLine
 10
42.95260300084914
 20
-23.5738811577
 30
0.0
 11
42.95259971064914
 21
-23.7700491283
 31
0.0
  0
LINE
  5
2E4
330
1F
100
AcDbEntity
  8
CUT
100
AcDbLine
 10
54.13970701754914
 20
26.4354274528
 30
0.0
 11
54.13970701754914
 21
23.5738802696
 31
0.0
  0
LINE
  5
2E5
330
1F
100
AcDbEntity
  8
CUT
100
AcDbLine
 10
53.34756128844914
 20
26.4354274528
 30
0.0
 11
53.34756128844914
 21
23.5738802696
 31
0.0
  0
LINE
  5
2E6
330
1F
100
AcDbEntity
  8
1
100
AcDbLine
 10
4.352609482049142
 20
18.2000144816
 30
0.0
 11
4.352604088449142
 21
24.9998129404
 31
0.0
  0
LINE
  5
2E7
330
1F
100
AcDbEntity
  8
1
100
AcDbLine
 10
42.15260859984915
 20
18.2000444642
 30
0.0
 11
4.352609482049142
 21
18.2000144816
 31
0.0
  0
LINE
  5
2E8
330
1F
100
AcDbEntity
  8
1
100
AcDbLine
 10
0.1506870749491421
 20
17.9999947246
 30
0.0
 11
0.1506815255491421
 21
24.9962594058
 31
0.0
  0
ARC
  5
2E9
330
1F
100
AcDbEntity
  8
1
100
AcDbCircle
 10
4.352605133749142
 20
-25.8000072943
 30
0.0
 40
0.8000000000000036
100
AcDbArc
 50
0.0
 51
61.88593528260003
  0
ARC
  5
2EA
330
1F
100
AcDbEntity
  8
1
100
AcDbCircle
 10
-0.3254089189508579
 20
17.3381129458
 30
0.0
 40
0.5275553785834274
100
AcDbArc
 50
301.5564900448001
 51
58.44344665090007
  0
ARC
  5
2EB
330
1F
100
AcDbEntity
  8
1
100
AcDbCircle
 10
14.60264017654914
 20
11.8315452348
 30
0.0
 40
5.000036635319835
100
AcDbArc
 50
180.0001571873
 51
221.3329469221
  0
CIRCLE
  5
2EC
330
1F
100
AcDbEntity
  8
1
100
AcDbCircle
 10
34.15257957624914
 20
-25.0000092268
 30
0.0
 40
3.249973095468278
  0
CIRCLE
  5
2ED
330
1F
100
AcDbEntity
  8
1
100
AcDbCircle
 10
20.15257790114914
 20
-25.0000092945
 30
0.0
 40
3.249973715160696
  0
ARC
  5
2EE
330
1F
100
AcDbEntity
  8
1
100
AcDbCircle
 10
12.63447868474914
 20
-14.8184567389
 30
0.0
 40
4.276051387675068
100
AcDbArc
 50
3.489050056200004
 51
93.1084359235
  0
ARC
  5
2EF
330
1F
100
AcDbEntity
  8
1
100
AcDbCircle
 10
12.17073527034914
 20
-14.8184623548
 30
0.0
 40
4.276056915562955
100
AcDbArc
 50
86.89158783009998
 51
176.5108790719
  0
ARC
  5
2F0
330
1F
100
AcDbEntity
  8
1
100
AcDbCircle
 10
-0.3254083799508579
 20
-17.3381275663
 30
0.0
 40
0.5275552051289351
100
AcDbArc
 50
301.5564456510999
 51
58.44351061129998
  0
ARC
  5
2F1
330
1F
100
AcDbEntity
  8
1
100
AcDbCircle
 10
-0.3011816940508579
 20
-50.1224775624
 30
0.0
 40
25.12748292435511
100
AcDbArc
 50
88.8786130247
 51
89.42569021020002
  0
ARC
  5
2F2
330
1F
100
AcDbEntity
  8
1
100
AcDbCircle
 10
-0.4045955998508579
 20
-13.2042454152
 30
0.0
 40
3.196970259177873
100
AcDbArc
 50
182.9272045495
 51
203.0012944335
  0
ARC
  5
2F3
330
1F
100
AcDbEntity
  8
1
100
AcDbCircle
 10
-2.341283066050858
 20
-19.6537017903
 30
0.0
 40
1.264290826929212
100
AcDbArc
 50
186.5209135006
 51
217.2699892093999
  0
ARC
  5
2F4
330
1F
100
AcDbEntity
  8
1
100
AcDbCircle
 10
-2.776347998150858
 20
-22.8940245308
 30
0.0
 40
0.8442439771976149
100
AcDbArc
 50
193.4624237224
 51
227.4370825317999
  0
ARC
  5
2F5
330
1F
100
AcDbEntity
  8
1
100
AcDbCircle
 10
-2.423312840750858
 20
-23.8065623734
 30
0.0
 40
1.386557219107803
100
AcDbArc
 50
212.1389631717
 51
228.2057773569999
  0
ARC
  5
2F6
330
1F
100
AcDbEntity
  8
1
100
AcDbCircle
 10
-3.950056381950858
 20
-25.2065703559
 30
0.0
 40
0.8005111931341699
100
AcDbArc
 50
41.162410048
 51
63.8612884317
  0
ARC
  5
2F7
330
1F
100
AcDbEntity
  8
CUT
100
AcDbCircle
 10
54.95260299294914
 20
-23.7046541909
 30
0.0
 40
0.2000000027158819
100
AcDbArc
 50
0.0
 51
84.24695243729956
  0
ARC
  5
2F9
330
1F
100
AcDbEntity
  8
CUT
100
AcDbCircle
 10
42.96773358334914
 20
-26.8448831739
 30
0.0
 40
0.8157293115133967
100
AcDbArc
 50
91.06289493880048
 51
182.1957326590999
  0
ARC
  5
2FA
330
1F
100
AcDbEntity
  8
CUT
100
AcDbCircle
 10
42.96569497044914
 20
-22.9569196491
 30
0.0
 40
0.8132349204668126
100
AcDbArc
 50
178.9329724819
 51
269.0773446494004
  0
ARC
  5
2FB
330
1F
100
AcDbEntity
  8
CUT
100
AcDbCircle
 10
42.95260513374915
 20
-27.2354271814
 30
0.0
 40
0.800000000000022
100
AcDbArc
 50
90.0
 51
180.0
  0
ARC
  5
2FC
330
1F
100
AcDbEntity
  8
CUT
100
AcDbCircle
 10
54.95260518614914
 20
-26.3046540841
 30
0.0
 40
0.2000000000000085
100
AcDbArc
 50
280.8322717237984
 51
359.9998577074002
  0
ARC
  5
2FD
330
1F
100
AcDbEntity
  8
CUT
100
AcDbCircle
 10
42.95260300084914
 20
-22.7738811577
 30
0.0
 40
0.8000000000000256
100
AcDbArc
 50
180.0
 51
270.0
  0
ARC
  5
2FF
330
1F
100
AcDbEntity
  8
CUT
100
AcDbCircle
 10
42.95260806064914
 20
27.2354323615
 30
0.0
 40
0.8000048581869268
100
AcDbArc
 50
180.0003118664
 51
269.9995547314005
  0
ARC
  5
300
330
1F
100
AcDbEntity
  8
CUT
100
AcDbCircle
 10
42.95260515934915
 20
22.7738771158
 30
0.0
 40
0.8000031537945687
100
AcDbArc
 50
90.00032319710006
 51
179.999810201
  0
ARC
  5
301
330
1F
100
AcDbEntity
  8
CUT
100
AcDbCircle
 10
54.95260251284914
 20
26.3046549358
 30
0.0
 40
0.2000002924639908
100
AcDbArc
 50
359.9998918014995
 51
79.16734512339781
  0
ARC
  5
302
330
1F
100
AcDbEntity
  8
CUT
100
AcDbCircle
 10
54.95260383374914
 20
23.7046545581
 30
0.0
 40
0.2000010338664361
100
AcDbArc
 50
275.753045197601
 51
359.9998067432998
  0
CIRCLE
  5
303
330
1F
100
AcDbEntity
  8
1
100
AcDbCircle
 10
20.15260513374914
 20
-25.0000072943
 30
0.0
 40
2.300000000000011
  0
CIRCLE
  5
304
330
1F
100
AcDbEntity
  8
1
100
AcDbCircle
 10
20.15260513374914
 20
-25.0000072943
 30
0.0
 40
3.000000000000018
  0
CIRCLE
  5
305
330
1F
100
AcDbEntity
  8
1
100
AcDbCircle
 10
34.15260513374915
 20
-25.0000072943
 30
0.0
 40
2.300000000000011
  0
CIRCLE
  5
306
330
1F
100
AcDbEntity
  8
1
100
AcDbCircle
 10
34.15260513374915
 20
-25.0000072943
 30
0.0
 40
3.000000000000007
  0
ARC
  5
307
330
1F
100
AcDbEntity
  8
1
100
AcDbCircle
 10
12.82497457504914
 20
27.8169665891
 30
0.0
 40
2.809229019941789
100
AcDbArc
 50
326.1197389275
 51
327.9951420968001
  0
ARC
  5
308
330
1F
100
AcDbEntity
  8
1
100
AcDbCircle
 10
8.357245053849143
 20
29.9629205797
 30
0.0
 40
3.367959729118867
100
AcDbArc
 50
313.3818978148
 51
340.7335825207999
  0
ARC
  5
309
330
1F
100
AcDbEntity
  8
1
100
AcDbCircle
 10
13.54026071744914
 20
28.4257787032
 30
0.0
 40
3.010734028604823
100
AcDbArc
 50
197.6061499759
 51
228.2783696884999
  0
ARC
  5
30A
330
1F
100
AcDbEntity
  8
1
100
AcDbCircle
 10
12.40260624234914
 20
28.2085626156
 30
0.0
 40
2.20697176925712
100
AcDbArc
 50
246.8958016938
 51
293.1041983053
  0
ARC
  5
30B
330
1F
100
AcDbEntity
  8
1
100
AcDbCircle
 10
10.95532211264914
 20
28.6264112179
 30
0.0
 40
3.367959729127596
100
AcDbArc
 50
313.3818978145
 51
340.7335825207999
  0
ARC
  5
30C
330
1F
100
AcDbEntity
  8
1
100
AcDbCircle
 10
16.53048458024914
 20
30.0163896933
 30
0.0
 40
3.463576212257053
100
AcDbArc
 50
199.6509825717
 51
226.2335370926
  0
ARC
  5
30D
330
1F
100
AcDbEntity
  8
1
100
AcDbCircle
 10
12.40260624234914
 20
30.8816065372
 30
0.0
 40
2.206994946086966
100
AcDbArc
 50
246.8960583899
 51
293.1039416101
  0
ARC
  5
30E
330
1F
100
AcDbEntity
  8
1
100
AcDbCircle
 10
12.67101955434914
 20
27.7758024289
 30
0.0
 40
1.735611561492719
100
AcDbArc
 50
325.539584121
 51
328.5752968313001
  0
ARC
  5
30F
330
1F
100
AcDbEntity
  8
1
100
AcDbCircle
 10
12.40260624234914
 20
-11.4005742406
 30
0.0
 40
2.206990739178757
100
AcDbArc
 50
246.8960117969
 51
293.1039882031
  0
ARC
  5
310
330
1F
100
AcDbEntity
  8
1
100
AcDbCircle
 10
8.274697471549143
 20
-12.2657685339
 30
0.0
 40
3.463610918129027
100
AcDbArc
 50
313.7666101071999
 51
340.3489066688002
  0
ARC
  5
311
330
1F
100
AcDbEntity
  8
1
100
AcDbCircle
 10
13.73431714994914
 20
-13.7306545654
 30
0.0
 40
3.234312791046752
100
AcDbArc
 50
198.6896116111
 51
227.1949080531
  0
ARC
  5
312
330
1F
100
AcDbEntity
  8
1
100
AcDbCircle
 10
12.40260624234914
 20
-14.0735893218
 30
0.0
 40
2.206994946122563
100
AcDbArc
 50
246.8960583914
 51
293.1039416094
  0
ARC
  5
313
330
1F
100
AcDbEntity
  8
1
100
AcDbCircle
 10
11.26492095194914
 20
-13.8563784647
 30
0.0
 40
3.010769439967314
100
AcDbArc
 50
311.7218151238999
 51
342.3936652126
  0
ARC
  5
314
330
1F
100
AcDbEntity
  8
1
100
AcDbCircle
 10
16.33241710444914
 20
-12.39413109
 30
0.0
 40
3.234338703611988
100
AcDbArc
 50
198.6897028494
 51
227.1947803701
  0
ARC
  5
315
330
1F
100
AcDbEntity
  8
1
100
AcDbCircle
 10
12.47182005044914
 20
28.2015737899
 30
0.0
 40
3.595866979035495
100
AcDbArc
 50
269.6938089808
 51
324.7508608218
  0
ARC
  5
316
330
1F
100
AcDbEntity
  8
1
100
AcDbCircle
 10
13.04055817914914
 20
27.735274283
 30
0.0
 40
2.862233063439495
100
AcDbArc
 50
327.6434072870999
 51
358.8817649973
  0
ARC
  5
317
330
1F
100
AcDbEntity
  8
1
100
AcDbCircle
 10
12.40260437974914
 20
28.5304539021
 30
0.0
 40
3.929565684276803
100
AcDbArc
 50
269.27096064
 51
270.72903936
  0
ARC
  5
318
330
1F
100
AcDbEntity
  8
1
100
AcDbCircle
 10
13.12748688834914
 20
27.7194233794
 30
0.0
 40
2.775116839175594
100
AcDbArc
 50
359.0801997029
 51
0.9198911903000045
  0
ARC
  5
319
330
1F
100
AcDbEntity
  8
1
100
AcDbCircle
 10
12.86109282634914
 20
27.8269977228
 30
0.0
 40
3.065387428031789
100
AcDbArc
 50
326.2001164058
 51
327.9187517749999
  0
ARC
  5
31A
330
1F
100
AcDbEntity
  8
1
100
AcDbCircle
 10
4.355616029049142
 20
25.7968219967
 30
0.0
 40
0.7970147474701097
100
AcDbArc
 50
269.7834771632999
 51
359.546652225
  0
ARC
  5
31B
330
1F
100
AcDbEntity
  8
1
100
AcDbCircle
 10
-0.1018606074508579
 20
50.1669853212
 30
0.0
 40
25.17199278243455
100
AcDbArc
 50
270.5748389190999
 51
271.1209487394
  0
ARC
  5
31C
330
1F
100
AcDbEntity
  8
1
100
AcDbCircle
 10
-2.223312232150858
 20
23.8065632577
 30
0.0
 40
1.386557219141785
100
AcDbArc
 50
131.7942680918
 51
147.8610822767
  0
POINT
  5
32D
330
1F
100
AcDbEntity
  8
1
100
AcDbPoint
 10
0.0026249671491421
 20
0.0
 30
0.0
  0
DIMENSION
  5
32E
330
1F
100
AcDbEntity
  8
SK2
100
AcDbDimension
280
     0
  2
_D
 10
62.77204755204914
 20
26.5046552282
 30
0.0
 11
62.77204755204914
 21
0.0017824168
 31
0.0
 70
   160
  1
%%c<> - 70
 71
     5
 42
53.0057456228
 73
     0
 74
     0
 75
     0
  3
SLDDIMSTYLE0
100
AcDbAlignedDimension
 13
54.99019209734914
 23
-26.5010903946
 33
0.0
 14
54.95260251284914
 24
26.5046552282
 34
0.0
 50
90.0
100
AcDbRotatedDimension
1001
ACAD
1000
DSTYLE
1002
{
1070
   140
1040
3.5
1070
   340
1005
38D
1070
   177
1070
   256
1070
   176
1070
   256
1070
   178
1070
   256
1070
   347
1005
14
1070
   346
1005
14
1070
   345
1005
14
1002
}
  0
DIMENSION
  5
33C
330
1F
100
AcDbEntity
  8
SK2
100
AcDbDimension
280
     0
  2
_D_1
 10
72.03710055344915
 20
-31.0000070796
 30
0.0
 11
72.03710055344915
 21
0.0
 31
0.0
 70
   160
  1
%%c64 - 81
 71
     5
 42
62.0000141592
 73
     0
 74
     0
 75
     0
  3
SLDDIMSTYLE1
100
AcDbAlignedDimension
 13
42.15259844704914
 23
31.0000070796
 33
0.0
 14
42.15260381574915
 24
-31.0000070796
 34
0.0
 50
90.0
100
AcDbRotatedDimension
1001
ACAD
1000
DSTYLE
1002
{
1070
   140
1040
3.5
1070
   340
1005
38D
1070
   177
1070
   256
1070
   176
1070
   256
1070
   178
1070
   256
1070
   347
1005
14
1070
   346
1005
14
1070
   345
1005
14
1002
}
  0
DIMENSION
  5
349
330
1F
100
AcDbEntity
  8
2
100
AcDbDimension
280
     0
  2
_D_2
 10
-3.397405687376109
 20
38.64708357745069
 30
0.0
 11
8.587132324849142
 21
38.6470930835
 31
0.0
 70
   160
  1
88
 71
     5
 42
58.54999870278095
 73
     0
 74
     0
 75
     0
  3
SLDDIMSTYLE2
100
AcDbAlignedDimension
 13
55.15260280534915
 23
26.3046545581
 33
0.0
 14
-3.397394501050858
 24
24.5441754509
 34
0.0
 50
0.0000454466
100
AcDbRotatedDimension
1001
ACAD
1000
DSTYLE
1002
{
1070
   140
1040
3.5
1070
   340
1005
38D
1070
   177
1070
   256
1070
   176
1070
   256
1070
   178
1070
   256
1070
   347
1005
14
1070
   346
1005
14
1070
   345
1005
14
1002
}
  0
MTEXT
  5
352
330
1F
100
AcDbEntity
  8
SK6
100
AcDbMText
 10
12.04946810519887
 20
-43.43334950668578
 30
0.0
 40
3.5
 41
0.0
 46
0.0
 71
     1
 72
     1
  1
639.653
  7
BMG_Text
 73
     1
 44
1.0
  0
LINE
  5
3F8
330
1F
100
AcDbEntity
  8
NOCUT
100
AcDbLine
 10
42.15260200555896
 20
22.77387976590442
 30
0.0
 11
42.15260890714914
 21
17.8127372078
 31
0.0
  0
LINE
  5
3F9
330
1F
100
AcDbEntity
  8
NOCUT
100
AcDbLine
 10
42.15260890714914
 20
17.8127372078
 30
0.0
 11
20.92427606234914
 21
0.0000194275
 31
0.0
  0
LINE
  5
3FA
330
1F
100
AcDbEntity
  8
NOCUT
100
AcDbLine
 10
20.92427606234914
 20
0.0000194275
 30
0.0
 11
0.0
 21
0.0
 31
0.0
  0
LINE
  5
3FB
330
1F
100
AcDbEntity
  8
NOCUT
100
AcDbLine
 10
0.0
 20
0.0
 30
0.0
 11
0.0000000000000015
 21
24.99460080141898
 31
0.0
  0
LINE
  5
3FC
330
1F
100
AcDbEntity
  8
NOCUT
100
AcDbLine
 10
0.0000000000000015
 20
24.99460080141898
 30
0.0
 11
4.352604092583411
 21
24.99460080141898
 31
0.0
  0
ARC
  5
3FD
330
1F
100
AcDbEntity
  8
NOCUT
100
AcDbCircle
 10
4.346631775969061
 20
25.80061601128014
 30
0.0
 40
0.8060373360417495
100
AcDbArc
 50
270.4245357525527
 51
359.2820217688604
  0
LINE
  5
3FF
330
1F
100
AcDbEntity
  8
NOCUT
100
AcDbLine
 10
5.152605827595929
 20
25.79051575398385
 30
0.0
 11
5.152605827595929
 21
31.00571551880402
 31
0.0
  0
LINE
  5
400
330
1F
100
AcDbEntity
  8
NOCUT
100
AcDbLine
 10
5.152605827595929
 20
31.00571551880402
 30
0.0
 11
42.1693773522296
 21
31.00571551880402
 31
0.0
  0
LINE
  5
401
330
1F
100
AcDbEntity
  8
NOCUT
100
AcDbLine
 10
42.1693773522296
 20
31.00571551880402
 30
0.0
 11
42.1693773522296
 21
27.24464868850221
 31
0.0
  0
ARC
  5
402
330
1F
100
AcDbEntity
  8
NOCUT
100
AcDbCircle
 10
42.95260806064914
 20
27.23543236150001
 30
0.0
 40
0.8000048581869325
100
AcDbArc
 50
180.0003118664006
 51
269.9995547314005
  0
LINE
  5
403
330
1F
100
AcDbEntity
  8
NOCUT
100
AcDbLine
 10
42.95260184348889
 20
26.43542750333723
 30
0.0
 11
54.15260397254914
 21
26.4354274528
 31
0.0
  0
LINE
  5
404
330
1F
100
AcDbEntity
  8
NOCUT
100
AcDbLine
 10
54.15260397254914
 20
26.4354274528
 30
0.0
 11
54.88174759214914
 21
26.4992193239
 31
0.0
  0
LINE
  5
405
330
1F
100
AcDbEntity
  8
NOCUT
100
AcDbLine
 10
54.88174759214914
 20
26.4992193239
 30
0.0
 11
54.99019079263876
 21
26.50109128225386
 31
0.0
  0
ARC
  5
406
330
1F
100
AcDbEntity
  8
NOCUT
100
AcDbCircle
 10
54.9526025129173
 20
26.30465493576745
 30
0.0
 40
0.2000002924322082
100
AcDbArc
 50
359.9998918064042
 51
79.16734513850483
  0
LINE
  5
407
330
1F
100
AcDbEntity
  8
NOCUT
100
AcDbLine
 10
55.15260280534915
 20
26.3046545581
 30
0.0
 11
55.15260280534915
 21
23.7018701596127
 31
0.0
  0
ARC
  5
408
330
1F
100
AcDbEntity
  8
NOCUT
100
AcDbCircle
 10
54.95238048418821
 20
23.70476875968522
 30
0.0
 40
0.2002433014446422
100
AcDbArc
 50
262.7920384041699
 51
359.1705922250698
  0
LINE
  5
409
330
1F
100
AcDbEntity
  8
NOCUT
100
AcDbLine
 10
54.92725573834915
 20
23.5061079258
 30
0.0
 11
54.14615549504914
 21
23.5738802696
 31
0.0
  0
LINE
  5
40A
330
1F
100
AcDbEntity
  8
NOCUT
100
AcDbLine
 10
54.14615549504914
 20
23.5738802696
 30
0.0
 11
42.95260064664853
 21
23.57388026958184
 31
0.0
  0
ARC
  5
40B
330
1F
100
AcDbEntity
  8
NOCUT
100
AcDbCircle
 10
42.95260515938014
 20
22.77387711578716
 30
0.0
 40
0.8000031538255697
100
AcDbArc
 50
90.00032319927604
 51
179.9998102000802
  0
LWPOLYLINE
  5
40D
330
1F
100
AcDbEntity
  8
INFTOTAL
100
AcDbPolyline
 90
        4
 70
     1
 43
0.0
 10
95.58277771392429
 20
63.76142446258613
 10
95.58277771392429
 20
-61.39711212277962
 10
-38.42941740802684
 20
-61.39711212277962
 10
-38.42941740802684
 20
63.76142446258613
  0
LINE
  5
43B
330
1F
100
AcDbEntity
  8
4
100
AcDbLine
 10
33.28657620494914
 20
0.0
 30
0.0
 11
0.0
 21
0.0
 31
0.0
  0
LWPOLYLINE
  5
43D
330
1F
100
AcDbEntity
  8
1
100
AcDbPolyline
 90
        8
 70
     0
 43
0.0
 10
-0.0493186355516428
 20
16.8885700302524
 10
-0.5421426631180957
 20
16.57266655225756
 10
-1.025590719952231
 20
16.25197016379534
 10
-1.499522990156823
 20
15.92657361206504
 10
-1.963802409853653
 20
15.59657100357966
 10
-2.418294706823186
 20
15.26205777694969
 10
-2.86286843933679
 20
14.92313067528176
 10
-3.297395034170496
 20
14.57988771820001
  0
LWPOLYLINE
  5
43E
330
1F
100
AcDbEntity
  8
1
100
AcDbPolyline
 90
        3
 70
     0
 43
0.0
 10
-0.0493181389365027
 20
17.78765555632293
 10
-0.2372373276927853
 20
17.89415504672776
 10
-0.4262747955572372
 20
17.99999278671318
  0
LWPOLYLINE
  5
43F
330
1F
100
AcDbEntity
  8
1
100
AcDbPolyline
 90
       10
 70
     0
 43
0.0
 10
-0.1653436877548415
 20
8.529353239897576
 10
-0.4553306755871418
 20
8.977235686038128
 10
-0.7601011058603717
 20
9.421834192043017
 10
-1.079543491355217
 20
9.862986120575316
 10
-1.413540977745406
 20
10.30053009508098
 10
-1.761971386343895
 20
10.73430605882153
 10
-2.124707258796697
 20
11.16415533342399
 10
-2.501615903708093
 20
11.58992067692655
 10
-2.892559445180062
 20
12.01144634129883
 10
-3.297394873248294
 20
12.42857812941561
  0
LWPOLYLINE
  5
440
330
1F
100
AcDbEntity
  8
1
100
AcDbPolyline
 90
       20
 70
     0
 43
0.0
 10
16.52459959263251
 20
-11.0000070160142
 10
16.40698616783135
 20
-10.72198969895286
 10
16.27450299127279
 20
-10.45252861783906
 10
16.12764202212123
 20
-10.19262438159348
 10
15.96694860961678
 20
-9.94324211102774
 10
15.79301946799136
 20
-9.705307854992943
 10
15.60650046064741
 20
-9.479705151616887
 10
15.40808420182758
 20
-9.267271747399327
 10
15.19850748468123
 20
-9.06879648634857
 10
14.97854854527819
 20
-8.885016380711122
 10
14.74902417272966
 20
-8.716613874171918
 10
14.51078667614735
 20
-8.564214307687838
 10
14.26472071970365
 20
-8.428383597364832
 10
14.01174003754552
 20
-8.309626133001561
 10
13.75278404076075
 20
-8.208382905103022
 10
13.48881432899618
 20
-8.12502986731927
 10
13.2208111196817
 20
-8.059876540390093
 10
12.94976960811933
 20
-8.013164862779728
 10
12.67669627195407
 20
-7.985068292269623
 10
12.40260513374917
 20
-7.975691161845364
  0
LWPOLYLINE
  5
441
330
1F
100
AcDbEntity
  8
1
100
AcDbPolyline
 90
       20
 70
     0
 43
0.0
 10
12.40260513374914
 20
-7.97569116184539
 10
12.12851396944705
 20
-7.985068294056966
 10
11.85544060747551
 20
-8.013164869915759
 10
11.58439907068686
 20
-8.059876556396429
 10
11.31639583701163
 20
-8.125029895651533
 10
11.05242610203199
 20
-8.208382949124944
 10
10.79347008345085
 20
-8.309626195959616
 10
10.5404893811793
 20
-8.428383682363524
 10
10.29442340655885
 20
-8.564214417665767
 10
10.05618589397813
 20
-8.71661401187879
 10
9.826661507837567
 20
-8.885016548685808
 10
9.606702557461782
 20
-9.068796686898356
 10
9.397125832158407
 20
-9.267271982580453
 10
9.198709568175909
 20
-9.47970542321652
 10
9.012190558823239
 20
-9.705308164512658
 10
8.838261418482531
 20
-9.943242459668618
 10
8.677568010674563
 20
-10.19262477024293
 10
8.53070704972753
 20
-10.45252904705942
 10
8.398223884955046
 20
-10.72199016897184
 10
8.28061047557151
 20
-11.0000075267173
  0
LWPOLYLINE
  5
442
330
1F
100
AcDbEntity
  8
1
100
AcDbPolyline
 90
        7
 70
     0
 43
0.0
 10
-3.297395034240534
 20
-19.46202830196026
 10
-2.736039658829178
 20
-19.196202154101
 10
-2.182482761641616
 20
-18.92497946470059
 10
-1.636879961686883
 20
-18.64843648139749
 10
-1.099384641873694
 20
-18.36665094750085
 10
-0.5701479058906536
 20
-18.079702080135
 10
-0.0493185357270889
 20
-17.78767054796939
  0
LWPOLYLINE
  5
443
330
1F
100
AcDbEntity
  8
1
100
AcDbPolyline
 90
        8
 70
     0
 43
0.0
 10
-3.297394873340725
 20
-14.57990234283692
 10
-2.86286824207215
 20
-14.92314532209405
 10
-2.418294471779706
 20
-15.26207244527208
 10
-1.963802135716232
 20
-15.59658569272699
 10
-1.49952267563997
 20
-15.92658832133263
 10
-1.025590363800877
 20
-16.25198489245936
 10
-0.5421422641083176
 20
-16.5726812995755
 10
-0.049318192491409
 20
-16.88858479546337
  0
LWPOLYLINE
  5
444
330
1F
100
AcDbEntity
  8
1
100
AcDbPolyline
 90
       10
 70
     0
 43
0.0
 10
-3.297395034250357
 20
-12.42859267419957
 10
-2.89255959040581
 20
-12.0114608753417
 10
-2.501616033932379
 20
-11.58993519992746
 10
-2.124707374808381
 20
-11.16416984509527
 10
-1.76197148894525
 20
-10.73432055888894
 10
-1.413541067751517
 20
-10.30054458328391
 10
-1.079543569593383
 20
-9.86300059666695
 10
-0.760101173169474
 20
-9.4218486557905
 10
-0.4553307328170177
 20
-8.977250137222745
 10
-0.1653437357656742
 20
-8.529367678314898
  0
LWPOLYLINE
  5
445
330
1F
100
AcDbEntity
  8
1
100
AcDbPolyline
 90
        6
 70
     0
 43
0.0
 10
-3.297394873301089
 20
-24.89321503347184
 10
-2.648999217761524
 20
-24.92509257123361
 10
-1.999847042748924
 20
-24.95134082222435
 10
-1.350084958142406
 20
-24.97195385832266
 10
-0.699859711568093
 20
-24.98692702411051
 10
-0.0493181552564292
 20
-24.9962569379247
  0
LWPOLYLINE
  5
446
330
1F
100
AcDbEntity
  8
1
100
AcDbPolyline
 90
        6
 70
     0
 43
0.0
 10
-3.297395034200241
 20
-24.72593054897759
 10
-2.644189697443495
 20
-24.66667628208777
 10
-1.99262767346943
 20
-24.60167026873427
 10
-1.342860892786748
 20
-24.53092766694706
 10
-0.6950408672913113
 20
-24.45446497240742
 10
-0.0493186549367746
 20
-24.37230001460147
  0
LWPOLYLINE
  5
447
330
1F
100
AcDbEntity
  8
1
100
AcDbPolyline
 90
        6
 70
     0
 43
0.0
 10
-3.297394987414325
 20
-23.5790731827258
 10
-2.654241404451083
 20
-23.70664383949585
 10
-2.00769706344197
 20
-23.8283672469868
 10
-1.35792143475514
 20
-23.94421338208131
 10
-0.705074785756878
 20
-24.05415367129319
 10
-0.0493181412816099
 20
-24.15816099781498
  0
LWPOLYLINE
  5
448
330
1F
100
AcDbEntity
  8
1
100
AcDbPolyline
 90
        6
 70
     0
 43
0.0
 10
-3.297395034167742
 20
-23.04497898349798
 10
-2.637826206406256
 20
-22.88110125036834
 10
-1.983054812759878
 20
-22.71093153619609
 10
-1.333260906203023
 20
-22.53451663527231
 10
-0.6886231709707821
 20
-22.35190505922711
 10
-0.0493188734232533
 20
-22.16314702368955
  0
LWPOLYLINE
  5
449
330
1F
100
AcDbEntity
  8
1
100
AcDbPolyline
 90
        6
 70
     0
 43
0.0
 10
-3.297395066452868
 20
-20.50056347644168
 10
-2.662618099410707
 20
-20.75154077045372
 10
-2.020217983947305
 20
-20.99596710282425
 10
-1.37039751656425
 20
-21.23376531166628
 10
-0.7133618362617931
 20
-21.46486032749636
 10
-0.0493183597794236
 20
-21.68917919693294
  0
LWPOLYLINE
  5
44A
330
1F
100
AcDbEntity
  8
CUT
100
AcDbPolyline
 90
       14
 70
     0
 43
0.0
 10
54.81960314464458
 20
-23.77004896940185
 10
54.81518650113098
 20
-23.93889669295136
 10
54.81142482591969
 20
-24.1098041671125
 10
54.80832542090028
 20
-24.2824396387603
 10
54.80589430241176
 20
-24.45646800050706
 10
54.80413618956403
 20
-24.63155144118843
 10
54.80305449507754
 20
-24.80735010159776
 10
54.80265131865875
 20
-24.98352273419602
 10
54.80292744292431
 20
-25.15972736551665
 10
54.80388233188194
 20
-25.3356219599795
 10
54.80551413197083
 20
-25.51086508382535
 10
54.80781967565965
 20
-25.68511656788226
 10
54.81079448759513
 20
-25.85803816787709
 10
54.81443279328929
 20
-26.02929422101068
  0
LWPOLYLINE
  5
44B
330
1F
100
AcDbEntity
  8
CUT
100
AcDbPolyline
 90
       20
 70
     0
 43
0.0
 10
45.66668929722661
 20
26.43542745281212
 10
45.56540769216883
 20
26.29063796380828
 10
45.47495596987012
 20
26.14393518264702
 10
45.39546822028462
 20
25.99553658853936
 10
45.32706227984956
 20
25.8456621746504
 10
45.26983955679889
 20
25.694534121971
 10
45.22388488083086
 20
25.54237646994607
 10
45.18926637735246
 20
25.38941478434775
 10
45.16603536648702
 20
25.23587582288597
 10
45.15422628699481
 20
25.08198719905198
 10
45.15385664521942
 20
24.92797704469322
 10
45.16492698913548
 20
24.7740736718198
 10
45.18742090753631
 20
24.62050523414385
 10
45.22130505436272
 20
24.46749938885357
 10
45.26652919813674
 20
24.31528295912332
 10
45.32302629642724
 20
24.16408159786013
 10
45.39071259523676
 20
24.01411945318504
 10
45.46948775316247
 20
23.86561883614521
 10
45.55923499014705
 20
23.71879989114944
 10
45.65982126059907
 20
23.57388026961554
  0
LWPOLYLINE
  5
44C
330
1F
100
AcDbEntity
  8
1
100
AcDbPolyline
 90
        6
 70
     0
 43
0.0
 10
0.1506815255930009
 20
24.9962594058251
 10
-0.4998600589604063
 20
24.986928972391
 10
-1.150085329180713
 20
24.97195528661503
 10
-1.799847432815985
 20
24.95134173027821
 10
-2.448999622219656
 20
24.92509295891655
 10
-3.09739528749324
 20
24.89321490076966
  0
ENDSEC
  0
SECTION
  2
OBJECTS
  0
DICTIONARY
  5
C
330
0
100
AcDbDictionary
281
     1
  3
ACAD_DETAILVIEWSTYLE
350
411
  3
ACAD_GROUP
350
D
  3
ACAD_LAYOUT
350
375
  3
ACAD_MATERIAL
350
389
  3
ACAD_MLEADERSTYLE
350
3A0
  3
ACAD_MLINESTYLE
350
17
  3
ACAD_PLOTSETTINGS
350
3E2
  3
ACAD_PLOTSTYLENAME
350
3E3
  3
ACAD_SCALELIST
350
353
  3
ACAD_SECTIONVIEWSTYLE
350
412
  3
ACAD_TABLESTYLE
350
3EF
  3
ACAD_VISUALSTYLE
350
378
  3
ACDB_RECOMPOSE_DATA
350
44F
  3
AcDbVariableDictionary
350
39E
  3
APPDATA
350
3F2
  3
FX_DICT_DIMENSION_PALETTE
350
41E
  0
SUN
  5
417
330
29
100
AcDbSun
 90
        1
290
     0
 63
     7
421
 16777215
 40
1.0
291
     1
 91
  2455826
 92
 54000000
292
     0
 70
     2
 71
   256
280
     1
  0
DICTIONARY
  5
3F3
330
2
100
AcDbDictionary
280
     1
281
     1
  3
ACAD_LAYERSTATES
360
3F4
  0
DICTIONARY
  5
411
102
{ACAD_REACTORS
330
C
102
}
330
C
100
AcDbDictionary
281
     1
  0
DICTIONARY
  5
D
102
{ACAD_REACTORS
330
C
102
}
330
C
100
AcDbDictionary
281
     1
  0
DICTIONARY
  5
375
102
{ACAD_REACTORS
330
C
102
}
330
C
100
AcDbDictionary
281
     1
  3
Layout1
350
377
  3
Model
350
376
  0
DICTIONARY
  5
389
102
{ACAD_REACTORS
330
C
102
}
330
C
100
AcDbDictionary
281
     1
  3
ByBlock
350
38B
  3
ByLayer
350
38A
  3
Global
350
38C
  0
DICTIONARY
  5
3A0
102
{ACAD_REACTORS
330
C
102
}
330
C
100
AcDbDictionary
281
     1
  3
Standard
350
3F1
  0
DICTIONARY
  5
17
102
{ACAD_REACTORS
330
C
102
}
330
C
100
AcDbDictionary
281
     1
  3
STANDARD
350
18
  0
DICTIONARY
  5
3E2
102
{ACAD_REACTORS
330
C
102
}
330
C
100
AcDbDictionary
281
     1
  0
ACDBDICTIONARYWDFLT
  5
3E3
102
{ACAD_REACTORS
330
C
102
}
330
C
100
AcDbDictionary
281
     1
  3
Normal
350
3E4
100
AcDbDictionaryWithDefault
340
3E4
  0
DICTIONARY
  5
353
102
{ACAD_REACTORS
330
C
102
}
330
C
100
AcDbDictionary
281
     1
  3
A0
350
354
  3
A1
350
355
  3
A2
350
356
  3
A3
350
357
  3
A4
350
358
  3
A5
350
359
  3
A6
350
35A
  3
A7
350
35B
  3
A8
350
35C
  3
A9
350
35D
  3
B0
350
35E
  3
B1
350
35F
  3
B2
350
360
  3
B3
350
361
  3
B4
350
362
  3
B5
350
363
  3
B6
350
364
  3
B7
350
365
  3
B8
350
366
  3
B9
350
367
  3
C0
350
368
  3
C1
350
369
  3
C2
350
36A
  3
C3
350
36B
  3
C4
350
36C
  3
C5
350
36D
  3
C6
350
36E
  3
C7
350
36F
  3
C8
350
370
  3
C9
350
371
  3
D0
350
372
  3
D1
350
373
  3
D2
350
374
  0
DICTIONARY
  5
412
102
{ACAD_REACTORS
330
C
102
}
330
C
100
AcDbDictionary
281
     1
  0
DICTIONARY
  5
3EF
102
{ACAD_REACTORS
330
C
102
}
330
C
100
AcDbDictionary
281
     1
  3
Standard
350
3F0
  0
DICTIONARY
  5
378
102
{ACAD_REACTORS
330
C
102
}
330
C
100
AcDbDictionary
281
     1
  3
2dWireframe
350
37D
  3
3D Hidden
350
37F
  3
3dWireframe
350
37E
  3
Basic
350
380
  3
Brighten
350
384
  3
ColorChange
350
388
  3
Conceptual
350
382
  3
Dim
350
383
  3
EdgeColorOff
350
3E9
  3
Facepattern
350
387
  3
Flat
350
379
  3
FlatWithEdges
350
37A
  3
Gouraud
350
37B
  3
GouraudWithEdges
350
37C
  3
Hidden
350
3E6
  3
JitterOff
350
3E7
  3
Linepattern
350
386
  3
OverhangOff
350
3E8
  3
Realistic
350
381
  3
Shaded
350
3EE
  3
Shaded with edges
350
3ED
  3
Shades of Gray
350
3EA
  3
Sketchy
350
3EB
  3
Thicken
350
385
  3
Wireframe
350
3E5
  3
X-Ray
350
3EC
  0
XRECORD
  5
44F
102
{ACAD_REACTORS
330
C
102
}
330
C
100
AcDbXrecord
280
     1
 90
        1
330
3F0
  0
DICTIONARY
  5
39E
102
{ACAD_REACTORS
330
C
102
}
330
C
100
AcDbDictionary
281
     1
  3
CANNOSCALE
350
40E
  3
CMLEADERSTYLE
350
410
  3
CTABLESTYLE
350
40F
  3
DIMASSOC
350
3A2
  3
HIDETEXT
350
3A3
  3
MSLTSCALE
350
3A1
  0
DICTIONARY
  5
3F2
102
{ACAD_REACTORS
330
C
102
}
330
C
100
AcDbDictionary
281
     1
  0
DICTIONARY
  5
41E
102
{ACAD_REACTORS
330
C
102
}
330
C
100
AcDbDictionary
281
     1
1001
FX_DIMP_FAV_VERSION
1071
        1
  0
DICTIONARY
  5
3F4
102
{ACAD_REACTORS
330
3F3
102
}
330
3F3
100
AcDbDictionary
281
     1
  0
LAYOUT
  5
377
102
{ACAD_REACTORS
330
375
102
}
330
375
100
AcDbPlotSettings
  1

  2
none_device
  4

  6

 40
0.0
 41
0.0
 42
0.0
 43
0.0
 44
0.0
 45
0.0
 46
0.0
 47
0.0
 48
0.0
 49
0.0
140
0.0
141
0.0
142
1.0
143
1.0
 70
   688
 72
     0
 73
     0
 74
     5
  7

 75
    16
 76
     0
 77
     2
 78
   300
147
1.0
148
0.0
149
0.0
100
AcDbLayout
  1
Layout1
 70
     1
 71
     1
 10
0.0
 20
0.0
 11
420.0
 21
297.0
 12
0.0
 22
0.0
 32
0.0
 14
1.000000000000000E+20
 24
1.000000000000000E+20
 34
1.000000000000000E+20
 15
-1.000000000000000E+20
 25
-1.000000000000000E+20
 35
-1.000000000000000E+20
146
0.0
 13
0.0
 23
0.0
 33
0.0
 16
1.0
 26
0.0
 36
0.0
 17
0.0
 27
1.0
 37
0.0
 76
     0
330
1B
  0
LAYOUT
  5
376
102
{ACAD_REACTORS
330
375
102
}
330
375
100
AcDbPlotSettings
  1

  2
none_device
  4

  6

 40
0.0
 41
0.0
 42
0.0
 43
0.0
 44
0.0
 45
0.0
 46
0.0
 47
0.0
 48
0.0
 49
0.0
140
0.0
141
0.0
142
1.0
143
1.0
 70
  1712
 72
     0
 73
     0
 74
     0
  7

 75
     0
 76
     0
 77
     2
 78
   300
147
1.0
148
0.0000001104899866
149
0.0
100
AcDbLayout
  1
Model
 70
     1
 71
     0
 10
0.0
 20
0.0
 11
210.0
 21
297.0
 12
0.0
 22
0.0
 32
0.0
 14
-38.42941740802683
 24
-61.39711212277962
 34
0.0
 15
95.58277771392429
 25
63.76142446258613
 35
0.0
146
0.0
 13
0.0
 23
0.0
 33
0.0
 16
1.0
 26
0.0
 36
0.0
 17
0.0
 27
1.0
 37
0.0
 76
     0
330
1F
331
29
  0
MATERIAL
  5
38B
102
{ACAD_REACTORS
330
389
102
}
330
389
100
AcDbMaterial
  1
ByBlock
 72
     1
 94
      127
  0
MATERIAL
  5
38A
102
{ACAD_REACTORS
330
389
102
}
330
389
100
AcDbMaterial
  1
ByLayer
 72
     1
 94
      127
  0
MATERIAL
  5
38C
102
{ACAD_REACTORS
330
389
102
}
330
389
100
AcDbMaterial
  1
Global
 72
     1
 94
      127
  0
MLEADERSTYLE
  5
3F1
102
{ACAD_REACTORS
330
3A0
102
}
330
3A0
100
AcDbMLeaderStyle
179
     2
170
     2
171
     1
172
     0
 90
        2
 40
0.0
 41
0.0
173
     1
 91
-1056964608
340
14
 92
       -2
290
     1
 42
2.0
291
     1
 43
8.0
  3
Standard
341
0
 44
4.0
300

342
11
174
     1
178
     1
175
     1
176
     0
 93
-1056964608
 45
4.0
292
     0
297
     0
 46
4.0
343
0
 94
-1056964608
 47
1.0
 49
1.0
140
1.0
293
     1
141
0.0
294
     1
177
     0
142
1.0
295
     0
296
     0
143
3.75
271
     0
272
     9
273
     9
298
     0
  0
MLINESTYLE
  5
18
102
{ACAD_REACTORS
330
17
102
}
330
17
100
AcDbMlineStyle
  2
Standard
 70
     0
  3

 62
   256
 51
90.0
 52
90.0
 71
     2
 49
0.5
 62
   256
  6
BYLAYER
 49
-0.5
 62
   256
  6
BYLAYER
  0
ACDBPLACEHOLDER
  5
3E4
102
{ACAD_REACTORS
330
3E3
102
}
330
3E3
  0
SCALE
  5
354
102
{ACAD_REACTORS
330
353
102
}
330
353
100
AcDbScale
 70
     0
300
1:1
140
1.0
141
1.0
290
     1
  0
SCALE
  5
355
102
{ACAD_REACTORS
330
353
102
}
330
353
100
AcDbScale
 70
     0
300
1:2
140
1.0
141
2.0
290
     0
  0
SCALE
  5
356
102
{ACAD_REACTORS
330
353
102
}
330
353
100
AcDbScale
 70
     0
300
1:4
140
1.0
141
4.0
290
     0
  0
SCALE
  5
357
102
{ACAD_REACTORS
330
353
102
}
330
353
100
AcDbScale
 70
     0
300
1:5
140
1.0
141
5.0
290
     0
  0
SCALE
  5
358
102
{ACAD_REACTORS
330
353
102
}
330
353
100
AcDbScale
 70
     0
300
1:8
140
1.0
141
8.0
290
     0
  0
SCALE
  5
359
102
{ACAD_REACTORS
330
353
102
}
330
353
100
AcDbScale
 70
     0
300
1:10
140
1.0
141
10.0
290
     0
  0
SCALE
  5
35A
102
{ACAD_REACTORS
330
353
102
}
330
353
100
AcDbScale
 70
     0
300
1:16
140
1.0
141
16.0
290
     0
  0
SCALE
  5
35B
102
{ACAD_REACTORS
330
353
102
}
330
353
100
AcDbScale
 70
     0
300
1:20
140
1.0
141
20.0
290
     0
  0
SCALE
  5
35C
102
{ACAD_REACTORS
330
353
102
}
330
353
100
AcDbScale
 70
     0
300
1:30
140
1.0
141
30.0
290
     0
  0
SCALE
  5
35D
102
{ACAD_REACTORS
330
353
102
}
330
353
100
AcDbScale
 70
     0
300
1:40
140
1.0
141
40.0
290
     0
  0
SCALE
  5
35E
102
{ACAD_REACTORS
330
353
102
}
330
353
100
AcDbScale
 70
     0
300
1:50
140
1.0
141
50.0
290
     0
  0
SCALE
  5
35F
102
{ACAD_REACTORS
330
353
102
}
330
353
100
AcDbScale
 70
     0
300
1:100
140
1.0
141
100.0
290
     0
  0
SCALE
  5
360
102
{ACAD_REACTORS
330
353
102
}
330
353
100
AcDbScale
 70
     0
300
2:1
140
2.0
141
1.0
290
     0
  0
SCALE
  5
361
102
{ACAD_REACTORS
330
353
102
}
330
353
100
AcDbScale
 70
     0
300
4:1
140
4.0
141
1.0
290
     0
  0
SCALE
  5
362
102
{ACAD_REACTORS
330
353
102
}
330
353
100
AcDbScale
 70
     0
300
8:1
140
8.0
141
1.0
290
     0
  0
SCALE
  5
363
102
{ACAD_REACTORS
330
353
102
}
330
353
100
AcDbScale
 70
     0
300
10:1
140
10.0
141
1.0
290
     0
  0
SCALE
  5
364
102
{ACAD_REACTORS
330
353
102
}
330
353
100
AcDbScale
 70
     0
300
100:1
140
100.0
141
1.0
290
     0
  0
SCALE
  5
365
102
{ACAD_REACTORS
330
353
102
}
330
353
100
AcDbScale
 70
     0
300
1/128" = 1'-0"
140
0.0078125
141
12.0
290
     0
  0
SCALE
  5
366
102
{ACAD_REACTORS
330
353
102
}
330
353
100
AcDbScale
 70
     0
300
1/64" = 1'-0"
140
0.015625
141
12.0
290
     0
  0
SCALE
  5
367
102
{ACAD_REACTORS
330
353
102
}
330
353
100
AcDbScale
 70
     0
300
1/32" = 1'-0"
140
0.03125
141
12.0
290
     0
  0
SCALE
  5
368
102
{ACAD_REACTORS
330
353
102
}
330
353
100
AcDbScale
 70
     0
300
1/16" = 1'-0"
140
0.0625
141
12.0
290
     0
  0
SCALE
  5
369
102
{ACAD_REACTORS
330
353
102
}
330
353
100
AcDbScale
 70
     0
300
3/32" = 1'-0"
140
0.09375
141
12.0
290
     0
  0
SCALE
  5
36A
102
{ACAD_REACTORS
330
353
102
}
330
353
100
AcDbScale
 70
     0
300
1/8" = 1'-0"
140
0.125
141
12.0
290
     0
  0
SCALE
  5
36B
102
{ACAD_REACTORS
330
353
102
}
330
353
100
AcDbScale
 70
     0
300
3/16" = 1'-0"
140
0.1875
141
12.0
290
     0
  0
SCALE
  5
36C
102
{ACAD_REACTORS
330
353
102
}
330
353
100
AcDbScale
 70
     0
300
1/4" = 1'-0"
140
0.25
141
12.0
290
     0
  0
SCALE
  5
36D
102
{ACAD_REACTORS
330
353
102
}
330
353
100
AcDbScale
 70
     0
300
3/8" = 1'-0"
140
0.375
141
12.0
290
     0
  0
SCALE
  5
36E
102
{ACAD_REACTORS
330
353
102
}
330
353
100
AcDbScale
 70
     0
300
1/2" = 1'-0"
140
0.5
141
12.0
290
     0
  0
SCALE
  5
36F
102
{ACAD_REACTORS
330
353
102
}
330
353
100
AcDbScale
 70
     0
300
3/4" = 1'-0"
140
0.75
141
12.0
290
     0
  0
SCALE
  5
370
102
{ACAD_REACTORS
330
353
102
}
330
353
100
AcDbScale
 70
     0
300
1" = 1'-0"
140
1.0
141
12.0
290
     0
  0
SCALE
  5
371
102
{ACAD_REACTORS
330
353
102
}
330
353
100
AcDbScale
 70
     0
300
1-1/2" = 1'-0"
140
1.5
141
12.0
290
     0
  0
SCALE
  5
372
102
{ACAD_REACTORS
330
353
102
}
330
353
100
AcDbScale
 70
     0
300
3" = 1'-0"
140
3.0
141
12.0
290
     0
  0
SCALE
  5
373
102
{ACAD_REACTORS
330
353
102
}
330
353
100
AcDbScale
 70
     0
300
6" = 1'-0"
140
6.0
141
12.0
290
     0
  0
SCALE
  5
374
102
{ACAD_REACTORS
330
353
102
}
330
353
100
AcDbScale
 70
     0
300
1'-0" = 1'-0"
140
12.0
141
12.0
290
     0
  0
TABLESTYLE
  5
3F0
102
{ACAD_REACTORS
330
3EF
102
}
102
{ACAD_XDICTIONARY
360
44D
102
}
330
3EF
100
AcDbTableStyle
  3
Standard
 70
     0
 71
     0
 40
1.5
 41
1.5
280
     0
281
     0
  7
STANDARD
140
4.5
170
     2
 62
     0
 63
   257
283
     0
 90
        4
 91
        0
  1

274
    -2
284
     1
 64
     0
275
    -2
285
     1
 65
     0
276
    -2
286
     1
 66
     0
277
    -2
287
     1
 67
     0
278
    -2
288
     1
 68
     0
279
    -2
289
     1
 69
     0
  7
STANDARD
140
6.0
170
     5
 62
     0
 63
   257
283
     0
 90
        4
 91
        0
  1

274
    -2
284
     1
 64
     0
275
    -2
285
     1
 65
     0
276
    -2
286
     1
 66
     0
277
    -2
287
     1
 67
     0
278
    -2
288
     1
 68
     0
279
    -2
289
     1
 69
     0
  7
STANDARD
140
4.5
170
     5
 62
     0
 63
   257
283
     0
 90
        4
 91
        0
  1

274
    -2
284
     1
 64
     0
275
    -2
285
     1
 65
     0
276
    -2
286
     1
 66
     0
277
    -2
287
     1
 67
     0
278
    -2
288
     1
 68
     0
279
    -2
289
     1
 69
     0
  0
VISUALSTYLE
  5
37D
102
{ACAD_REACTORS
330
378
102
}
330
378
100
AcDbVisualStyle
  2
2dWireframe
 70
     4
177
     3
291
     0
 70
    58
 90
        0
176
     1
 90
        2
176
     1
 90
        0
176
     1
 90
        0
176
     1
 40
-0.6
176
     1
 40
-30.0
176
     1
 62
     7
176
     1
 90
        1
176
     1
 90
        4
176
     1
 62
     7
176
     1
 62
   257
176
     1
 90
        1
176
     1
 90
        1
176
     1
 40
1.0
176
     1
 90
        0
176
     1
 62
   257
176
     1
 40
1.0
176
     1
 90
        1
176
     1
 90
        6
176
     1
 90
        2
176
     1
 62
     7
176
     1
 90
        5
176
     1
 90
        0
176
     1
 90
        0
176
     1
290
     0
176
     1
 90
        1
176
     1
 40
0.0
176
     1
 90
        0
176
     1
290
     1
176
     1
290
     1
176
     1
290
     0
176
     1
290
     0
176
     1
290
     0
176
     1
290
     0
176
     1
290
     0
176
     1
290
     0
176
     1
290
     0
176
     1
 90
       50
176
     1
 40
0.0
176
     1
 40
1.0
176
     1
 90
        0
176
     1
 62
    18
420
        0
176
     1
 90
       50
176
     1
 90
        3
176
     1
 62
     5
420
      255
176
     1
290
     0
176
     1
 90
       50
176
     1
 90
       50
176
     1
 90
       50
176
     1
290
     0
176
     1
 90
       50
176
     1
 62
   256
176
     0
 40
1.0
176
     0
 90
        2
176
     1
  1
strokes_ogs.tif
176
     1
290
     0
176
     1
 40
1.0
176
     1
 40
1.0
176
     1
  0
VISUALSTYLE
  5
37F
102
{ACAD_REACTORS
330
378
102
}
330
378
100
AcDbVisualStyle
  2
3D Hidden
 70
     6
177
     3
291
     0
 70
    58
 90
        1
176
     1
 90
        2
176
     1
 90
        2
176
     1
 90
        0
176
     1
 40
-0.6
176
     1
 40
-30.0
176
     1
 62
     7
176
     1
 90
        2
176
     1
 90
        2
176
     1
 62
     7
176
     1
 62
   257
176
     1
 90
        2
176
     1
 90
        1
176
     1
 40
40.0
176
     1
 90
        0
176
     1
 62
   257
176
     1
 40
1.0
176
     1
 90
        1
176
     1
 90
        6
176
     1
 90
        2
176
     1
 62
     7
176
     1
 90
        3
176
     1
 90
        0
176
     1
 90
        0
176
     1
290
     0
176
     1
 90
        1
176
     1
 40
0.0
176
     1
 90
        0
176
     1
290
     0
176
     1
290
     1
176
     1
290
     1
176
     1
290
     0
176
     1
290
     0
176
     1
290
     0
176
     1
290
     0
176
     1
290
     0
176
     1
290
     0
176
     1
 90
       50
176
     1
 40
0.0
176
     1
 40
1.0
176
     1
 90
        0
176
     1
 62
    18
420
        0
176
     1
 90
       50
176
     1
 90
        3
176
     1
 62
     5
420
      255
176
     1
290
     0
176
     1
 90
       50
176
     1
 90
       50
176
     1
 90
       50
176
     1
290
     0
176
     1
 90
       50
176
     1
 62
   256
176
     0
 40
1.0
176
     0
 90
        2
176
     1
  1
strokes_ogs.tif
176
     1
290
     0
176
     1
 40
1.0
176
     1
 40
1.0
176
     1
  0
VISUALSTYLE
  5
37E
102
{ACAD_REACTORS
330
378
102
}
330
378
100
AcDbVisualStyle
  2
3dWireframe
 70
     5
177
     3
291
     0
 70
    58
 90
        0
176
     1
 90
        2
176
     1
 90
        0
176
     1
 90
        0
176
     1
 40
-0.6
176
     1
 40
-30.0
176
     1
 62
     7
176
     1
 90
        1
176
     1
 90
        4
176
     1
 62
     7
176
     1
 62
   257
176
     1
 90
        1
176
     1
 90
        1
176
     1
 40
1.0
176
     1
 90
        0
176
     1
 62
   257
176
     1
 40
1.0
176
     1
 90
        1
176
     1
 90
        6
176
     1
 90
        2
176
     1
 62
     7
176
     1
 90
        5
176
     1
 90
        0
176
     1
 90
        0
176
     1
290
     0
176
     1
 90
        1
176
     1
 40
0.0
176
     1
 90
        0
176
     1
290
     0
176
     1
290
     1
176
     1
290
     1
176
     1
290
     0
176
     1
290
     0
176
     1
290
     0
176
     1
290
     0
176
     1
290
     0
176
     1
290
     0
176
     1
 90
       50
176
     1
 40
0.0
176
     1
 40
1.0
176
     1
 90
        0
176
     1
 62
    18
420
        0
176
     1
 90
       50
176
     1
 90
        3
176
     1
 62
     5
420
      255
176
     1
290
     0
176
     1
 90
       50
176
     1
 90
       50
176
     1
 90
       50
176
     1
290
     0
176
     1
 90
       50
176
     1
 62
   256
176
     0
 40
1.0
176
     0
 90
        2
176
     1
  1
strokes_ogs.tif
176
     1
290
     0
176
     1
 40
1.0
176
     1
 40
1.0
176
     1
  0
VISUALSTYLE
  5
380
102
{ACAD_REACTORS
330
378
102
}
330
378
100
AcDbVisualStyle
  2
Basic
 70
     7
177
     3
291
     1
 70
    58
 90
        1
176
     1
 90
        0
176
     1
 90
        1
176
     1
 90
        0
176
     1
 40
-0.6
176
     1
 40
-30.0
176
     1
 62
     7
176
     1
 90
        0
176
     1
 90
        4
176
     1
 62
     7
176
     1
 62
   257
176
     1
 90
        1
176
     1
 90
        1
176
     1
 40
1.0
176
     1
 90
        8
176
     1
 62
     7
176
     1
 40
1.0
176
     1
 90
        1
176
     1
 90
        6
176
     1
 90
        2
176
     1
 62
     7
176
     1
 90
        5
176
     1
 90
        0
176
     1
 90
        0
176
     1
290
     0
176
     1
 90
        1
176
     1
 40
0.0
176
     1
 90
        0
176
     1
290
     0
176
     1
290
     1
176
     1
290
     1
176
     1
290
     0
176
     1
290
     0
176
     1
290
     0
176
     1
290
     0
176
     1
290
     0
176
     1
290
     0
176
     1
 90
       50
176
     1
 40
0.0
176
     1
 40
1.0
176
     1
 90
        0
176
     1
 62
    18
420
        0
176
     1
 90
       50
176
     1
 90
        3
176
     1
 62
     5
420
      255
176
     1
290
     0
176
     1
 90
       50
176
     1
 90
       50
176
     1
 90
       50
176
     1
290
     0
176
     1
 90
       50
176
     1
 62
   256
176
     0
 40
1.0
176
     0
 90
        2
176
     1
  1
strokes_ogs.tif
176
     1
290
     0
176
     1
 40
1.0
176
     1
 40
1.0
176
     1
  0
VISUALSTYLE
  5
384
102
{ACAD_REACTORS
330
378
102
}
330
378
100
AcDbVisualStyle
  2
Brighten
 70
    12
177
     3
291
     1
 70
    58
 90
        2
176
     1
 90
        2
176
     1
 90
        0
176
     1
 90
        0
176
     1
 40
-0.6
176
     1
 40
-30.0
176
     1
 62
     7
176
     1
 90
        1
176
     1
 90
        4
176
     1
 62
     7
176
     1
 62
   257
176
     1
 90
        1
176
     1
 90
        1
176
     1
 40
1.0
176
     1
 90
        8
176
     1
 62
     7
176
     1
 40
1.0
176
     1
 90
        1
176
     1
 90
        6
176
     1
 90
        2
176
     1
 62
     7
176
     1
 90
        5
176
     1
 90
        0
176
     1
 90
        0
176
     1
290
     0
176
     1
 90
        1
176
     1
 40
50.0
176
     1
 90
        0
176
     1
290
     0
176
     1
290
     1
176
     1
290
     1
176
     1
290
     0
176
     1
290
     0
176
     1
290
     0
176
     1
290
     0
176
     1
290
     0
176
     1
290
     0
176
     1
 90
       50
176
     1
 40
0.0
176
     1
 40
1.0
176
     1
 90
        0
176
     1
 62
    18
420
        0
176
     1
 90
       50
176
     1
 90
        3
176
     1
 62
     5
420
      255
176
     1
290
     0
176
     1
 90
       50
176
     1
 90
       50
176
     1
 90
       50
176
     1
290
     0
176
     1
 90
       50
176
     1
 62
   256
176
     0
 40
1.0
176
     0
 90
        2
176
     1
  1
strokes_ogs.tif
176
     1
290
     0
176
     1
 40
1.0
176
     1
 40
1.0
176
     1
  0
VISUALSTYLE
  5
388
102
{ACAD_REACTORS
330
378
102
}
330
378
100
AcDbVisualStyle
  2
ColorChange
 70
    16
177
     3
291
     1
 70
    58
 90
        2
176
     1
 90
        2
176
     1
 90
        3
176
     1
 90
        0
176
     1
 40
-0.6
176
     1
 40
-30.0
176
     1
 62
     8
176
     1
 90
        1
176
     1
 90
        4
176
     1
 62
     7
176
     1
 62
   257
176
     1
 90
        1
176
     1
 90
        1
176
     1
 40
1.0
176
     1
 90
        8
176
     1
 62
     8
176
     1
 40
1.0
176
     1
 90
        1
176
     1
 90
        6
176
     1
 90
        2
176
     1
 62
     7
176
     1
 90
        5
176
     1
 90
        0
176
     1
 90
        0
176
     1
290
     0
176
     1
 90
        1
176
     1
 40
0.0
176
     1
 90
        0
176
     1
290
     0
176
     1
290
     1
176
     1
290
     1
176
     1
290
     0
176
     1
290
     0
176
     1
290
     0
176
     1
290
     0
176
     1
290
     0
176
     1
290
     0
176
     1
 90
       50
176
     1
 40
0.0
176
     1
 40
1.0
176
     1
 90
        0
176
     1
 62
    18
420
        0
176
     1
 90
       50
176
     1
 90
        3
176
     1
 62
     5
420
      255
176
     1
290
     0
176
     1
 90
       50
176
     1
 90
       50
176
     1
 90
       50
176
     1
290
     0
176
     1
 90
       50
176
     1
 62
   256
176
     0
 40
1.0
176
     0
 90
        2
176
     1
  1
strokes_ogs.tif
176
     1
290
     0
176
     1
 40
1.0
176
     1
 40
1.0
176
     1
  0
VISUALSTYLE
  5
382
102
{ACAD_REACTORS
330
378
102
}
330
378
100
AcDbVisualStyle
  2
Conceptual
 70
     9
177
     3
291
     0
 70
    58
 90
        3
176
     1
 90
        2
176
     1
 90
        0
176
     1
 90
        0
176
     1
 40
-0.6
176
     1
 40
-30.0
176
     1
 62
     7
176
     1
 90
        2
176
     1
 90
        2
176
     1
 62
     7
176
     1
 62
   257
176
     1
 90
        1
176
     1
 90
        1
176
     1
 40
40.0
176
     1
 90
        8
176
     1
 62
     7
176
     1
 40
1.0
176
     1
 90
        1
176
     1
 90
        6
176
     1
 90
        2
176
     1
 62
     7
176
     1
 90
        3
176
     1
 90
        0
176
     1
 90
        0
176
     1
290
     0
176
     1
 90
        1
176
     1
 40
0.0
176
     1
 90
        0
176
     1
290
     0
176
     1
290
     1
176
     1
290
     1
176
     1
290
     0
176
     1
290
     0
176
     1
290
     0
176
     1
290
     0
176
     1
290
     0
176
     1
290
     0
176
     1
 90
       50
176
     1
 40
0.0
176
     1
 40
1.0
176
     1
 90
        0
176
     1
 62
    18
420
        0
176
     1
 90
       50
176
     1
 90
        3
176
     1
 62
     5
420
      255
176
     1
290
     0
176
     1
 90
       50
176
     1
 90
       50
176
     1
 90
       50
176
     1
290
     0
176
     1
 90
       50
176
     1
 62
   256
176
     0
 40
1.0
176
     0
 90
        2
176
     1
  1
strokes_ogs.tif
176
     1
290
     0
176
     1
 40
1.0
176
     1
 40
1.0
176
     1
  0
VISUALSTYLE
  5
383
102
{ACAD_REACTORS
330
378
102
}
330
378
100
AcDbVisualStyle
  2
Dim
 70
    11
177
     3
291
     1
 70
    58
 90
        2
176
     1
 90
        2
176
     1
 90
        0
176
     1
 90
        0
176
     1
 40
-0.6
176
     1
 40
-30.0
176
     1
 62
     7
176
     1
 90
        1
176
     1
 90
        4
176
     1
 62
     7
176
     1
 62
   257
176
     1
 90
        1
176
     1
 90
        1
176
     1
 40
1.0
176
     1
 90
        8
176
     1
 62
     7
176
     1
 40
1.0
176
     1
 90
        1
176
     1
 90
        6
176
     1
 90
        2
176
     1
 62
     7
176
     1
 90
        5
176
     1
 90
        0
176
     1
 90
        0
176
     1
290
     0
176
     1
 90
        1
176
     1
 40
-50.0
176
     1
 90
        0
176
     1
290
     0
176
     1
290
     1
176
     1
290
     1
176
     1
290
     0
176
     1
290
     0
176
     1
290
     0
176
     1
290
     0
176
     1
290
     0
176
     1
290
     0
176
     1
 90
       50
176
     1
 40
0.0
176
     1
 40
1.0
176
     1
 90
        0
176
     1
 62
    18
420
        0
176
     1
 90
       50
176
     1
 90
        3
176
     1
 62
     5
420
      255
176
     1
290
     0
176
     1
 90
       50
176
     1
 90
       50
176
     1
 90
       50
176
     1
290
     0
176
     1
 90
       50
176
     1
 62
   256
176
     0
 40
1.0
176
     0
 90
        2
176
     1
  1
strokes_ogs.tif
176
     1
290
     0
176
     1
 40
1.0
176
     1
 40
1.0
176
     1
  0
VISUALSTYLE
  5
3E9
102
{ACAD_REACTORS
330
378
102
}
330
378
100
AcDbVisualStyle
  2
EdgeColorOff
 70
    22
177
     3
291
     1
 70
    58
 90
        2
176
     0
 90
        2
176
     0
 90
        0
176
     0
 90
        0
176
     0
 40
0.6
176
     0
 40
30.0
176
     0
 62
     7
420
 16777215
176
     0
 90
        1
176
     0
 90
        4
176
     0
 62
     7
176
     0
 62
   257
176
     0
 90
        1
176
     0
 90
        1
176
     0
 40
1.0
176
     0
 90
        8
176
     2
 62
     7
176
     0
 40
1.0
176
     0
 90
        1
176
     0
 90
        6
176
     0
 90
        2
176
     0
 62
     7
176
     0
 90
        5
176
     0
 90
        0
176
     0
 90
        0
176
     0
290
     0
176
     0
 90
        1
176
     0
 40
0.0
176
     0
 90
        0
176
     0
290
     0
176
     0
290
     1
176
     0
290
     1
176
     0
290
     0
176
     0
290
     0
176
     0
290
     0
176
     0
290
     0
176
     0
290
     0
176
     0
290
     0
176
     0
 90
       50
176
     0
 40
0.0
176
     0
 40
1.0
176
     0
 90
        0
176
     0
 62
    18
420
        0
176
     0
 90
       50
176
     0
 90
        3
176
     0
 62
     5
420
      255
176
     0
290
     0
176
     0
 90
       50
176
     0
 90
       50
176
     0
 90
       50
176
     0
290
     0
176
     0
 90
       50
176
     0
 62
   256
176
     0
 40
1.0
176
     0
 90
        2
176
     0
  1
strokes_ogs.tif
176
     0
290
     0
176
     0
 40
1.0
176
     0
 40
1.0
176
     0
  0
VISUALSTYLE
  5
387
102
{ACAD_REACTORS
330
378
102
}
330
378
100
AcDbVisualStyle
  2
Facepattern
 70
    15
177
     3
291
     1
 70
    58
 90
        2
176
     1
 90
        2
176
     1
 90
        0
176
     1
 90
        0
176
     1
 40
-0.6
176
     1
 40
-30.0
176
     1
 62
     7
176
     1
 90
        1
176
     1
 90
        4
176
     1
 62
     7
176
     1
 62
   257
176
     1
 90
        1
176
     1
 90
        1
176
     1
 40
1.0
176
     1
 90
        8
176
     1
 62
     7
176
     1
 40
1.0
176
     1
 90
        1
176
     1
 90
        6
176
     1
 90
        2
176
     1
 62
     7
176
     1
 90
        5
176
     1
 90
        0
176
     1
 90
        0
176
     1
290
     0
176
     1
 90
        1
176
     1
 40
0.0
176
     1
 90
        0
176
     1
290
     0
176
     1
290
     1
176
     1
290
     1
176
     1
290
     0
176
     1
290
     0
176
     1
290
     0
176
     1
290
     0
176
     1
290
     0
176
     1
290
     0
176
     1
 90
       50
176
     1
 40
0.0
176
     1
 40
1.0
176
     1
 90
        0
176
     1
 62
    18
420
        0
176
     1
 90
       50
176
     1
 90
        3
176
     1
 62
     5
420
      255
176
     1
290
     0
176
     1
 90
       50
176
     1
 90
       50
176
     1
 90
       50
176
     1
290
     0
176
     1
 90
       50
176
     1
 62
   256
176
     0
 40
1.0
176
     0
 90
        2
176
     1
  1
strokes_ogs.tif
176
     1
290
     0
176
     1
 40
1.0
176
     1
 40
1.0
176
     1
  0
VISUALSTYLE
  5
379
102
{ACAD_REACTORS
330
378
102
}
330
378
100
AcDbVisualStyle
  2
Flat
 70
     0
177
     3
291
     1
 70
    58
 90
        2
176
     1
 90
        1
176
     1
 90
        1
176
     1
 90
        2
176
     1
 40
-0.6
176
     1
 40
30.0
176
     1
 62
     7
176
     1
 90
        0
176
     1
 90
        4
176
     1
 62
     7
176
     1
 62
   257
176
     1
 90
        1
176
     1
 90
        1
176
     1
 40
1.0
176
     1
 90
        8
176
     1
 62
     7
176
     1
 40
1.0
176
     1
 90
        1
176
     1
 90
        6
176
     1
 90
        2
176
     1
 62
     7
176
     1
 90
        5
176
     1
 90
        0
176
     1
 90
        0
176
     1
290
     0
176
     1
 90
       13
176
     1
 40
0.0
176
     1
 90
        0
176
     1
290
     0
176
     1
290
     1
176
     1
290
     1
176
     1
290
     0
176
     1
290
     0
176
     1
290
     0
176
     1
290
     0
176
     1
290
     0
176
     1
290
     0
176
     1
 90
       50
176
     1
 40
0.0
176
     1
 40
1.0
176
     1
 90
        0
176
     1
 62
    18
420
        0
176
     1
 90
       50
176
     1
 90
        3
176
     1
 62
     5
420
      255
176
     1
290
     0
176
     1
 90
       50
176
     1
 90
       50
176
     1
 90
       50
176
     1
290
     0
176
     1
 90
       50
176
     1
 62
   256
176
     0
 40
1.0
176
     0
 90
        2
176
     1
  1
strokes_ogs.tif
176
     1
290
     0
176
     1
 40
1.0
176
     1
 40
1.0
176
     1
  0
VISUALSTYLE
  5
37A
102
{ACAD_REACTORS
330
378
102
}
330
378
100
AcDbVisualStyle
  2
FlatWithEdges
 70
     1
177
     3
291
     1
 70
    58
 90
        2
176
     1
 90
        1
176
     1
 90
        1
176
     1
 90
        2
176
     1
 40
-0.6
176
     1
 40
30.0
176
     1
 62
     7
176
     1
 90
        1
176
     1
 90
        4
176
     1
 62
     7
176
     1
 62
   257
176
     1
 90
        1
176
     1
 90
        1
176
     1
 40
1.0
176
     1
 90
        0
176
     1
 62
   257
176
     1
 40
1.0
176
     1
 90
        1
176
     1
 90
        6
176
     1
 90
        2
176
     1
 62
     7
176
     1
 90
        5
176
     1
 90
        0
176
     1
 90
        0
176
     1
290
     0
176
     1
 90
       13
176
     1
 40
0.0
176
     1
 90
        0
176
     1
290
     0
176
     1
290
     1
176
     1
290
     1
176
     1
290
     0
176
     1
290
     0
176
     1
290
     0
176
     1
290
     0
176
     1
290
     0
176
     1
290
     0
176
     1
 90
       50
176
     1
 40
0.0
176
     1
 40
1.0
176
     1
 90
        0
176
     1
 62
    18
420
        0
176
     1
 90
       50
176
     1
 90
        3
176
     1
 62
     5
420
      255
176
     1
290
     0
176
     1
 90
       50
176
     1
 90
       50
176
     1
 90
       50
176
     1
290
     0
176
     1
 90
       50
176
     1
 62
   256
176
     0
 40
1.0
176
     0
 90
        2
176
     1
  1
strokes_ogs.tif
176
     1
290
     0
176
     1
 40
1.0
176
     1
 40
1.0
176
     1
  0
VISUALSTYLE
  5
37B
102
{ACAD_REACTORS
330
378
102
}
330
378
100
AcDbVisualStyle
  2
Gouraud
 70
     2
177
     3
291
     1
 70
    58
 90
        2
176
     1
 90
        2
176
     1
 90
        1
176
     1
 90
        2
176
     1
 40
-0.6
176
     1
 40
30.0
176
     1
 62
     7
176
     1
 90
        0
176
     1
 90
        4
176
     1
 62
     7
176
     1
 62
   257
176
     1
 90
        1
176
     1
 90
        1
176
     1
 40
1.0
176
     1
 90
        0
176
     1
 62
     7
176
     1
 40
1.0
176
     1
 90
        1
176
     1
 90
        6
176
     1
 90
        2
176
     1
 62
     7
176
     1
 90
        5
176
     1
 90
        0
176
     1
 90
        0
176
     1
290
     0
176
     1
 90
       13
176
     1
 40
0.0
176
     1
 90
        0
176
     1
290
     0
176
     1
290
     1
176
     1
290
     1
176
     1
290
     0
176
     1
290
     0
176
     1
290
     0
176
     1
290
     0
176
     1
290
     0
176
     1
290
     0
176
     1
 90
       50
176
     1
 40
0.0
176
     1
 40
1.0
176
     1
 90
        0
176
     1
 62
    18
420
        0
176
     1
 90
       50
176
     1
 90
        3
176
     1
 62
     5
420
      255
176
     1
290
     0
176
     1
 90
       50
176
     1
 90
       50
176
     1
 90
       50
176
     1
290
     0
176
     1
 90
       50
176
     1
 62
   256
176
     0
 40
1.0
176
     0
 90
        2
176
     1
  1
strokes_ogs.tif
176
     1
290
     0
176
     1
 40
1.0
176
     1
 40
1.0
176
     1
  0
VISUALSTYLE
  5
37C
102
{ACAD_REACTORS
330
378
102
}
330
378
100
AcDbVisualStyle
  2
GouraudWithEdges
 70
     3
177
     3
291
     1
 70
    58
 90
        2
176
     1
 90
        2
176
     1
 90
        1
176
     1
 90
        2
176
     1
 40
-0.6
176
     1
 40
30.0
176
     1
 62
     7
176
     1
 90
        1
176
     1
 90
        4
176
     1
 62
     7
176
     1
 62
   257
176
     1
 90
        1
176
     1
 90
        1
176
     1
 40
1.0
176
     1
 90
        0
176
     1
 62
   257
176
     1
 40
1.0
176
     1
 90
        1
176
     1
 90
        6
176
     1
 90
        2
176
     1
 62
     7
176
     1
 90
        5
176
     1
 90
        0
176
     1
 90
        0
176
     1
290
     0
176
     1
 90
       13
176
     1
 40
0.0
176
     1
 90
        0
176
     1
290
     0
176
     1
290
     1
176
     1
290
     1
176
     1
290
     0
176
     1
290
     0
176
     1
290
     0
176
     1
290
     0
176
     1
290
     0
176
     1
290
     0
176
     1
 90
       50
176
     1
 40
0.0
176
     1
 40
1.0
176
     1
 90
        0
176
     1
 62
    18
420
        0
176
     1
 90
       50
176
     1
 90
        3
176
     1
 62
     5
420
      255
176
     1
290
     0
176
     1
 90
       50
176
     1
 90
       50
176
     1
 90
       50
176
     1
290
     0
176
     1
 90
       50
176
     1
 62
   256
176
     0
 40
1.0
176
     0
 90
        2
176
     1
  1
strokes_ogs.tif
176
     1
290
     0
176
     1
 40
1.0
176
     1
 40
1.0
176
     1
  0
VISUALSTYLE
  5
3E6
102
{ACAD_REACTORS
330
378
102
}
330
378
100
AcDbVisualStyle
  2
Hidden
 70
     6
177
     3
291
     0
 70
    58
 90
        1
176
     1
 90
        2
176
     1
 90
        2
176
     1
 90
        0
176
     1
 40
0.6
176
     1
 40
30.0
176
     1
 62
     7
420
 16777215
176
     1
 90
        2
176
     1
 90
        2
176
     1
 62
     7
176
     1
 62
   257
176
     1
 90
        2
176
     1
 90
        1
176
     1
 40
40.0
176
     1
 90
        0
176
     1
 62
   257
176
     1
 40
1.0
176
     1
 90
        1
176
     1
 90
        6
176
     1
 90
        2
176
     1
 62
     7
176
     1
 90
        3
176
     1
 90
        0
176
     1
 90
        0
176
     1
290
     0
176
     1
 90
        1
176
     1
 40
0.0
176
     1
 90
        0
176
     1
290
     0
176
     1
290
     1
176
     1
290
     1
176
     1
290
     0
176
     1
290
     0
176
     1
290
     0
176
     1
290
     0
176
     1
290
     0
176
     1
290
     0
176
     1
 90
       50
176
     1
 40
0.0
176
     1
 40
1.0
176
     1
 90
        0
176
     1
 62
    18
420
        0
176
     1
 90
       50
176
     1
 90
        3
176
     1
 62
     5
420
      255
176
     1
290
     0
176
     1
 90
       50
176
     1
 90
       50
176
     1
 90
       50
176
     1
290
     0
176
     1
 90
       50
176
     1
 62
   256
176
     0
 40
1.0
176
     0
 90
        2
176
     1
  1
strokes_ogs.tif
176
     1
290
     0
176
     1
 40
1.0
176
     1
 40
1.0
176
     1
  0
VISUALSTYLE
  5
3E7
102
{ACAD_REACTORS
330
378
102
}
330
378
100
AcDbVisualStyle
  2
JitterOff
 70
    20
177
     3
291
     1
 70
    58
 90
        2
176
     0
 90
        2
176
     0
 90
        0
176
     0
 90
        0
176
     0
 40
0.6
176
     0
 40
30.0
176
     0
 62
     7
420
 16777215
176
     0
 90
        1
176
     0
 90
        4
176
     0
 62
     7
176
     0
 62
   257
176
     0
 90
        1
176
     0
 90
        1
176
     0
 40
1.0
176
     0
 90
       10
176
     2
 62
     7
176
     0
 40
1.0
176
     0
 90
        1
176
     0
 90
        6
176
     0
 90
        2
176
     0
 62
     7
176
     0
 90
        5
176
     0
 90
        0
176
     0
 90
        0
176
     0
290
     0
176
     0
 90
        1
176
     0
 40
0.0
176
     0
 90
        0
176
     0
290
     0
176
     0
290
     1
176
     0
290
     1
176
     0
290
     0
176
     0
290
     0
176
     0
290
     0
176
     0
290
     0
176
     0
290
     0
176
     0
290
     0
176
     0
 90
       50
176
     0
 40
0.0
176
     0
 40
1.0
176
     0
 90
        0
176
     0
 62
    18
420
        0
176
     0
 90
       50
176
     0
 90
        3
176
     0
 62
     5
420
      255
176
     0
290
     0
176
     0
 90
       50
176
     0
 90
       50
176
     0
 90
       50
176
     0
290
     0
176
     0
 90
       50
176
     0
 62
   256
176
     0
 40
1.0
176
     0
 90
        2
176
     0
  1
strokes_ogs.tif
176
     0
290
     0
176
     0
 40
1.0
176
     0
 40
1.0
176
     0
  0
VISUALSTYLE
  5
386
102
{ACAD_REACTORS
330
378
102
}
330
378
100
AcDbVisualStyle
  2
Linepattern
 70
    14
177
     3
291
     1
 70
    58
 90
        2
176
     1
 90
        2
176
     1
 90
        0
176
     1
 90
        0
176
     1
 40
-0.6
176
     1
 40
-30.0
176
     1
 62
     7
176
     1
 90
        1
176
     1
 90
        4
176
     1
 62
     7
176
     1
 62
   257
176
     1
 90
        7
176
     1
 90
        7
176
     1
 40
1.0
176
     1
 90
        8
176
     1
 62
     7
176
     1
 40
1.0
176
     1
 90
        1
176
     1
 90
        6
176
     1
 90
        2
176
     1
 62
     7
176
     1
 90
        5
176
     1
 90
        0
176
     1
 90
        0
176
     1
290
     0
176
     1
 90
        1
176
     1
 40
0.0
176
     1
 90
        0
176
     1
290
     0
176
     1
290
     1
176
     1
290
     1
176
     1
290
     0
176
     1
290
     0
176
     1
290
     0
176
     1
290
     0
176
     1
290
     0
176
     1
290
     0
176
     1
 90
       50
176
     1
 40
0.0
176
     1
 40
1.0
176
     1
 90
        0
176
     1
 62
    18
420
        0
176
     1
 90
       50
176
     1
 90
        3
176
     1
 62
     5
420
      255
176
     1
290
     0
176
     1
 90
       50
176
     1
 90
       50
176
     1
 90
       50
176
     1
290
     0
176
     1
 90
       50
176
     1
 62
   256
176
     0
 40
1.0
176
     0
 90
        2
176
     1
  1
strokes_ogs.tif
176
     1
290
     0
176
     1
 40
1.0
176
     1
 40
1.0
176
     1
  0
VISUALSTYLE
  5
3E8
102
{ACAD_REACTORS
330
378
102
}
330
378
100
AcDbVisualStyle
  2
OverhangOff
 70
    21
177
     3
291
     1
 70
    58
 90
        2
176
     0
 90
        2
176
     0
 90
        0
176
     0
 90
        0
176
     0
 40
0.6
176
     0
 40
30.0
176
     0
 62
     7
420
 16777215
176
     0
 90
        1
176
     0
 90
        4
176
     0
 62
     7
176
     0
 62
   257
176
     0
 90
        1
176
     0
 90
        1
176
     0
 40
1.0
176
     0
 90
        9
176
     2
 62
     7
176
     0
 40
1.0
176
     0
 90
        1
176
     0
 90
        6
176
     0
 90
        2
176
     0
 62
     7
176
     0
 90
        5
176
     0
 90
        0
176
     0
 90
        0
176
     0
290
     0
176
     0
 90
        1
176
     0
 40
0.0
176
     0
 90
        0
176
     0
290
     0
176
     0
290
     1
176
     0
290
     1
176
     0
290
     0
176
     0
290
     0
176
     0
290
     0
176
     0
290
     0
176
     0
290
     0
176
     0
290
     0
176
     0
 90
       50
176
     0
 40
0.0
176
     0
 40
1.0
176
     0
 90
        0
176
     0
 62
    18
420
        0
176
     0
 90
       50
176
     0
 90
        3
176
     0
 62
     5
420
      255
176
     0
290
     0
176
     0
 90
       50
176
     0
 90
       50
176
     0
 90
       50
176
     0
290
     0
176
     0
 90
       50
176
     0
 62
   256
176
     0
 40
1.0
176
     0
 90
        2
176
     0
  1
strokes_ogs.tif
176
     0
290
     0
176
     0
 40
1.0
176
     0
 40
1.0
176
     0
  0
VISUALSTYLE
  5
381
102
{ACAD_REACTORS
330
378
102
}
330
378
100
AcDbVisualStyle
  2
Realistic
 70
     8
177
     3
291
     0
 70
    58
 90
        2
176
     1
 90
        2
176
     1
 90
        0
176
     1
 90
        0
176
     1
 40
-0.6
176
     1
 40
-30.0
176
     1
 62
     7
176
     1
 90
        1
176
     1
 90
        0
176
     1
 62
     7
176
     1
 62
   257
176
     1
 90
        1
176
     1
 90
        1
176
     1
 40
1.0
176
     1
 90
        8
176
     1
 62
     8
176
     1
 40
1.0
176
     1
 90
        1
176
     1
 90
        6
176
     1
 90
        2
176
     1
 62
     7
176
     1
 90
        5
176
     1
 90
        0
176
     1
 90
        0
176
     1
290
     0
176
     1
 90
       13
176
     1
 40
0.0
176
     1
 90
        0
176
     1
290
     0
176
     1
290
     1
176
     1
290
     1
176
     1
290
     0
176
     1
290
     0
176
     1
290
     0
176
     1
290
     0
176
     1
290
     0
176
     1
290
     0
176
     1
 90
       50
176
     1
 40
0.0
176
     1
 40
1.0
176
     1
 90
        0
176
     1
 62
    18
420
        0
176
     1
 90
       50
176
     1
 90
        3
176
     1
 62
     5
420
      255
176
     1
290
     0
176
     1
 90
       50
176
     1
 90
       50
176
     1
 90
       50
176
     1
290
     0
176
     1
 90
       50
176
     1
 62
   256
176
     0
 40
1.0
176
     0
 90
        2
176
     1
  1
strokes_ogs.tif
176
     1
290
     0
176
     1
 40
1.0
176
     1
 40
1.0
176
     1
  0
VISUALSTYLE
  5
3EE
102
{ACAD_REACTORS
330
378
102
}
330
378
100
AcDbVisualStyle
  2
Shaded
 70
    27
177
     3
291
     0
 70
    58
 90
        2
176
     1
 90
        2
176
     1
 90
        1
176
     1
 90
        2
176
     1
 40
0.6
176
     1
 40
30.0
176
     1
 62
     7
420
 16777215
176
     1
 90
        0
176
     1
 90
        4
176
     1
 62
     7
176
     1
 62
   257
176
     1
 90
        1
176
     1
 90
        1
176
     1
 40
1.0
176
     1
 90
        8
176
     1
 62
   257
176
     1
 40
1.0
176
     1
 90
        1
176
     1
 90
        6
176
     1
 90
        2
176
     1
 62
     8
420
  7895160
176
     1
 90
        3
176
     1
 90
        0
176
     1
 90
        0
176
     1
290
     0
176
     1
 90
        5
176
     1
 40
0.0
176
     1
 90
        0
176
     1
290
     0
176
     1
290
     1
176
     1
290
     1
176
     1
290
     0
176
     1
290
     0
176
     1
290
     0
176
     1
290
     0
176
     1
290
     0
176
     1
290
     0
176
     1
 90
       50
176
     1
 40
0.0
176
     1
 40
1.0
176
     1
 90
        0
176
     1
 62
    18
420
        0
176
     1
 90
       50
176
     1
 90
        3
176
     1
 62
     5
420
      255
176
     1
290
     0
176
     1
 90
       50
176
     1
 90
       50
176
     1
 90
       50
176
     1
290
     0
176
     1
 90
       50
176
     1
 62
   256
176
     0
 40
1.0
176
     0
 90
        2
176
     1
  1
strokes_ogs.tif
176
     1
290
     0
176
     1
 40
1.0
176
     1
 40
1.0
176
     1
  0
VISUALSTYLE
  5
3ED
102
{ACAD_REACTORS
330
378
102
}
330
378
100
AcDbVisualStyle
  2
Shaded with edges
 70
    26
177
     3
291
     0
 70
    58
 90
        2
176
     1
 90
        2
176
     1
 90
        1
176
     1
 90
        2
176
     1
 40
0.6
176
     1
 40
30.0
176
     1
 62
     7
420
 16777215
176
     1
 90
        1
176
     1
 90
       10
176
     1
 62
     7
176
     1
 62
   257
176
     1
 90
        2
176
     1
 90
        1
176
     1
 40
1.0
176
     1
 90
        8
176
     1
 62
   257
176
     1
 40
1.0
176
     1
 90
        1
176
     1
 90
        6
176
     1
 90
        2
176
     1
 62
     7
176
     1
 90
        3
176
     1
 90
        0
176
     1
 90
        0
176
     1
290
     0
176
     1
 90
        5
176
     1
 40
0.0
176
     1
 90
        0
176
     1
290
     0
176
     1
290
     1
176
     1
290
     1
176
     1
290
     0
176
     1
290
     0
176
     1
290
     0
176
     1
290
     0
176
     1
290
     0
176
     1
290
     0
176
     1
 90
       50
176
     1
 40
0.0
176
     1
 40
1.0
176
     1
 90
        0
176
     1
 62
    18
420
        0
176
     1
 90
       50
176
     1
 90
        3
176
     1
 62
     5
420
      255
176
     1
290
     0
176
     1
 90
       50
176
     1
 90
       50
176
     1
 90
       50
176
     1
290
     0
176
     1
 90
       50
176
     1
 62
   256
176
     0
 40
1.0
176
     0
 90
        2
176
     1
  1
strokes_ogs.tif
176
     1
290
     0
176
     1
 40
1.0
176
     1
 40
1.0
176
     1
  0
VISUALSTYLE
  5
3EA
102
{ACAD_REACTORS
330
378
102
}
330
378
100
AcDbVisualStyle
  2
Shades of Gray
 70
    23
177
     3
291
     0
 70
    58
 90
        2
176
     1
 90
        2
176
     1
 90
        3
176
     1
 90
        0
176
     1
 40
0.6
176
     1
 40
30.0
176
     1
 62
     7
420
 16777215
176
     1
 90
        2
176
     1
 90
        2
176
     1
 62
     7
176
     1
 62
     7
176
     1
 90
        1
176
     1
 90
        1
176
     1
 40
40.0
176
     1
 90
        8
176
     1
 62
     7
176
     1
 40
1.0
176
     1
 90
        1
176
     1
 90
        6
176
     1
 90
        2
176
     1
 62
     7
176
     1
 90
        3
176
     1
 90
        0
176
     1
 90
        0
176
     1
290
     0
176
     1
 90
        1
176
     1
 40
0.0
176
     1
 90
        0
176
     1
290
     0
176
     1
290
     1
176
     1
290
     1
176
     1
290
     0
176
     1
290
     0
176
     1
290
     0
176
     1
290
     0
176
     1
290
     0
176
     1
290
     0
176
     1
 90
       50
176
     1
 40
0.0
176
     1
 40
1.0
176
     1
 90
        0
176
     1
 62
    18
420
        0
176
     1
 90
       50
176
     1
 90
        3
176
     1
 62
     5
420
      255
176
     1
290
     0
176
     1
 90
       50
176
     1
 90
       50
176
     1
 90
       50
176
     1
290
     0
176
     1
 90
       50
176
     1
 62
   256
176
     0
 40
1.0
176
     0
 90
        2
176
     1
  1
strokes_ogs.tif
176
     1
290
     0
176
     1
 40
1.0
176
     1
 40
1.0
176
     1
  0
VISUALSTYLE
  5
3EB
102
{ACAD_REACTORS
330
378
102
}
330
378
100
AcDbVisualStyle
  2
Sketchy
 70
    24
177
     3
291
     0
 70
    58
 90
        1
176
     1
 90
        2
176
     1
 90
        2
176
     1
 90
        0
176
     1
 40
0.6
176
     1
 40
30.0
176
     1
 62
     7
420
 16777215
176
     1
 90
        2
176
     1
 90
        2
176
     1
 62
     7
176
     1
 62
     7
176
     1
 90
        1
176
     1
 90
        1
176
     1
 40
40.0
176
     1
 90
       11
176
     1
 62
     7
176
     1
 40
1.0
176
     1
 90
        1
176
     1
 90
        6
176
     1
 90
        2
176
     1
 62
     7
176
     1
 90
        6
176
     1
 90
        0
176
     1
 90
        0
176
     1
290
     0
176
     1
 90
        1
176
     1
 40
0.0
176
     1
 90
        0
176
     1
290
     0
176
     1
290
     1
176
     1
290
     1
176
     1
290
     0
176
     1
290
     0
176
     1
290
     0
176
     1
290
     0
176
     1
290
     0
176
     1
290
     0
176
     1
 90
       50
176
     1
 40
0.0
176
     1
 40
1.0
176
     1
 90
        0
176
     1
 62
    18
420
        0
176
     1
 90
       50
176
     1
 90
        3
176
     1
 62
     5
420
      255
176
     1
290
     0
176
     1
 90
       50
176
     1
 90
       50
176
     1
 90
       50
176
     1
290
     0
176
     1
 90
       50
176
     1
 62
   256
176
     0
 40
1.0
176
     0
 90
        2
176
     1
  1
strokes_ogs.tif
176
     1
290
     0
176
     1
 40
1.0
176
     1
 40
1.0
176
     1
  0
VISUALSTYLE
  5
385
102
{ACAD_REACTORS
330
378
102
}
330
378
100
AcDbVisualStyle
  2
Thicken
 70
    13
177
     3
291
     1
 70
    58
 90
        2
176
     1
 90
        2
176
     1
 90
        0
176
     1
 90
        0
176
     1
 40
-0.6
176
     1
 40
-30.0
176
     1
 62
     7
176
     1
 90
        1
176
     1
 90
        4
176
     1
 62
     7
176
     1
 62
   257
176
     1
 90
        1
176
     1
 90
        1
176
     1
 40
1.0
176
     1
 90
       12
176
     1
 62
     7
176
     1
 40
1.0
176
     1
 90
        1
176
     1
 90
        6
176
     1
 90
        2
176
     1
 62
     7
176
     1
 90
        5
176
     1
 90
        0
176
     1
 90
        0
176
     1
290
     0
176
     1
 90
        1
176
     1
 40
0.0
176
     1
 90
        0
176
     1
290
     0
176
     1
290
     1
176
     1
290
     1
176
     1
290
     0
176
     1
290
     0
176
     1
290
     0
176
     1
290
     0
176
     1
290
     0
176
     1
290
     0
176
     1
 90
       50
176
     1
 40
0.0
176
     1
 40
1.0
176
     1
 90
        0
176
     1
 62
    18
420
        0
176
     1
 90
       50
176
     1
 90
        3
176
     1
 62
     5
420
      255
176
     1
290
     0
176
     1
 90
       50
176
     1
 90
       50
176
     1
 90
       50
176
     1
290
     0
176
     1
 90
       50
176
     1
 62
   256
176
     0
 40
1.0
176
     0
 90
        2
176
     1
  1
strokes_ogs.tif
176
     1
290
     0
176
     1
 40
1.0
176
     1
 40
1.0
176
     1
  0
VISUALSTYLE
  5
3E5
102
{ACAD_REACTORS
330
378
102
}
330
378
100
AcDbVisualStyle
  2
Wireframe
 70
     5
177
     3
291
     0
 70
    58
 90
        0
176
     1
 90
        2
176
     1
 90
        0
176
     1
 90
        0
176
     1
 40
0.6
176
     1
 40
30.0
176
     1
 62
     7
420
 16777215
176
     1
 90
        1
176
     1
 90
        4
176
     1
 62
     7
176
     1
 62
   257
176
     1
 90
        1
176
     1
 90
        1
176
     1
 40
1.0
176
     1
 90
        0
176
     1
 62
   257
176
     1
 40
1.0
176
     1
 90
        1
176
     1
 90
        6
176
     1
 90
        2
176
     1
 62
     7
176
     1
 90
        3
176
     1
 90
        0
176
     1
 90
        0
176
     1
290
     0
176
     1
 90
        1
176
     1
 40
0.0
176
     1
 90
        0
176
     1
290
     0
176
     1
290
     1
176
     1
290
     1
176
     1
290
     0
176
     1
290
     0
176
     1
290
     0
176
     1
290
     0
176
     1
290
     0
176
     1
290
     0
176
     1
 90
       50
176
     1
 40
0.0
176
     1
 40
1.0
176
     1
 90
        0
176
     1
 62
    18
420
        0
176
     1
 90
       50
176
     1
 90
        3
176
     1
 62
     5
420
      255
176
     1
290
     0
176
     1
 90
       50
176
     1
 90
       50
176
     1
 90
       50
176
     1
290
     0
176
     1
 90
       50
176
     1
 62
   256
176
     0
 40
1.0
176
     0
 90
        2
176
     1
  1
strokes_ogs.tif
176
     1
290
     0
176
     1
 40
1.0
176
     1
 40
1.0
176
     1
  0
VISUALSTYLE
  5
3EC
102
{ACAD_REACTORS
330
378
102
}
330
378
100
AcDbVisualStyle
  2
X-Ray
 70
    25
177
     3
291
     0
 70
    58
 90
        2
176
     1
 90
        2
176
     1
 90
        1
176
     1
 90
        1
176
     1
 40
0.5
176
     1
 40
30.0
176
     1
 62
     7
420
 16777215
176
     1
 90
        1
176
     1
 90
        0
176
     1
 62
     7
176
     1
 62
   257
176
     1
 90
        1
176
     1
 90
        1
176
     1
 40
1.0
176
     1
 90
        8
176
     1
 62
     7
176
     1
 40
1.0
176
     1
 90
        1
176
     1
 90
        6
176
     1
 90
        2
176
     1
 62
     7
176
     1
 90
        3
176
     1
 90
        0
176
     1
 90
        0
176
     1
290
     0
176
     1
 90
       13
176
     1
 40
0.0
176
     1
 90
        0
176
     1
290
     0
176
     1
290
     1
176
     1
290
     1
176
     1
290
     0
176
     1
290
     0
176
     1
290
     0
176
     1
290
     0
176
     1
290
     0
176
     1
290
     0
176
     1
 90
       50
176
     1
 40
0.0
176
     1
 40
1.0
176
     1
 90
        0
176
     1
 62
    18
420
        0
176
     1
 90
       50
176
     1
 90
        3
176
     1
 62
     5
420
      255
176
     1
290
     0
176
     1
 90
       50
176
     1
 90
       50
176
     1
 90
       50
176
     1
290
     0
176
     1
 90
       50
176
     1
 62
   256
176
     0
 40
1.0
176
     0
 90
        2
176
     1
  1
strokes_ogs.tif
176
     1
290
     0
176
     1
 40
1.0
176
     1
 40
1.0
176
     1
  0
DICTIONARYVAR
  5
40E
102
{ACAD_REACTORS
330
39E
102
}
330
39E
100
DictionaryVariables
280
     0
  1
1:1
  0
DICTIONARYVAR
  5
410
102
{ACAD_REACTORS
330
39E
102
}
330
39E
100
DictionaryVariables
280
     0
  1
Standard
  0
DICTIONARYVAR
  5
40F
102
{ACAD_REACTORS
330
39E
102
}
330
39E
100
DictionaryVariables
280
     0
  1
Standard
  0
DICTIONARYVAR
  5
3A2
102
{ACAD_REACTORS
330
39E
102
}
330
39E
100
DictionaryVariables
280
     0
  1
2
  0
DICTIONARYVAR
  5
3A3
102
{ACAD_REACTORS
330
39E
102
}
330
39E
100
DictionaryVariables
280
     0
  1
1
  0
DICTIONARYVAR
  5
3A1
102
{ACAD_REACTORS
330
39E
102
}
330
39E
100
DictionaryVariables
280
     0
  1
0
  0
DICTIONARY
  5
44D
330
3F0
100
AcDbDictionary
280
     1
281
     1
  3
ACAD_ROUNDTRIP_2008_TABLESTYLE_CELLSTYLEMAP
360
44E
  0
CELLSTYLEMAP
  5
44E
102
{ACAD_REACTORS
330
44D
102
}
330
44D
100
AcDbCellStyleMap
 90
        3
300
CELLSTYLE
  1
TABLEFORMAT_BEGIN
 90
        5
170
     1
 91
        0
 92
    32768
 62
   257
 93
        1
300
CONTENTFORMAT
  1
CONTENTFORMAT_BEGIN
 90
        0
 91
        0
 92
        4
 93
        0
300

 40
0.0
140
1.0
 94
        5
 62
     0
340
11
144
6.0
309
CONTENTFORMAT_END
171
     1
301
MARGIN
  1
CELLMARGIN_BEGIN
 40
1.5
 40
1.5
 40
1.5
 40
1.5
 40
1.5
 40
1.5
309
CELLMARGIN_END
 94
        6
 95
        1
302
GRIDFORMAT
  1
GRIDFORMAT_BEGIN
 90
        0
 91
        1
 62
     0
 92
       -2
340
14
 93
        0
 40
0.045
309
GRIDFORMAT_END
 95
        2
302
GRIDFORMAT
  1
GRIDFORMAT_BEGIN
 90
        0
 91
        1
 62
     0
 92
       -2
340
14
 93
        0
 40
0.045
309
GRIDFORMAT_END
 95
        4
302
GRIDFORMAT
  1
GRIDFORMAT_BEGIN
 90
        0
 91
        1
 62
     0
 92
       -2
340
14
 93
        0
 40
0.045
309
GRIDFORMAT_END
 95
        8
302
GRIDFORMAT
  1
GRIDFORMAT_BEGIN
 90
        0
 91
        1
 62
     0
 92
       -2
340
14
 93
        0
 40
0.045
309
GRIDFORMAT_END
 95
       16
302
GRIDFORMAT
  1
GRIDFORMAT_BEGIN
 90
        0
 91
        1
 62
     0
 92
       -2
340
14
 93
        0
 40
0.045
309
GRIDFORMAT_END
 95
       32
302
GRIDFORMAT
  1
GRIDFORMAT_BEGIN
 90
        0
 91
        1
 62
     0
 92
       -2
340
14
 93
        0
 40
0.045
309
GRIDFORMAT_END
309
TABLEFORMAT_END
  1
CELLSTYLE_BEGIN
 90
        1
 91
        1
300
_TITLE
309
CELLSTYLE_END
300
CELLSTYLE
  1
TABLEFORMAT_BEGIN
 90
        5
170
     1
 91
        0
 92
        0
 62
   257
 93
        1
300
CONTENTFORMAT
  1
CONTENTFORMAT_BEGIN
 90
        0
 91
        0
 92
        4
 93
        0
300

 40
0.0
140
1.0
 94
        5
 62
     0
340
11
144
4.5
309
CONTENTFORMAT_END
171
     1
301
MARGIN
  1
CELLMARGIN_BEGIN
 40
1.5
 40
1.5
 40
1.5
 40
1.5
 40
1.5
 40
1.5
309
CELLMARGIN_END
 94
        6
 95
        1
302
GRIDFORMAT
  1
GRIDFORMAT_BEGIN
 90
        0
 91
        1
 62
     0
 92
       -2
340
14
 93
        0
 40
0.045
309
GRIDFORMAT_END
 95
        2
302
GRIDFORMAT
  1
GRIDFORMAT_BEGIN
 90
        0
 91
        1
 62
     0
 92
       -2
340
14
 93
        0
 40
0.045
309
GRIDFORMAT_END
 95
        4
302
GRIDFORMAT
  1
GRIDFORMAT_BEGIN
 90
        0
 91
        1
 62
     0
 92
       -2
340
14
 93
        0
 40
0.045
309
GRIDFORMAT_END
 95
        8
302
GRIDFORMAT
  1
GRIDFORMAT_BEGIN
 90
        0
 91
        1
 62
     0
 92
       -2
340
14
 93
        0
 40
0.045
309
GRIDFORMAT_END
 95
       16
302
GRIDFORMAT
  1
GRIDFORMAT_BEGIN
 90
        0
 91
        1
 62
     0
 92
       -2
340
14
 93
        0
 40
0.045
309
GRIDFORMAT_END
 95
       32
302
GRIDFORMAT
  1
GRIDFORMAT_BEGIN
 90
        0
 91
        1
 62
     0
 92
       -2
340
14
 93
        0
 40
0.045
309
GRIDFORMAT_END
309
TABLEFORMAT_END
  1
CELLSTYLE_BEGIN
 90
        2
 91
        1
300
_HEADER
309
CELLSTYLE_END
300
CELLSTYLE
  1
TABLEFORMAT_BEGIN
 90
        5
170
     1
 91
        0
 92
        0
 62
   257
 93
        1
300
CONTENTFORMAT
  1
CONTENTFORMAT_BEGIN
 90
        0
 91
        0
 92
        4
 93
        0
300

 40
0.0
140
1.0
 94
        2
 62
     0
340
11
144
4.5
309
CONTENTFORMAT_END
171
     1
301
MARGIN
  1
CELLMARGIN_BEGIN
 40
1.5
 40
1.5
 40
1.5
 40
1.5
 40
1.5
 40
1.5
309
CELLMARGIN_END
 94
        6
 95
        1
302
GRIDFORMAT
  1
GRIDFORMAT_BEGIN
 90
        0
 91
        1
 62
     0
 92
       -2
340
14
 93
        0
 40
0.045
309
GRIDFORMAT_END
 95
        2
302
GRIDFORMAT
  1
GRIDFORMAT_BEGIN
 90
        0
 91
        1
 62
     0
 92
       -2
340
14
 93
        0
 40
0.045
309
GRIDFORMAT_END
 95
        4
302
GRIDFORMAT
  1
GRIDFORMAT_BEGIN
 90
        0
 91
        1
 62
     0
 92
       -2
340
14
 93
        0
 40
0.045
309
GRIDFORMAT_END
 95
        8
302
GRIDFORMAT
  1
GRIDFORMAT_BEGIN
 90
        0
 91
        1
 62
     0
 92
       -2
340
14
 93
        0
 40
0.045
309
GRIDFORMAT_END
 95
       16
302
GRIDFORMAT
  1
GRIDFORMAT_BEGIN
 90
        0
 91
        1
 62
     0
 92
       -2
340
14
 93
        0
 40
0.045
309
GRIDFORMAT_END
 95
       32
302
GRIDFORMAT
  1
GRIDFORMAT_BEGIN
 90
        0
 91
        1
 62
     0
 92
       -2
340
14
 93
        0
 40
0.045
309
GRIDFORMAT_END
309
TABLEFORMAT_END
  1
CELLSTYLE_BEGIN
 90
        3
 91
        2
300
_DATA
309
CELLSTYLE_END
  0
ENDSEC
  0
EOF
