  0
SECTION
  2
HEADER
  9
$ACADVER
  1
AC1009
  9
$INSBASE
 10
0.0
 20
0.0
 30
0.0
  9
$EXTMIN
 10
-32.0
 20
-7.1279115996413287
 30
0.0
  9
$EXTMAX
 10
15.0
 20
33.000000000000007
 30
0.0
  9
$LIMMIN
 10
0.0
 20
0.0
  9
$LIMMAX
 10
297.0
 20
210.0
  9
$ORTHOMODE
 70
     0
  9
$REGENMODE
 70
     1
  9
$FILLMODE
 70
     1
  9
$QTEXTMODE
 70
     0
  9
$MIRRTEXT
 70
     1
  9
$DRAGMODE
 70
     2
  9
$LTSCALE
 40
10.0
  9
$OSMODE
 70
  3071
  9
$ATTMODE
 70
     1
  9
$TEXTSIZE
 40
3.0
  9
$TRACEWID
 40
1.0
  9
$TEXTSTYLE
  7
YOKO
  9
$CLAYER
  8
240
  9
$CELTYPE
  6
BYLAYER
  9
$CECOLOR
 62
   256
  9
$DIMSCALE
 40
1.0
  9
$DIMASZ
 40
2.2299999999999991
  9
$DIMEXO
 40
0.5
  9
$DIMDLI
 40
2.5
  9
$DIMRND
 40
0.0
  9
$DIMDLE
 40
0.0
  9
$DIMEXE
 40
1.0
  9
$DIMTP
 40
0.0
  9
$DIMTM
 40
0.0
  9
$DIMTXT
 40
3.0
  9
$DIMCEN
 40
0.0
  9
$DIMTSZ
 40
0.0
  9
$DIMTOL
 70
     0
  9
$DIMLIM
 70
     0
  9
$DIMTIH
 70
     0
  9
$DIMTOH
 70
     0
  9
$DIMSE1
 70
     0
  9
$DIMSE2
 70
     0
  9
$DIMTAD
 70
     3
  9
$DIMZIN
 70
     8
  9
$DIMBLK
  1
OPEN
  9
$DIMASO
 70
     1
  9
$DIMSHO
 70
     1
  9
$DIMPOST
  1

  9
$DIMAPOST
  1

  9
$DIMALT
 70
     0
  9
$DIMALTD
 70
     2
  9
$DIMALTF
 40
25.399999999999999
  9
$DIMLFAC
 40
1.0
  9
$DIMTOFL
 70
     1
  9
$DIMTVP
 40
0.0
  9
$DIMTIX
 70
     0
  9
$DIMSOXD
 70
     0
  9
$DIMSAH
 70
     0
  9
$DIMBLK1
  1

  9
$DIMBLK2
  1

  9
$DIMSTYLE
  2
BIGT
  9
$DIMCLRD
 70
   256
  9
$DIMCLRE
 70
   256
  9
$DIMCLRT
 70
    40
  9
$DIMTFAC
 40
1.0
  9
$DIMGAP
 40
1.0
  9
$LUNITS
 70
     2
  9
$LUPREC
 70
     3
  9
$SKETCHINC
 40
1.0
  9
$FILLETRAD
 40
0.0
  9
$AUNITS
 70
     0
  9
$AUPREC
 70
     3
  9
$MENU
  1
.
  9
$ELEVATION
 40
0.0
  9
$PELEVATION
 40
0.0
  9
$THICKNESS
 40
0.0
  9
$LIMCHECK
 70
     0
  9
$BLIPMODE
 70
     0
  9
$CHAMFERA
 40
10.0
  9
$CHAMFERB
 40
10.0
  9
$SKPOLY
 70
     0
  9
$TDCREATE
 40
2452879.7538163662
  9
$TDUPDATE
 40
2456008.6589031951
  9
$TDINDWG
 40
0.021330463
  9
$TDUSRTIMER
 40
0.0213302778
  9
$USRTIMER
 70
     1
  9
$ANGBASE
 50
0.0
  9
$ANGDIR
 70
     0
  9
$PDMODE
 70
    35
  9
$PDSIZE
 40
2.0
  9
$PLINEWID
 40
0.0
  9
$COORDS
 70
     0
  9
$SPLFRAME
 70
     0
  9
$SPLINETYPE
 70
     6
  9
$SPLINESEGS
 70
     8
  9
$ATTDIA
 70
     1
  9
$ATTREQ
 70
     1
  9
$HANDLING
 70
     1
  9
$HANDSEED
  5
1C17
  9
$SURFTAB1
 70
     6
  9
$SURFTAB2
 70
     6
  9
$SURFTYPE
 70
     6
  9
$SURFU
 70
     6
  9
$SURFV
 70
     6
  9
$UCSNAME
  2

  9
$UCSORG
 10
0.0
 20
0.0
 30
0.0
  9
$UCSXDIR
 10
1.0
 20
0.0
 30
0.0
  9
$UCSYDIR
 10
0.0
 20
1.0
 30
0.0
  9
$PUCSNAME
  2

  9
$PUCSORG
 10
0.0
 20
0.0
 30
0.0
  9
$PUCSXDIR
 10
1.0
 20
0.0
 30
0.0
  9
$PUCSYDIR
 10
0.0
 20
1.0
 30
0.0
  9
$USERI1
 70
     1
  9
$USERI2
 70
     0
  9
$USERI3
 70
     0
  9
$USERI4
 70
     0
  9
$USERI5
 70
     0
  9
$USERR1
 40
0.0
  9
$USERR2
 40
0.0
  9
$USERR3
 40
0.0
  9
$USERR4
 40
0.0
  9
$USERR5
 40
0.0
  9
$WORLDVIEW
 70
     1
  9
$SHADEDGE
 70
     3
  9
$SHADEDIF
 70
    70
  9
$TILEMODE
 70
     1
  9
$MAXACTVP
 70
    16
  9
$PLIMCHECK
 70
     0
  9
$PEXTMIN
 10
1.0000000000000000E+020
 20
1.0000000000000000E+020
 30
1.0000000000000000E+020
  9
$PEXTMAX
 10
-1.0000000000000000E+020
 20
-1.0000000000000000E+020
 30
-1.0000000000000000E+020
  9
$PLIMMIN
 10
0.0
 20
0.0
  9
$PLIMMAX
 10
420.0
 20
297.0
  9
$UNITMODE
 70
     0
  9
$VISRETAIN
 70
     0
  9
$PLINEGEN
 70
     0
  9
$PSLTSCALE
 70
     1
  0
ENDSEC
  0
SECTION
  2
TABLES
  0
TABLE
  2
VPORT
 70
     3
  0
VPORT
  2
*ACTIVE
 70
     0
 10
0.0
 20
0.0
 11
1.0
 21
1.0
 12
-6.4820299340301553
 22
12.934620368598919
 13
0.0
 23
0.0
 14
7.0
 24
7.0
 15
7.0
 25
7.0
 16
0.0
 26
0.0
 36
1.0
 17
0.0
 27
0.0
 37
0.0
 40
40.434903898579464
 41
1.519208381839348
 42
50.0
 43
0.0
 44
0.0
 50
0.0
 51
0.0
 71
     0
 72
  2000
 73
     1
 74
     0
 75
     0
 76
     0
 77
     0
 78
     0
  0
ENDTAB
  0
TABLE
  2
LTYPE
 70
    13
  0
LTYPE
  2
CONTINUOUS
 70
     0
  3
Solid line
 72
    65
 73
     0
 40
0.0
  0
LTYPE
  2
CENTER2
 70
     0
  3
___ _ ___ _ ___ _ ___ _ ___ _ ___ _ ___ _ ___ _
 72
    65
 73
     4
 40
1.125
 49
0.75
 49
-0.125
 49
0.125
 49
-0.125
  0
LTYPE
  2
HIDDEN2
 70
     0
  3
_ _ _ _ _ _ _ _ _ _ _ _ _ _ _ _ _ _ _ _ _ _ _ _
 72
    65
 73
     2
 40
0.1875
 49
0.125
 49
-0.0625
  0
LTYPE
  2
PHANTOM2
 70
     0
  3
___ _ _ ___ _ _ ___ _ _ ___ _ _ ___ _ _ ___ _ _
 72
    65
 73
     6
 40
1.25
 49
0.625
 49
-0.125
 49
0.125
 49
-0.125
 49
0.125
 49
-0.125
  0
LTYPE
  2
AMCONSTR
 70
     0
  3
_______________________
 72
    65
 73
     2
 40
9999.0
 49
9999.0
 49
0.0
  0
LTYPE
  2
AM_ISO02W050
 70
     0
  3
__ __ __ __ __ __ __ __ __ __ __ __ __ __ __
 72
    65
 73
     2
 40
7.5
 49
6.0
 49
-1.5
  0
LTYPE
  2
HIDDEN
 70
     0
  3
Hidden __ __ __ __ __ __ __ __ __ __ __ __ __ _
 72
    65
 73
     2
 40
9.5249999999999986
 49
6.3499999999999988
 49
-3.1749999999999989
  0
LTYPE
  2
CENTER
 70
     0
  3
____ _ ____ _ ____ _ ____ _ ____ _ ____ _ ____ 
 72
    65
 73
     4
 40
2.0
 49
1.25
 49
-0.25
 49
0.25
 49
-0.25
  0
LTYPE
  2
ACJISTGB
 70
     0
  3
__ . . __ . .
 72
    65
 73
     6
 40
9.0
 49
4.0
 49
-1.0
 49
1.0
 49
-1.0
 49
1.0
 49
-1.0
  0
LTYPE
  2
ACJISTGL
 70
     0
  3
_ _ _ _ _
 72
    65
 73
     2
 40
3.0
 49
2.0
 49
-1.0
  0
LTYPE
  2
ACISOWELD
 70
     0
  3
_ _ _ _ _
 72
    65
 73
     2
 40
2.0
 49
2.0
 49
-1.0
  0
LTYPE
  2
ACISOTGB
 70
     0
  3
__ . . __ . .
 72
    65
 73
     6
 40
9.0
 49
4.0
 49
-1.0
 49
1.0
 49
-1.0
 49
1.0
 49
-1.0
  0
LTYPE
  2
ACISOTGL
 70
     0
  3
_ _ _ _ _
 72
    65
 73
     2
 40
3.0
 49
2.0
 49
-1.0
  0
ENDTAB
  0
TABLE
  2
LAYER
 70
     7
  0
LAYER
  2
0
 70
     0
 62
     7
  6
CONTINUOUS
  0
LAYER
  2
240
 70
     0
 62
     4
  6
CONTINUOUS
  0
LAYER
  2
241
 70
     0
 62
   211
  6
CONTINUOUS
  0
LAYER
  2
243
 70
     0
 62
   211
  6
HIDDEN2
  0
LAYER
  2
245
 70
     0
 62
     2
  6
CENTER2
  0
LAYER
  2
250
 70
     0
 62
     3
  6
CONTINUOUS
  0
LAYER
  2
DEFPOINTS
 70
     0
 62
     7
  6
CONTINUOUS
  0
ENDTAB
  0
TABLE
  2
STYLE
 70
     6
  0
STYLE
  2
STANDARD
 70
     0
 40
0.0
 41
1.0
 50
0.0
 71
     0
 42
3.0
  3
romans.shx
  4
BIGFONT.SHX
  0
STYLE
  2
YOKO
 70
     0
 40
0.0
 41
1.0
 50
0.0
 71
     0
 42
3.0
  3
romans.shx
  4
extfont.shx
  0
STYLE
  2
ACJISGDT
 70
     0
 40
0.0
 41
1.0
 50
0.0
 71
     0
 42
3.0
  3
amgdt.shx
  4
extfont.shx
  0
STYLE
  2
ACJISTS
 70
     0
 40
1.0
 41
1.0
 50
0.0
 71
     0
 42
3.0
  3
amgdt.shx
  4
extfont.shx
  0
STYLE
  2
ACISOTS
 70
     0
 40
1.0
 41
1.0
 50
0.0
 71
     0
 42
3.0
  3
amgdt.shx
  4
extfont.shx
  0
STYLE
  2
ACISOGDT
 70
     0
 40
0.0
 41
1.0
 50
0.0
 71
     0
 42
3.0
  3
amgdt.shx
  4
extfont.shx
  0
ENDTAB
  0
TABLE
  2
VIEW
 70
     0
  0
ENDTAB
  0
TABLE
  2
UCS
 70
     0
  0
ENDTAB
  0
TABLE
  2
APPID
 70
    28
  0
APPID
  2
ACAD
 70
     0
  0
APPID
  2
GLOBAL
 70
     0
  0
APPID
  2
DETAIL
 70
     0
  0
APPID
  2
GRPNAME
 70
     0
  0
APPID
  2
GPARA
 70
     0
  0
APPID
  2
ITEMNAME
 70
     0
  0
APPID
  2
MCAD_NO_VIS
 70
     0
  0
APPID
  2
ACAD_TEMP_GRAPHIC
 70
     0
  0
APPID
  2
ACATTRIBSERVICES
 70
     0
  0
APPID
  2
GENIUS_GENSCREG_15
 70
     0
  0
APPID
  2
GENIUS_GENODEF_13
 70
     0
  0
APPID
  2
GENIUS_GENOBJ-N-SDF_13
 70
     0
  0
APPID
  2
GENIUS_GENREC_14
 70
     0
  0
APPID
  2
GENIUS_GENOBJ-N-REC_13
 70
     0
  0
APPID
  2
GENIUS_GENDIMSH_14
 70
     0
  0
APPID
  2
GENIUS_GENOBJ-N-DIM_13
 70
     0
  0
APPID
  2
GENIUS_GENDIM_13
 70
     0
  0
APPID
  2
GENIUS_GENDTOL_13
 70
     0
  0
APPID
  2
GENIUS_GENOLIS_13
 70
     0
  0
APPID
  2
GENIUS_GENOENT_13
 70
     0
  0
APPID
  2
GENIUS_GENOBJ-F-FEM_13
 70
     0
  0
APPID
  2
GENIUS_GENOREF_13
 70
     0
  0
APPID
  2
GENIUS_GEFFEM_13
 70
     0
  0
APPID
  2
GENIUS_GEFFEMP_13
 70
     0
  0
APPID
  2
AD_DRAW
 70
     0
  0
APPID
  2
DESIGNERASSEMBLIES
 70
     0
  0
APPID
  2
ACADM_DIM_EDIT
 70
     0
  0
APPID
  2
AMDT_DM_ADJ
 70
     0
  0
ENDTAB
  0
TABLE
  2
DIMSTYLE
 70
    24
  0
DIMSTYLE
  2
STANDARD
 70
     0
  3

  4

  5

  6

  7

 40
1.0
 41
2.0
 42
2.0
 43
3.75
 44
2.0
 45
0.0
 46
0.0
 47
0.0
 48
0.0
140
4.0
141
0.09
142
0.0
143
25.399999999999999
144
1.0
145
0.0
146
1.0
147
1.0
 71
     0
 72
     0
 73
     1
 74
     1
 75
     0
 76
     0
 77
     0
 78
     8
170
     0
171
     2
172
     0
173
     1
174
     0
175
     0
176
   256
177
   256
178
   256
  0
DIMSTYLE
  2
BIGT
 70
     0
  3

  4

  5
OPEN
  6

  7

 40
1.0
 41
2.2299999999999991
 42
0.5
 43
7.0
 44
1.0
 45
0.0
 46
0.0
 47
0.0
 48
0.01
140
2.7999999999999989
141
0.0
142
0.0
143
25.399999999999999
144
1.0
145
0.0
146
1.0
147
1.0
 71
     0
 72
     0
 73
     0
 74
     0
 75
     0
 76
     0
 77
     3
 78
     9
170
     0
171
     2
172
     1
173
     0
174
     1
175
     0
176
   256
177
   256
178
    40
  0
DIMSTYLE
  2
BIGT$0
 70
     0
  3

  4

  5
OPEN
  6

  7

 40
1.0
 41
2.2299999999999991
 42
0.5
 43
7.0
 44
1.0
 45
0.0
 46
0.0
 47
0.0
 48
0.01
140
2.7999999999999989
141
0.0
142
0.0
143
25.399999999999999
144
1.0
145
0.0
146
1.0
147
1.0
 71
     0
 72
     0
 73
     0
 74
     0
 75
     0
 76
     0
 77
     3
 78
     9
170
     0
171
     2
172
     1
173
     0
174
     0
175
     0
176
   256
177
   256
178
    40
  0
DIMSTYLE
  2
BIGT$2
 70
     0
  3

  4

  5
OPEN
  6

  7

 40
1.0
 41
2.2299999999999991
 42
0.5
 43
7.0
 44
1.0
 45
0.0
 46
0.0
 47
0.0
 48
0.01
140
2.7999999999999989
141
0.0
142
0.0
143
25.399999999999999
144
1.0
145
0.0
146
1.0
147
1.0
 71
     0
 72
     0
 73
     0
 74
     0
 75
     0
 76
     0
 77
     3
 78
     9
170
     0
171
     2
172
     1
173
     0
174
     0
175
     0
176
   256
177
   256
178
    40
  0
DIMSTYLE
  2
BIGT$3
 70
     0
  3

  4

  5
OPEN
  6

  7

 40
1.0
 41
2.2299999999999991
 42
0.5
 43
2.5
 44
1.0
 45
0.0
 46
0.0
 47
0.0
 48
0.01
140
2.7999999999999989
141
0.0
142
0.0
143
25.399999999999999
144
1.0
145
0.0
146
1.0
147
1.0
 71
     0
 72
     0
 73
     0
 74
     0
 75
     0
 76
     0
 77
     3
 78
     9
170
     0
171
     2
172
     1
173
     0
174
     0
175
     0
176
   256
177
   256
178
    40
  0
DIMSTYLE
  2
BIGT$4
 70
     0
  3

  4

  5
OPEN
  6

  7

 40
1.0
 41
2.2299999999999991
 42
0.5
 43
2.5
 44
1.0
 45
0.0
 46
0.0
 47
0.0
 48
0.01
140
2.7999999999999989
141
0.0
142
0.0
143
25.399999999999999
144
1.0
145
0.0
146
1.0
147
1.0
 71
     0
 72
     0
 73
     0
 74
     0
 75
     0
 76
     0
 77
     3
 78
     9
170
     0
171
     2
172
     1
173
     0
174
     0
175
     0
176
   256
177
   256
178
    40
  0
DIMSTYLE
  2
BIGT$6
 70
     0
  3

  4

  5
OPEN
  6

  7

 40
1.0
 41
2.2299999999999991
 42
0.5
 43
2.5
 44
1.0
 45
0.0
 46
0.0
 47
0.0
 48
0.01
140
2.7999999999999989
141
0.0
142
0.0
143
25.399999999999999
144
1.0
145
0.0
146
1.0
147
1.0
 71
     0
 72
     0
 73
     0
 74
     0
 75
     0
 76
     0
 77
     3
 78
     9
170
     0
171
     2
172
     1
173
     0
174
     0
175
     0
176
   256
177
   256
178
    40
  0
DIMSTYLE
  2
BIGT$7
 70
     0
  3

  4

  5
OPEN
  6

  7

 40
0.0
 41
2.2299999999999991
 42
0.5
 43
7.0
 44
1.0
 45
0.0
 46
0.0
 47
0.0
 48
0.01
140
2.7999999999999989
141
0.0
142
0.0
143
25.399999999999999
144
1.0
145
0.0
146
1.0
147
1.0
 71
     0
 72
     0
 73
     0
 74
     0
 75
     0
 76
     0
 77
     3
 78
     9
170
     0
171
     2
172
     0
173
     0
174
     0
175
     0
176
   256
177
   256
178
    40
  0
DIMSTYLE
  2
BIGT$SF
 70
     0
  3

  4

  5
OPEN
  6

  7

 40
1.0
 41
2.2299999999999991
 42
0.5
 43
7.0
 44
1.0
 45
0.0
 46
0.0
 47
0.0
 48
0.0
140
2.7999999999999989
141
0.0
142
0.0
143
25.399999999999999
144
1.0
145
0.0
146
1.0
147
1.0
 71
     0
 72
     0
 73
     0
 74
     0
 75
     0
 76
     0
 77
     3
 78
     9
170
     0
171
     2
172
     1
173
     0
174
     0
175
     0
176
   256
177
   256
178
    40
  0
DIMSTYLE
  2
BIGT$SH
 70
     0
  3

  4

  5
OPEN
  6

  7

 40
1.0
 41
2.2299999999999991
 42
0.5
 43
7.0
 44
1.0
 45
0.0
 46
0.0
 47
0.0
 48
0.0
140
2.7999999999999989
141
0.0
142
0.0
143
25.399999999999999
144
1.0
145
0.0
146
1.0
147
1.0
 71
     0
 72
     0
 73
     0
 74
     0
 75
     0
 76
     0
 77
     3
 78
     9
170
     0
171
     2
172
     1
173
     0
174
     0
175
     0
176
   256
177
   256
178
    40
  0
DIMSTYLE
  2
AM_ISO
 70
     0
  3

  4
"
  5

  6

  7

 40
1.0
 41
2.5
 42
1.0
 43
10.0
 44
1.0
 45
0.0
 46
0.0
 47
0.1
 48
0.1
140
3.5
141
0.0
142
0.0
143
0.0393701
144
1.0
145
0.0
146
0.71
147
1.5
 71
     0
 72
     0
 73
     0
 74
     0
 75
     0
 76
     0
 77
     1
 78
     8
170
     0
171
     2
172
     1
173
     0
174
     0
175
     0
176
   256
177
   256
178
     2
  0
DIMSTYLE
  2
AM_ISO$3
 70
     0
  3

  4
"
  5

  6

  7

 40
1.0
 41
2.5
 42
1.0
 43
10.0
 44
1.0
 45
0.0
 46
0.0
 47
0.1
 48
0.1
140
3.5
141
0.0
142
0.0
143
0.0393701
144
1.0
145
0.0
146
0.71
147
1.5
 71
     0
 72
     0
 73
     0
 74
     1
 75
     0
 76
     0
 77
     1
 78
     8
170
     0
171
     2
172
     0
173
     0
174
     0
175
     0
176
   256
177
   256
178
     2
  0
DIMSTYLE
  2
AM_ISO$4
 70
     0
  3

  4
"
  5

  6

  7

 40
1.0
 41
2.5
 42
1.0
 43
10.0
 44
1.0
 45
0.0
 46
0.0
 47
0.1
 48
0.1
140
3.5
141
0.0
142
0.0
143
0.0393701
144
1.0
145
0.0
146
0.71
147
1.5
 71
     0
 72
     0
 73
     0
 74
     1
 75
     0
 76
     0
 77
     1
 78
     8
170
     0
171
     2
172
     0
173
     0
174
     0
175
     0
176
   256
177
   256
178
     2
  0
DIMSTYLE
  2
AM_ISO$6
 70
     0
  3

  4
"
  5

  6

  7

 40
1.0
 41
2.5
 42
1.0
 43
10.0
 44
1.0
 45
0.0
 46
0.0
 47
0.1
 48
0.1
140
3.5
141
0.0
142
0.0
143
0.0393701
144
1.0
145
0.0
146
0.71
147
1.5
 71
     0
 72
     0
 73
     0
 74
     0
 75
     0
 76
     0
 77
     0
 78
     8
170
     0
171
     2
172
     1
173
     0
174
     0
175
     0
176
   256
177
   256
178
     2
  0
DIMSTYLE
  2
AM_ISO$7
 70
     0
  3

  4
"
  5

  6

  7

 40
1.0
 41
2.5
 42
1.0
 43
10.0
 44
1.0
 45
0.0
 46
0.0
 47
0.1
 48
0.1
140
5.0
141
0.0
142
0.0
143
0.0393701
144
1.0
145
0.0
146
0.71
147
1.5
 71
     0
 72
     0
 73
     0
 74
     0
 75
     0
 76
     0
 77
     1
 78
     8
170
     0
171
     2
172
     1
173
     0
174
     0
175
     0
176
   256
177
   256
178
     2
  0
DIMSTYLE
  2
AM_ISO$SF
 70
     0
  3

  4
"
  5

  6

  7

 40
1.0
 41
2.5
 42
1.0
 43
10.0
 44
1.0
 45
0.0
 46
0.0
 47
0.1
 48
0.1
140
3.5
141
0.0
142
0.0
143
0.0393701
144
1.0
145
0.0
146
0.71
147
1.5
 71
     0
 72
     0
 73
     0
 74
     0
 75
     1
 76
     1
 77
     1
 78
     8
170
     0
171
     2
172
     1
173
     0
174
     0
175
     0
176
   256
177
   256
178
     2
  0
DIMSTYLE
  2
AM_ISO$SH
 70
     0
  3

  4
"
  5

  6
GENAXEH
  7

 40
1.0
 41
2.5
 42
1.0
 43
10.0
 44
1.0
 45
0.0
 46
0.0
 47
0.1
 48
0.1
140
3.5
141
0.0
142
0.0
143
0.0393701
144
2.0
145
0.0
146
0.71
147
1.5
 71
     0
 72
     0
 73
     0
 74
     0
 75
     1
 76
     1
 77
     1
 78
     8
170
     0
171
     2
172
     1
173
     1
174
     0
175
     0
176
   256
177
   256
178
     2
  0
DIMSTYLE
  2
TECHNICAL_OSAKA
 70
     0
  3

  4
"
  5
OPEN30
  6

  7

 40
1.0
 41
2.5
 42
1.0
 43
10.0
 44
1.0
 45
0.0
 46
0.0
 47
0.1
 48
0.1
140
2.7999999999999989
141
0.0
142
0.0
143
0.0393701
144
1.0
145
0.0
146
0.71
147
1.5
 71
     0
 72
     0
 73
     0
 74
     0
 75
     0
 76
     0
 77
     3
 78
     8
170
     0
171
     2
172
     1
173
     0
174
     0
175
     0
176
   256
177
   256
178
    40
  0
DIMSTYLE
  2
TECHNICAL_OSAKA$3
 70
     0
  3

  4
"
  5
OPEN30
  6

  7

 40
1.0
 41
2.5
 42
1.0
 43
10.0
 44
1.0
 45
0.0
 46
0.0
 47
0.1
 48
0.1
140
2.7999999999999989
141
0.0
142
0.0
143
0.0393701
144
1.0
145
0.0
146
0.71
147
1.5
 71
     0
 72
     0
 73
     0
 74
     1
 75
     0
 76
     0
 77
     3
 78
     8
170
     0
171
     2
172
     0
173
     0
174
     0
175
     0
176
   256
177
   256
178
    40
  0
DIMSTYLE
  2
TECHNICAL_OSAKA$4
 70
     0
  3

  4
"
  5
OPEN30
  6

  7

 40
1.0
 41
2.5
 42
1.0
 43
10.0
 44
1.0
 45
0.0
 46
0.0
 47
0.1
 48
0.1
140
2.7999999999999989
141
0.0
142
0.0
143
0.0393701
144
1.0
145
0.0
146
0.71
147
1.5
 71
     0
 72
     0
 73
     0
 74
     1
 75
     0
 76
     0
 77
     3
 78
     8
170
     0
171
     2
172
     0
173
     0
174
     0
175
     0
176
   256
177
   256
178
    40
  0
DIMSTYLE
  2
TECHNICAL_OSAKA$6
 70
     0
  3

  4
"
  5
OPEN30
  6

  7

 40
1.0
 41
2.5
 42
1.0
 43
10.0
 44
1.0
 45
0.0
 46
0.0
 47
0.1
 48
0.1
140
2.7999999999999989
141
0.0
142
0.0
143
0.0393701
144
1.0
145
0.0
146
0.71
147
1.5
 71
     0
 72
     0
 73
     0
 74
     0
 75
     0
 76
     0
 77
     0
 78
     8
170
     0
171
     2
172
     1
173
     0
174
     0
175
     0
176
   256
177
   256
178
    40
  0
DIMSTYLE
  2
TECHNICAL_OSAKA$7
 70
     0
  3

  4
"
  5
OPEN30
  6

  7

 40
1.0
 41
2.5
 42
1.0
 43
10.0
 44
1.0
 45
0.0
 46
0.0
 47
0.1
 48
0.1
140
2.7999999999999989
141
0.0
142
0.0
143
0.0393701
144
1.0
145
0.0
146
0.71
147
1.5
 71
     0
 72
     0
 73
     0
 74
     0
 75
     0
 76
     0
 77
     3
 78
     8
170
     0
171
     2
172
     1
173
     0
174
     0
175
     0
176
   256
177
   256
178
    40
  0
DIMSTYLE
  2
TECHNICAL_OSAKA$SF
 70
     0
  3

  4
"
  5
OPEN30
  6
OPEN30
  7
OPEN30
 40
1.0
 41
2.5
 42
1.0
 43
10.0
 44
1.0
 45
0.0
 46
0.0
 47
0.1
 48
0.1
140
3.5
141
0.0
142
0.0
143
0.0393701
144
1.0
145
0.0
146
0.71
147
1.5
 71
     0
 72
     0
 73
     0
 74
     0
 75
     1
 76
     1
 77
     3
 78
     8
170
     0
171
     2
172
     1
173
     0
174
     0
175
     0
176
   256
177
   256
178
    40
  0
DIMSTYLE
  2
TECHNICAL_OSAKA$SH
 70
     0
  3

  4
"
  5
OPEN30
  6
GENAXEH
  7
OPEN30
 40
1.0
 41
2.5
 42
1.0
 43
10.0
 44
1.0
 45
0.0
 46
0.0
 47
0.1
 48
0.1
140
3.5
141
0.0
142
0.0
143
0.0393701
144
2.0
145
0.0
146
0.71
147
1.5
 71
     0
 72
     0
 73
     0
 74
     0
 75
     1
 76
     1
 77
     3
 78
     8
170
     0
171
     2
172
     1
173
     1
174
     0
175
     0
176
   256
177
   256
178
    40
  0
ENDTAB
  0
ENDSEC
  0
SECTION
  2
BLOCKS
  0
BLOCK
  8
0
  2
$MODEL_SPACE
 70
     0
 10
0.0
 20
0.0
 30
0.0
  3
$MODEL_SPACE
  1

  0
ENDBLK
  5
1C
  8
0
  0
BLOCK
 67
     1
  8
0
  2
$PAPER_SPACE
 70
     0
 10
0.0
 20
0.0
 30
0.0
  3
$PAPER_SPACE
  1

  0
ENDBLK
  5
19
 67
     1
  8
0
  0
BLOCK
  8
0
  2
_OPEN
 70
     0
 10
0.0
 20
0.0
 30
0.0
  3
_OPEN
  1

  0
LINE
  5
1B91
  8
0
  6
BYBLOCK
 62
     0
 10
-1.0
 20
0.1666666666666666
 30
0.0
 11
0.0
 21
0.0
 31
0.0
  0
LINE
  5
1B92
  8
0
  6
BYBLOCK
 62
     0
 10
-1.0
 20
-0.1666666666666666
 30
0.0
 11
0.0
 21
0.0
 31
0.0
  0
LINE
  5
1B93
  8
0
  6
BYBLOCK
 62
     0
 10
0.0
 20
0.0
 30
0.0
 11
-1.0
 21
0.0
 31
0.0
  0
ENDBLK
  5
1B94
  8
0
  0
BLOCK
  8
0
  2
*D1
 70
     1
 10
0.0
 20
0.0
 30
0.0
  3
*D1
  1

  0
LINE
  5
1BF5
  8
250
 10
0.5
 20
2.0
 30
0.0
 11
15.0
 21
1.9999999999999949
 31
0.0
  0
LINE
  5
1BF6
  8
250
 10
0.5000000000000071
 20
-2.0
 30
0.0
 11
15.0
 21
-2.000000000000004
 31
0.0
  0
LINE
  5
1BF7
  8
250
 10
14.0
 20
4.2299999999999951
 30
0.0
 11
14.0
 21
6.4599999999999946
 31
0.0
  0
LINE
  5
1BF8
  8
250
 10
14.0
 20
-4.2300000000000031
 30
0.0
 11
14.0
 21
-6.4600000000000044
 31
0.0
  0
TEXT
  8
250
  40
2.8
  5
1C15
  62
40
  72
0
  71
0
 10
6.15576
 20
-4.88391
 30
0.000000
  1
%%c3.5~4
  0
LINE
  5
1BFA
  8
250
 10
14.0
 20
1.999999999999996
 30
0.0
 11
14.0
 21
-2.0000000000000031
 31
0.0
  0
INSERT
  5
1BFB
  8
250
  2
_OPEN
 10
14.0
 20
1.999999999999996
 30
0.0
 41
2.2299999999999991
 42
2.2299999999999991
 43
2.2299999999999991
 50
270.0
  0
INSERT
  5
1BFC
  8
250
  2
_OPEN
 10
14.0
 20
-2.0000000000000031
 30
0.0
 41
2.2299999999999991
 42
2.2299999999999991
 43
2.2299999999999991
 50
90.0
  0
POINT
  5
1BFD
  8
DEFPOINTS
 62
     0
 10
0.0
 20
2.0
 30
0.0
  0
POINT
  5
1BFE
  8
DEFPOINTS
 62
     0
 10
0.0000000000000071
 20
-2.0
 30
0.0
  0
POINT
  5
1BFF
  8
DEFPOINTS
 62
     0
 10
14.0
 20
-2.0000000000000031
 30
0.0
  0
ENDBLK
  5
A09
  8
0
  0
BLOCK
  8
0
  2
*D2
 70
     1
 10
0.0
 20
0.0
 30
0.0
  3
*D2
  1

  0
LINE
  5
A25
  8
250
  6
CONTINUOUS
 10
-17.999999999999979
 20
5.1500000000000039
 30
0.0
 11
-17.999999999999979
 21
15.0
 31
0.0
  0
LINE
  5
A26
  8
250
  6
CONTINUOUS
 10
0.0
 20
5.7685049999999762
 30
0.0
 11
0.0000000000000006
 21
15.0
 31
0.0
  0
LINE
  5
A27
  8
250
  6
CONTINUOUS
 10
-15.76999999999998
 20
14.0
 30
0.0
 11
-2.2299999999999991
 21
14.0
 31
0.0
  0
INSERT
  5
A28
  8
250
  6
CONTINUOUS
  2
_OPEN
 10
-17.999999999999979
 20
14.0
 30
0.0
 41
2.2299999999999991
 42
2.2299999999999991
 43
2.2299999999999991
 50
180.0
  0
INSERT
  5
A29
  8
250
  6
CONTINUOUS
  2
_OPEN
 10
0.0000000000000005
 20
14.0
 30
0.0
 41
2.2299999999999991
 42
2.2299999999999991
 43
2.2299999999999991
  0
INSERT
  5
A2A
  8
240
  2
*U9
 10
0.0
 20
0.0
 30
0.0
  0
POINT
  5
A2B
  8
DEFPOINTS
  6
CONTINUOUS
 62
     0
 10
-17.999999999999979
 20
4.6500000000000039
 30
0.0
  0
POINT
  5
A2C
  8
DEFPOINTS
  6
CONTINUOUS
 62
     0
 10
0.0
 20
5.2685049999999771
 30
0.0
  0
POINT
  5
A2D
  8
DEFPOINTS
  6
CONTINUOUS
 62
     0
 10
0.0000000000000005
 20
14.0
 30
0.0
  0
ENDBLK
  5
A23
  8
0
  0
BLOCK
  8
0
  2
*D3
 70
     1
 10
0.0
 20
0.0
 30
0.0
  3
*D3
  1

  0
LINE
  5
1C08
  8
250
  6
CONTINUOUS
 10
-4.0999999999999943
 20
-6.25
 30
0.0
 11
-29.0
 21
-6.249999999999992
 31
0.0
  0
LINE
  5
1C09
  8
250
  6
CONTINUOUS
 10
-4.0999999999999917
 20
6.25
 30
0.0
 11
-29.0
 21
6.2500000000000071
 31
0.0
  0
LINE
  5
1C0A
  8
250
  6
CONTINUOUS
 10
-28.0
 20
-4.0199999999999934
 30
0.0
 11
-28.0
 21
4.0200000000000067
 31
0.0
  0
INSERT
  5
1C0B
  8
250
  6
CONTINUOUS
  2
_OPEN
 10
-28.0
 20
-6.249999999999992
 30
0.0
 41
2.2299999999999991
 42
2.2299999999999991
 43
2.2299999999999991
 50
270.0
  0
INSERT
  5
1C0C
  8
250
  6
CONTINUOUS
  2
_OPEN
 10
-28.0
 20
6.2500000000000071
 30
0.0
 41
2.2299999999999991
 42
2.2299999999999991
 43
2.2299999999999991
 50
90.0
  0
TEXT
  8
250
  40
3
  5
1C16
  62
40
  72
0
  71
0
 10
-36.5000
 20
-5.31000
 30
0.000000
  1
?12.5
  0
POINT
  5
1C0E
  8
DEFPOINTS
  6
CONTINUOUS
 62
     0
 10
-3.599999999999993
 20
-6.25
 30
0.0
  0
POINT
  5
1C0F
  8
DEFPOINTS
  6
CONTINUOUS
 62
     0
 10
-3.599999999999993
 20
6.25
 30
0.0
  0
POINT
  5
1C10
  8
DEFPOINTS
  6
CONTINUOUS
 62
     0
 10
-28.0
 20
6.2500000000000071
 30
0.0
  0
ENDBLK
  5
A3F
  8
0
  0
BLOCK
  8
0
  2
A$C3FA01D53
 70
     0
 10
0.0
 20
0.0
 30
0.0
  3
A$C3FA01D53
  1

  0
LINE
  5
18EF
  8
241
 10
-3.599999999999993
 20
-5.25
 30
0.0
 11
-3.599999999999993
 21
-0.25
 31
0.0
  0
LINE
  5
18F0
  8
241
 10
-1.699999999999988
 20
-5.25
 30
0.0
 11
-1.699999999999988
 21
-0.25
 31
0.0
  0
LINE
  5
18F1
  8
240
 10
-17.999999999999979
 20
-4.6500000000000039
 30
0.0
 11
-17.999999999999979
 21
4.6500000000000039
 31
0.0
  0
LINE
  5
18F2
  8
240
 10
0.0
 20
-5.2685040000000063
 30
0.0
 11
0.0
 21
-0.25
 31
0.0
  0
LINE
  5
18F3
  8
243
 10
-13.99999999999998
 20
-2.0
 30
0.0
 11
0.0
 21
-2.0
 31
0.0
  0
LINE
  5
18F4
  8
241
 10
-17.999999999999979
 20
-2.1484419999999882
 30
0.0
 11
-3.599999999999993
 21
-2.903114000000016
 31
0.0
  0
LINE
  5
18F5
  8
241
 10
-17.999999999999979
 20
-2.581454000000007
 30
0.0
 11
-3.599999999999993
 21
-3.3361260000000348
 31
0.0
  0
LINE
  5
18F6
  8
241
 10
-15.04419599999998
 20
-4.3304930000000166
 30
0.0
 11
-3.599999999999993
 21
-5.5333260000000157
 31
0.0
  0
LINE
  5
18F7
  8
240
 10
-3.599999999999993
 20
-6.25
 30
0.0
 11
-17.903341999999981
 21
-4.7466579999999947
 31
0.0
  0
LINE
  5
18F8
  8
241
 10
-15.018206999999981
 20
-4.083224999999997
 30
0.0
 11
-3.599999999999993
 21
-5.2833260000000157
 31
0.0
  0
POLYLINE
  5
18F9
  8
241
 66
     1
 10
0.0
 20
0.0
 30
0.0
 70
     8
  0
VERTEX
  5
18FA
  8
241
  6
CONTINUOUS
 10
-15.04419599999998
 20
-4.3304930000000166
 30
0.0
 70
    32
  0
VERTEX
  5
18FB
  8
241
  6
CONTINUOUS
 10
-15.068845999999979
 20
-4.3682129999999972
 30
0.0
 70
    32
  0
VERTEX
  5
18FC
  8
241
  6
CONTINUOUS
 10
-15.09897599999999
 20
-4.4041970000000088
 30
0.0
 70
    32
  0
VERTEX
  5
18FD
  8
241
  6
CONTINUOUS
 10
-15.134372999999981
 20
-4.4381939999999807
 30
0.0
 70
    32
  0
VERTEX
  5
18FE
  8
241
  6
CONTINUOUS
 10
-15.17478999999997
 20
-4.4699640000000036
 30
0.0
 70
    32
  0
VERTEX
  5
18FF
  8
241
  6
CONTINUOUS
 10
-15.21994399999998
 20
-4.4992850000000129
 30
0.0
 70
    32
  0
VERTEX
  5
1900
  8
241
  6
CONTINUOUS
 10
-15.26951699999997
 20
-4.5259510000000187
 30
0.0
 70
    32
  0
VERTEX
  5
1901
  8
241
  6
CONTINUOUS
 10
-15.32316199999998
 20
-4.549775000000011
 30
0.0
 70
    32
  0
VERTEX
  5
1902
  8
241
  6
CONTINUOUS
 10
-15.38050299999999
 20
-4.5705899999999806
 30
0.0
 70
    32
  0
VERTEX
  5
1903
  8
241
  6
CONTINUOUS
 10
-15.44113699999998
 20
-4.5882499999999871
 30
0.0
 70
    32
  0
VERTEX
  5
1904
  8
241
  6
CONTINUOUS
 10
-15.50463899999998
 20
-4.6026310000000006
 30
0.0
 70
    32
  0
VERTEX
  5
1905
  8
241
  6
CONTINUOUS
 10
-15.57056299999997
 20
-4.613632000000023
 30
0.0
 70
    32
  0
VERTEX
  5
1906
  8
241
  6
CONTINUOUS
 10
-15.638447999999981
 20
-4.6211760000000179
 30
0.0
 70
    32
  0
VERTEX
  5
1907
  8
241
  6
CONTINUOUS
 10
-15.70781699999997
 20
-4.625210000000008
 30
0.0
 70
    32
  0
VERTEX
  5
1908
  8
241
  6
CONTINUOUS
 10
-15.77818299999997
 20
-4.6257060000000081
 30
0.0
 70
    32
  0
VERTEX
  5
1909
  8
241
  6
CONTINUOUS
 10
-15.849051999999981
 20
-4.6226599999999962
 30
0.0
 70
    32
  0
VERTEX
  5
190A
  8
241
  6
CONTINUOUS
 10
-15.919928999999989
 20
-4.616094000000003
 30
0.0
 70
    32
  0
VERTEX
  5
190B
  8
241
  6
CONTINUOUS
 10
-15.990314999999979
 20
-4.6060540000000003
 30
0.0
 70
    32
  0
VERTEX
  5
190C
  8
241
  6
CONTINUOUS
 10
-16.05971599999998
 20
-4.5926090000000377
 30
0.0
 70
    32
  0
VERTEX
  5
190D
  8
241
  6
CONTINUOUS
 10
-16.127646999999978
 20
-4.5758550000000184
 30
0.0
 70
    32
  0
VERTEX
  5
190E
  8
241
  6
CONTINUOUS
 10
-16.193629999999992
 20
-4.5559100000000123
 30
0.0
 70
    32
  0
VERTEX
  5
190F
  8
241
  6
CONTINUOUS
 10
-16.257201999999989
 20
-4.5329120000000094
 30
0.0
 70
    32
  0
VERTEX
  5
1910
  8
241
  6
CONTINUOUS
 10
-16.317918999999979
 20
-4.507023000000002
 30
0.0
 70
    32
  0
VERTEX
  5
1911
  8
241
  6
CONTINUOUS
 10
-16.375351999999989
 20
-4.4784249999999872
 30
0.0
 70
    32
  0
VERTEX
  5
1912
  8
241
  6
CONTINUOUS
 10
-16.429100999999989
 20
-4.4473180000000232
 30
0.0
 70
    32
  0
VERTEX
  5
1913
  8
241
  6
CONTINUOUS
 10
-16.47878799999998
 20
-4.4139209999999869
 30
0.0
 70
    32
  0
VERTEX
  5
1914
  8
241
  6
CONTINUOUS
 10
-16.524063999999981
 20
-4.3784680000000256
 30
0.0
 70
    32
  0
VERTEX
  5
1915
  8
241
  6
CONTINUOUS
 10
-16.564611999999979
 20
-4.3412079999999929
 30
0.0
 70
    32
  0
VERTEX
  5
1916
  8
241
  6
CONTINUOUS
 10
-16.600146999999989
 20
-4.3024010000000299
 30
0.0
 70
    32
  0
VERTEX
  5
1917
  8
241
  6
CONTINUOUS
 10
-16.63041999999998
 20
-4.262320999999984
 30
0.0
 70
    32
  0
VERTEX
  5
1918
  8
241
  6
CONTINUOUS
 10
-16.655218999999988
 20
-4.221248000000001
 30
0.0
 70
    32
  0
VERTEX
  5
1919
  8
241
  6
CONTINUOUS
 10
-16.674368999999981
 20
-4.1794700000000091
 30
0.0
 70
    32
  0
VERTEX
  5
191A
  8
241
  6
CONTINUOUS
 10
-16.68773699999997
 20
-4.1372810000000007
 30
0.0
 70
    32
  0
VERTEX
  5
191B
  8
241
  6
CONTINUOUS
 10
-16.695227999999979
 20
-4.094976000000031
 30
0.0
 70
    32
  0
VERTEX
  5
191C
  8
241
  6
CONTINUOUS
 10
-16.696790999999969
 20
-4.0528520000000006
 30
0.0
 70
    32
  0
VERTEX
  5
191D
  8
241
  6
CONTINUOUS
 10
-16.692413999999982
 20
-4.0112050000000181
 30
0.0
 70
    32
  0
VERTEX
  5
191E
  8
241
  6
CONTINUOUS
 10
-16.682126999999991
 20
-3.970326000000028
 30
0.0
 70
    32
  0
VERTEX
  5
191F
  8
241
  6
CONTINUOUS
 10
-16.66600399999998
 20
-3.9305040000000129
 30
0.0
 70
    32
  0
VERTEX
  5
1920
  8
241
  6
CONTINUOUS
 10
-16.644155999999992
 20
-3.892016000000011
 30
0.0
 70
    32
  0
VERTEX
  5
1921
  8
241
  6
CONTINUOUS
 10
-16.61673799999998
 20
-3.8551320000000251
 30
0.0
 70
    32
  0
VERTEX
  5
1922
  8
241
  6
CONTINUOUS
 10
-16.583941999999979
 20
-3.8201129999999912
 30
0.0
 70
    32
  0
VERTEX
  5
1923
  8
241
  6
CONTINUOUS
 10
-16.545996999999979
 20
-3.787202000000006
 30
0.0
 70
    32
  0
VERTEX
  5
1924
  8
241
  6
CONTINUOUS
 10
-16.503169999999979
 20
-3.7566320000000228
 30
0.0
 70
    32
  0
VERTEX
  5
1925
  8
241
  6
CONTINUOUS
 10
-16.455761999999979
 20
-3.7286160000000161
 30
0.0
 70
    32
  0
VERTEX
  5
1926
  8
241
  6
CONTINUOUS
 10
-16.40410399999999
 20
-3.7033510000000258
 30
0.0
 70
    32
  0
VERTEX
  5
1927
  8
241
  6
CONTINUOUS
 10
-16.34855899999998
 20
-3.6810140000000038
 30
0.0
 70
    32
  0
VERTEX
  5
1928
  8
241
  6
CONTINUOUS
 10
-16.28951799999998
 20
-3.6617620000000088
 30
0.0
 70
    32
  0
VERTEX
  5
1929
  8
241
  6
CONTINUOUS
 10
-16.227392999999971
 20
-3.645731000000012
 30
0.0
 70
    32
  0
VERTEX
  5
192A
  8
241
  6
CONTINUOUS
 10
-16.16262099999998
 20
-3.633031000000015
 30
0.0
 70
    32
  0
VERTEX
  5
192B
  8
241
  6
CONTINUOUS
 10
-16.095655999999991
 20
-3.6237530000000211
 30
0.0
 70
    32
  0
VERTEX
  5
192C
  8
241
  6
CONTINUOUS
 10
-16.026967999999979
 20
-3.6179620000000039
 30
0.0
 70
    32
  0
VERTEX
  5
192D
  8
241
  6
CONTINUOUS
 10
-15.95703899999998
 20
-3.6156980000000081
 30
0.0
 70
    32
  0
VERTEX
  5
192E
  8
241
  6
CONTINUOUS
 10
-15.886357999999969
 20
-3.616976999999991
 30
0.0
 70
    32
  0
VERTEX
  5
192F
  8
241
  6
CONTINUOUS
 10
-15.81542299999998
 20
-3.6217899999999741
 30
0.0
 70
    32
  0
VERTEX
  5
1930
  8
241
  6
CONTINUOUS
 10
-15.74472999999999
 20
-3.6301030000000178
 30
0.0
 70
    32
  0
VERTEX
  5
1931
  8
241
  6
CONTINUOUS
 10
-15.674775999999991
 20
-3.641858000000012
 30
0.0
 70
    32
  0
VERTEX
  5
1932
  8
241
  6
CONTINUOUS
 10
-15.60605099999999
 20
-3.6569729999999931
 30
0.0
 70
    32
  0
VERTEX
  5
1933
  8
241
  6
CONTINUOUS
 10
-15.539036999999979
 20
-3.6753419999999992
 30
0.0
 70
    32
  0
VERTEX
  5
1934
  8
241
  6
CONTINUOUS
 10
-15.474203999999981
 20
-3.696835000000021
 30
0.0
 70
    32
  0
VERTEX
  5
1935
  8
241
  6
CONTINUOUS
 10
-15.41200799999997
 20
-3.7213020000000081
 30
0.0
 70
    32
  0
VERTEX
  5
1936
  8
241
  6
CONTINUOUS
 10
-15.35288299999997
 20
-3.7485720000000229
 30
0.0
 70
    32
  0
VERTEX
  5
1937
  8
241
  6
CONTINUOUS
 10
-15.29724599999998
 20
-3.7784519999999859
 30
0.0
 70
    32
  0
VERTEX
  5
1938
  8
241
  6
CONTINUOUS
 10
-15.245485999999969
 20
-3.810734000000024
 30
0.0
 70
    32
  0
VERTEX
  5
1939
  8
241
  6
CONTINUOUS
 10
-15.19796699999997
 20
-3.845190999999998
 30
0.0
 70
    32
  0
VERTEX
  5
193A
  8
241
  6
CONTINUOUS
 10
-15.155020999999991
 20
-3.8815810000000108
 30
0.0
 70
    32
  0
VERTEX
  5
193B
  8
241
  6
CONTINUOUS
 10
-15.11694999999998
 20
-3.919649000000021
 30
0.0
 70
    32
  0
VERTEX
  5
193C
  8
241
  6
CONTINUOUS
 10
-15.08402099999997
 20
-3.9591280000000211
 30
0.0
 70
    32
  0
VERTEX
  5
193D
  8
241
  6
CONTINUOUS
 10
-15.056465999999981
 20
-3.9997410000000002
 30
0.0
 70
    32
  0
VERTEX
  5
193E
  8
241
  6
CONTINUOUS
 10
-15.03447599999998
 20
-4.0412039999999934
 30
0.0
 70
    32
  0
VERTEX
  5
193F
  8
241
  6
CONTINUOUS
 10
-15.018206999999981
 20
-4.083224999999997
 30
0.0
 70
    32
  0
SEQEND
  5
1940
  8
241
  0
LINE
  5
1941
  8
240
 10
-17.903341999999981
 20
-4.7466579999999947
 30
0.0
 11
-17.999999999999979
 21
-4.6500000000000039
 31
0.0
  0
LINE
  5
1942
  8
241
 10
-3.599999999999993
 20
-2.581454000000007
 30
0.0
 11
-1.699999999999988
 21
-2.581454000000007
 31
0.0
  0
LINE
  5
1943
  8
241
 10
-3.599999999999993
 20
-2.1484419999999882
 30
0.0
 11
-1.699999999999988
 21
-2.1484419999999882
 31
0.0
  0
LINE
  5
1944
  8
241
 10
-3.599999999999993
 20
-4.5333260000000157
 30
0.0
 11
-1.699999999999988
 21
-4.5333260000000157
 31
0.0
  0
LINE
  5
1945
  8
241
 10
-3.599999999999993
 20
-4.2833260000000148
 30
0.0
 11
-1.699999999999988
 21
-4.2833260000000148
 31
0.0
  0
LINE
  5
1946
  8
240
 10
-3.599999999999993
 20
-5.25
 30
0.0
 11
-1.699999999999988
 21
-5.25
 31
0.0
  0
LINE
  5
1947
  8
240
 10
-3.599999999999993
 20
-6.25
 30
0.0
 11
-3.599999999999993
 21
-5.25
 31
0.0
  0
LINE
  5
1948
  8
240
 10
-1.699999999999988
 20
-6.25
 30
0.0
 11
-1.699999999999988
 21
-5.25
 31
0.0
  0
LINE
  5
1949
  8
240
 10
-1.699999999999988
 20
-6.25
 30
0.0
 11
0.0
 21
-5.2685040000000063
 31
0.0
  0
LINE
  5
194A
  8
241
 10
-1.399999999999977
 20
-3.320403999999995
 30
0.0
 11
-1.699999999999988
 21
-3.3361260000000348
 31
0.0
  0
LINE
  5
194B
  8
241
 10
-1.399999999999977
 20
-2.887391000000008
 30
0.0
 11
-1.699999999999988
 21
-2.903114000000016
 31
0.0
  0
LINE
  5
194C
  8
241
 10
-1.399999999999977
 20
-2.887391000000008
 30
0.0
 11
-1.399999999999977
 21
-3.320403999999995
 31
0.0
  0
LINE
  5
194D
  8
241
 10
0.0
 20
-4.5518309999999911
 30
0.0
 11
-1.699999999999988
 21
-5.5333260000000157
 31
0.0
  0
LINE
  5
194E
  8
241
 10
0.0
 20
-4.3018309999999911
 30
0.0
 11
-1.699999999999988
 21
-5.2833260000000157
 31
0.0
  0
LINE
  5
194F
  8
243
 10
-13.99999999999998
 20
2.0
 30
0.0
 11
0.0
 21
2.0
 31
0.0
  0
LINE
  5
1950
  8
241
 10
-15.03759599999997
 20
0.25
 30
0.0
 11
0.0
 21
0.25
 31
0.0
  0
LINE
  5
1951
  8
241
 10
-15.03759599999997
 20
-0.25
 30
0.0
 11
0.0
 21
-0.25
 31
0.0
  0
LINE
  5
1952
  8
241
 10
-17.999999999999979
 20
2.1484419999999882
 30
0.0
 11
-3.599999999999993
 21
2.903114000000016
 31
0.0
  0
LINE
  5
1953
  8
241
 10
-17.999999999999979
 20
2.5814549999999761
 30
0.0
 11
-3.599999999999993
 21
3.3361270000000038
 31
0.0
  0
LINE
  5
1954
  8
241
 10
-15.04419599999998
 20
4.3304939999999856
 30
0.0
 11
-3.599999999999993
 21
5.5333270000000132
 31
0.0
  0
LINE
  5
1955
  8
241
 10
-15.018206999999981
 20
4.083224999999997
 30
0.0
 11
-3.599999999999993
 21
5.2833270000000141
 31
0.0
  0
LINE
  5
1956
  8
245
 10
-19.090769482200781
 20
0.0
 30
0.0
 11
1.4897804558277841
 21
0.0
 31
0.0
  0
LINE
  5
1957
  8
240
 10
-17.903341999999981
 20
4.7466589999999931
 30
0.0
 11
-3.599999999999993
 21
6.25
 31
0.0
  0
POLYLINE
  5
1958
  8
241
 66
     1
 10
0.0
 20
0.0
 30
0.0
 70
     8
  0
VERTEX
  5
1959
  8
241
  6
CONTINUOUS
 10
-15.04419599999998
 20
4.3304939999999856
 30
0.0
 70
    32
  0
VERTEX
  5
195A
  8
241
  6
CONTINUOUS
 10
-15.068845999999979
 20
4.3682140000000231
 30
0.0
 70
    32
  0
VERTEX
  5
195B
  8
241
  6
CONTINUOUS
 10
-15.09897599999999
 20
4.4041980000000081
 30
0.0
 70
    32
  0
VERTEX
  5
195C
  8
241
  6
CONTINUOUS
 10
-15.134372999999981
 20
4.4381949999999781
 30
0.0
 70
    32
  0
VERTEX
  5
195D
  8
241
  6
CONTINUOUS
 10
-15.17478999999997
 20
4.4699650000000011
 30
0.0
 70
    32
  0
VERTEX
  5
195E
  8
241
  6
CONTINUOUS
 10
-15.21994399999998
 20
4.4992859999999828
 30
0.0
 70
    32
  0
VERTEX
  5
195F
  8
241
  6
CONTINUOUS
 10
-15.26951699999997
 20
4.5259519999999869
 30
0.0
 70
    32
  0
VERTEX
  5
1960
  8
241
  6
CONTINUOUS
 10
-15.32316199999998
 20
4.5497759999999801
 30
0.0
 70
    32
  0
VERTEX
  5
1961
  8
241
  6
CONTINUOUS
 10
-15.38050299999999
 20
4.5705909999999781
 30
0.0
 70
    32
  0
VERTEX
  5
1962
  8
241
  6
CONTINUOUS
 10
-15.44113699999998
 20
4.5882509999999854
 30
0.0
 70
    32
  0
VERTEX
  5
1963
  8
241
  6
CONTINUOUS
 10
-15.50463899999998
 20
4.6026319999999714
 30
0.0
 70
    32
  0
VERTEX
  5
1964
  8
241
  6
CONTINUOUS
 10
-15.57056299999997
 20
4.6136330000000214
 30
0.0
 70
    32
  0
VERTEX
  5
1965
  8
241
  6
CONTINUOUS
 10
-15.638447999999981
 20
4.6211770000000163
 30
0.0
 70
    32
  0
VERTEX
  5
1966
  8
241
  6
CONTINUOUS
 10
-15.70781699999997
 20
4.625210999999978
 30
0.0
 70
    32
  0
VERTEX
  5
1967
  8
241
  6
CONTINUOUS
 10
-15.77818299999997
 20
4.6257069999999771
 30
0.0
 70
    32
  0
VERTEX
  5
1968
  8
241
  6
CONTINUOUS
 10
-15.849051999999981
 20
4.6226609999999928
 30
0.0
 70
    32
  0
VERTEX
  5
1969
  8
241
  6
CONTINUOUS
 10
-15.919928999999989
 20
4.6160949999999712
 30
0.0
 70
    32
  0
VERTEX
  5
196A
  8
241
  6
CONTINUOUS
 10
-15.990314999999979
 20
4.6060540000000003
 30
0.0
 70
    32
  0
VERTEX
  5
196B
  8
241
  6
CONTINUOUS
 10
-16.05971599999998
 20
4.5926100000000059
 30
0.0
 70
    32
  0
VERTEX
  5
196C
  8
241
  6
CONTINUOUS
 10
-16.127646999999978
 20
4.575856000000015
 30
0.0
 70
    32
  0
VERTEX
  5
196D
  8
241
  6
CONTINUOUS
 10
-16.193629999999992
 20
4.5559100000000123
 30
0.0
 70
    32
  0
VERTEX
  5
196E
  8
241
  6
CONTINUOUS
 10
-16.257201999999989
 20
4.5329120000000094
 30
0.0
 70
    32
  0
VERTEX
  5
196F
  8
241
  6
CONTINUOUS
 10
-16.317918999999979
 20
4.5070239999999711
 30
0.0
 70
    32
  0
VERTEX
  5
1970
  8
241
  6
CONTINUOUS
 10
-16.375351999999989
 20
4.478425999999982
 30
0.0
 70
    32
  0
VERTEX
  5
1971
  8
241
  6
CONTINUOUS
 10
-16.429100999999989
 20
4.4473189999999931
 30
0.0
 70
    32
  0
VERTEX
  5
1972
  8
241
  6
CONTINUOUS
 10
-16.47878799999998
 20
4.4139219999999852
 30
0.0
 70
    32
  0
VERTEX
  5
1973
  8
241
  6
CONTINUOUS
 10
-16.524063999999981
 20
4.3784689999999946
 30
0.0
 70
    32
  0
VERTEX
  5
1974
  8
241
  6
CONTINUOUS
 10
-16.564611999999979
 20
4.3412089999999912
 30
0.0
 70
    32
  0
VERTEX
  5
1975
  8
241
  6
CONTINUOUS
 10
-16.600146999999989
 20
4.3024019999999989
 30
0.0
 70
    32
  0
VERTEX
  5
1976
  8
241
  6
CONTINUOUS
 10
-16.63041999999998
 20
4.2623219999999824
 30
0.0
 70
    32
  0
VERTEX
  5
1977
  8
241
  6
CONTINUOUS
 10
-16.655218999999988
 20
4.221248000000001
 30
0.0
 70
    32
  0
VERTEX
  5
1978
  8
241
  6
CONTINUOUS
 10
-16.674368999999981
 20
4.1794710000000057
 30
0.0
 70
    32
  0
VERTEX
  5
1979
  8
241
  6
CONTINUOUS
 10
-16.68773699999997
 20
4.1372810000000007
 30
0.0
 70
    32
  0
VERTEX
  5
197A
  8
241
  6
CONTINUOUS
 10
-16.695227999999979
 20
4.0949770000000001
 30
0.0
 70
    32
  0
VERTEX
  5
197B
  8
241
  6
CONTINUOUS
 10
-16.696790999999969
 20
4.0528529999999696
 30
0.0
 70
    32
  0
VERTEX
  5
197C
  8
241
  6
CONTINUOUS
 10
-16.692413999999982
 20
4.0112060000000138
 30
0.0
 70
    32
  0
VERTEX
  5
197D
  8
241
  6
CONTINUOUS
 10
-16.682126999999991
 20
3.9703269999999971
 30
0.0
 70
    32
  0
VERTEX
  5
197E
  8
241
  6
CONTINUOUS
 10
-16.66600399999998
 20
3.9305040000000129
 30
0.0
 70
    32
  0
VERTEX
  5
197F
  8
241
  6
CONTINUOUS
 10
-16.644155999999992
 20
3.8920159999999822
 30
0.0
 70
    32
  0
VERTEX
  5
1980
  8
241
  6
CONTINUOUS
 10
-16.61673799999998
 20
3.855132999999995
 30
0.0
 70
    32
  0
VERTEX
  5
1981
  8
241
  6
CONTINUOUS
 10
-16.583941999999979
 20
3.8201129999999912
 30
0.0
 70
    32
  0
VERTEX
  5
1982
  8
241
  6
CONTINUOUS
 10
-16.545996999999979
 20
3.7872029999999759
 30
0.0
 70
    32
  0
VERTEX
  5
1983
  8
241
  6
CONTINUOUS
 10
-16.503169999999979
 20
3.7566330000000221
 30
0.0
 70
    32
  0
VERTEX
  5
1984
  8
241
  6
CONTINUOUS
 10
-16.455761999999979
 20
3.7286169999999852
 30
0.0
 70
    32
  0
VERTEX
  5
1985
  8
241
  6
CONTINUOUS
 10
-16.40410399999999
 20
3.7033519999999949
 30
0.0
 70
    32
  0
VERTEX
  5
1986
  8
241
  6
CONTINUOUS
 10
-16.34855899999998
 20
3.6810150000000008
 30
0.0
 70
    32
  0
VERTEX
  5
1987
  8
241
  6
CONTINUOUS
 10
-16.28951799999998
 20
3.6617629999999779
 30
0.0
 70
    32
  0
VERTEX
  5
1988
  8
241
  6
CONTINUOUS
 10
-16.227392999999971
 20
3.645731000000012
 30
0.0
 70
    32
  0
VERTEX
  5
1989
  8
241
  6
CONTINUOUS
 10
-16.16262099999998
 20
3.6330319999999841
 30
0.0
 70
    32
  0
VERTEX
  5
198A
  8
241
  6
CONTINUOUS
 10
-16.095655999999991
 20
3.6237540000000181
 30
0.0
 70
    32
  0
VERTEX
  5
198B
  8
241
  6
CONTINUOUS
 10
-16.026967999999979
 20
3.6179630000000031
 30
0.0
 70
    32
  0
VERTEX
  5
198C
  8
241
  6
CONTINUOUS
 10
-15.95703899999998
 20
3.615698999999978
 30
0.0
 70
    32
  0
VERTEX
  5
198D
  8
241
  6
CONTINUOUS
 10
-15.886357999999969
 20
3.616976999999991
 30
0.0
 70
    32
  0
VERTEX
  5
198E
  8
241
  6
CONTINUOUS
 10
-15.81542299999998
 20
3.6217900000000038
 30
0.0
 70
    32
  0
VERTEX
  5
198F
  8
241
  6
CONTINUOUS
 10
-15.74472999999999
 20
3.6301040000000171
 30
0.0
 70
    32
  0
VERTEX
  5
1990
  8
241
  6
CONTINUOUS
 10
-15.674775999999991
 20
3.6418589999999811
 30
0.0
 70
    32
  0
VERTEX
  5
1991
  8
241
  6
CONTINUOUS
 10
-15.60605099999999
 20
3.6569739999999911
 30
0.0
 70
    32
  0
VERTEX
  5
1992
  8
241
  6
CONTINUOUS
 10
-15.539036999999979
 20
3.6753429999999692
 30
0.0
 70
    32
  0
VERTEX
  5
1993
  8
241
  6
CONTINUOUS
 10
-15.474203999999981
 20
3.69683599999999
 30
0.0
 70
    32
  0
VERTEX
  5
1994
  8
241
  6
CONTINUOUS
 10
-15.41200799999997
 20
3.7213029999999758
 30
0.0
 70
    32
  0
VERTEX
  5
1995
  8
241
  6
CONTINUOUS
 10
-15.35288299999997
 20
3.748571999999966
 30
0.0
 70
    32
  0
VERTEX
  5
1996
  8
241
  6
CONTINUOUS
 10
-15.29724599999998
 20
3.778452999999983
 30
0.0
 70
    32
  0
VERTEX
  5
1997
  8
241
  6
CONTINUOUS
 10
-15.245485999999969
 20
3.810735000000022
 30
0.0
 70
    32
  0
VERTEX
  5
1998
  8
241
  6
CONTINUOUS
 10
-15.19796699999997
 20
3.8451919999999959
 30
0.0
 70
    32
  0
VERTEX
  5
1999
  8
241
  6
CONTINUOUS
 10
-15.155020999999991
 20
3.881581999999979
 30
0.0
 70
    32
  0
VERTEX
  5
199A
  8
241
  6
CONTINUOUS
 10
-15.11694999999998
 20
3.9196499999999901
 30
0.0
 70
    32
  0
VERTEX
  5
199B
  8
241
  6
CONTINUOUS
 10
-15.08402099999997
 20
3.9591290000000172
 30
0.0
 70
    32
  0
VERTEX
  5
199C
  8
241
  6
CONTINUOUS
 10
-15.056465999999981
 20
3.9997419999999959
 30
0.0
 70
    32
  0
VERTEX
  5
199D
  8
241
  6
CONTINUOUS
 10
-15.03447599999998
 20
4.0412049999999899
 30
0.0
 70
    32
  0
VERTEX
  5
199E
  8
241
  6
CONTINUOUS
 10
-15.018206999999981
 20
4.083224999999997
 30
0.0
 70
    32
  0
SEQEND
  5
199F
  8
241
  0
ARC
  5
19A0
  8
241
 10
-15.849999999999991
 20
0.0
 30
0.0
 40
0.85
 50
17.104634999999401
 51
342.8953650000006
  0
LINE
  5
19A1
  8
240
 10
-17.999999999999979
 20
4.6500000000000039
 30
0.0
 11
-17.903341999999981
 21
4.7466589999999931
 31
0.0
  0
LINE
  5
19A2
  8
241
 10
-3.599999999999993
 20
4.5333270000000141
 30
0.0
 11
-1.699999999999988
 21
4.5333270000000141
 31
0.0
  0
LINE
  5
19A3
  8
240
 10
-3.599999999999993
 20
5.25
 30
0.0
 11
-1.699999999999988
 21
5.25
 31
0.0
  0
LINE
  5
19A4
  8
241
 10
-3.599999999999993
 20
4.2833270000000141
 30
0.0
 11
-1.699999999999988
 21
4.2833270000000141
 31
0.0
  0
LINE
  5
19A5
  8
241
 10
-3.599999999999993
 20
2.1484419999999882
 30
0.0
 11
-1.699999999999988
 21
2.1484419999999882
 31
0.0
  0
LINE
  5
19A6
  8
241
 10
-3.599999999999993
 20
2.5814549999999761
 30
0.0
 11
-1.699999999999988
 21
2.5814549999999761
 31
0.0
  0
LINE
  5
19A7
  8
241
 10
-3.599999999999993
 20
0.25
 30
0.0
 11
-3.599999999999993
 21
5.25
 31
0.0
  0
LINE
  5
19A8
  8
240
 10
-3.599999999999993
 20
5.25
 30
0.0
 11
-3.599999999999993
 21
6.25
 31
0.0
  0
LINE
  5
19A9
  8
241
 10
-1.699999999999988
 20
5.25
 30
0.0
 11
-1.699999999999988
 21
0.25
 31
0.0
  0
LINE
  5
19AA
  8
241
 10
-1.699999999999988
 20
0.25
 30
0.0
 11
-1.699999999999988
 21
5.25
 31
0.0
  0
LINE
  5
19AB
  8
240
 10
0.0
 20
0.25
 30
0.0
 11
0.0
 21
5.2685049999999771
 31
0.0
  0
LINE
  5
19AC
  8
241
 10
0.0
 20
4.5518319999999903
 30
0.0
 11
-1.699999999999988
 21
5.5333270000000132
 31
0.0
  0
LINE
  5
19AD
  8
240
 10
0.0
 20
5.2685049999999771
 30
0.0
 11
-1.699999999999988
 21
6.25
 31
0.0
  0
LINE
  5
19AE
  8
240
 10
-1.699999999999988
 20
5.25
 30
0.0
 11
-1.699999999999988
 21
6.25
 31
0.0
  0
LINE
  5
19AF
  8
241
 10
0.0
 20
4.3018319999999903
 30
0.0
 11
-1.699999999999988
 21
5.2833270000000141
 31
0.0
  0
LINE
  5
19B0
  8
241
 10
-1.399999999999977
 20
2.8873920000000042
 30
0.0
 11
-1.399999999999977
 21
3.3204049999999929
 31
0.0
  0
LINE
  5
19B1
  8
241
 10
-1.399999999999977
 20
2.8873920000000042
 30
0.0
 11
-1.699999999999988
 21
2.903114000000016
 31
0.0
  0
LINE
  5
19B2
  8
241
 10
-1.399999999999977
 20
3.3204049999999929
 30
0.0
 11
-1.699999999999988
 21
3.3361270000000038
 31
0.0
  0
ENDBLK
  5
19B4
  8
0
  0
BLOCK
  8
0
  2
GENAXEH
 70
     0
 10
0.0
 20
0.0
 30
0.0
  3
GENAXEH
  1

  0
LINE
  5
1BBC
  8
0
 10
-1.0
 20
0.0
 30
0.0
 11
1.0
 21
0.0
 31
0.0
  0
ENDBLK
  5
1BBD
  8
0
  0
BLOCK
  8
0
  2
_OPEN30
 70
     0
 10
0.0
 20
0.0
 30
0.0
  3
_OPEN30
  1

  0
LINE
  5
1BE1
  8
0
  6
BYBLOCK
 62
     0
 10
-1.0
 20
0.26794919
 30
0.0
 11
0.0
 21
0.0
 31
0.0
  0
LINE
  5
1BE2
  8
0
  6
BYBLOCK
 62
     0
 10
0.0
 20
0.0
 30
0.0
 11
-1.0
 21
-0.26794919
 31
0.0
  0
LINE
  5
1BE3
  8
0
  6
BYBLOCK
 62
     0
 10
0.0
 20
0.0
 30
0.0
 11
-1.0
 21
0.0
 31
0.0
  0
ENDBLK
  5
1BE4
  8
0
  0
BLOCK
  8
0
  2
*U8
 70
     1
 10
0.0
 20
0.0
 30
0.0
  3
*U8
  1

  0
TEXT
  5
1C01
  8
241
 10
-17.952380952380949
 20
28.0
 30
0.0
 40
5.0
  1
NBC8-4
  7
YOKO
  0
ENDBLK
  5
1C03
  8
0
  0
BLOCK
  8
0
  2
*U9
 70
     1
 10
0.0
 20
0.0
 30
0.0
  3
*U9
  1

  0
TEXT
  5
1C05
  8
250
 62
    40
 10
-12.071428571428561
 20
15.0
 30
0.0
 40
3.0
  1
18
  0
ENDBLK
  5
1C07
  8
0
  0
ENDSEC
  0
SECTION
  2
ENTITIES
  0
DIMENSION
  5
9FC
  8
250
  2
*D1
 10
14.0
 20
-2.0000000000000031
 30
0.0
 11
11.75575629857388
 21
0.0720884003586662
 31
0.0
 70
   128
  1
%%c3.5~<>
 13
0.0
 23
2.0
 33
0.0
 14
0.0000000000000071
 24
-2.0
 34
0.0
 50
90.0
1001
ACAD
1000
DSTYLE
1002
{
1070
   287
1070
     5
1070
   287
1070
     5
1070
   279
1070
     2
1002
}
  0
INSERT
  5
9FD
  8
240
  2
*U8
 10
0.0
 20
0.0
 30
0.0
  0
DIMENSION
  5
A17
  8
250
  6
CONTINUOUS
  2
*D2
 10
0.0000000000000005
 20
14.0
 30
0.0
 11
-8.9999999999999911
 21
16.5
 31
0.0
 70
     0
 13
-17.999999999999979
 23
4.6500000000000039
 33
0.0
 14
0.0
 24
5.2685049999999771
 34
0.0
1001
ACAD
1000
DSTYLE
1002
{
1070
    78
1070
     8
1070
   140
1040
3.0
1002
}
  0
DIMENSION
  5
A33
  8
250
  6
CONTINUOUS
  2
*D3
 10
-28.0
 20
6.2500000000000071
 30
0.0
 11
-28.0
 21
0.0000000000000026
 31
0.0
 70
   128
  1
{\H3;\U+2205}<>
 13
-3.599999999999993
 23
-6.25
 33
0.0
 14
-3.599999999999993
 24
6.25
 34
0.0
 50
90.0
1001
ACAD
1000
DSTYLE
1002
{
1070
   287
1070
     3
1070
   287
1070
     3
1070
    77
1070
     3
1070
    78
1070
     8
1070
   140
1040
3.0
1070
   145
1040
1.0
1070
   279
1070
     0
1070
   289
1070
     3
1002
}
  0
INSERT
  5
19B5
  8
240
  2
A$C3FA01D53
 10
0.0
 20
0.0
 30
0.0
  0
VIEWPORT
  5
22
 67
     1
  8
0
 10
261.51769911504419
 20
148.5
 30
0.0
 40
523.0353982300885
 41
297.0
 68
     1
 69
     1
1001
ACAD
1000
MVIEW
1002
{
1070
    16
1010
0.0
1020
0.0
1030
0.0
1010
0.0
1020
0.0
1030
1.0
1040
0.0
1040
297.0
1040
261.51769911504419
1040
148.5
1040
50.0
1040
0.0
1040
0.0
1070
     0
1070
   100
1070
     1
1070
     1
1070
     0
1070
     0
1070
     0
1070
     0
1040
0.0
1040
0.0
1040
0.0
1040
1.0
1040
1.0
1040
10.0
1040
10.0
1070
     0
1002
{
1002
}
1002
}
1001
GENIUS_GENODEF_13
1002
{
1000
HIER
1070
     0
1002
}
1002
{
1000
MANEDIT
1070
     0
1002
}
1002
{
1000
NOSEL
1070
     0
1002
}
1002
{
1000
BEHIND
1070
     0
1002
}
1002
{
1000
OTHER
1070
     0
1002
}
1002
{
1000
REACTOR
1002
}
1001
GENIUS_GENOBJ-N-SDF_13
1002
{
1000
OWNER
1000
GEN
1002
}
1001
GENIUS_GENSCREG_15
1000
PF
1040
1.0
1000
DF
1040
1.0
1000
MIN
1011
0.0
1021
0.0
1031
0.0
1021
0.0
1031
0.0
1000
MAX
1011
523.0353982300885
1021
0.0
1031
0.0
1021
297.0
1031
0.0
1000
FLAGS
1070
     2
  0
ENDSEC
  0
EOF
